osu file format v12

[General]
AudioFilename: loginscreenintro.mp3
AudioLeadIn: 0
PreviewTime: 60800
Countdown: 0
SampleSet: None
StackLeniency: 0.2
Mode: 0
LetterboxInBreaks: 1

[Editor]
Bookmarks: 3200,8800,9600,10400,11200,12000,15200,28000,44800,48000,48400,50200,50600,54000,54700,57200,60000,61200,63200,63600,67600,70000,74600,86400,118800,121600
DistanceSpacing: 0.8
BeatDivisor: 1
GridSize: 8

[Metadata]
Title:Here Comes Vi
TitleUnicode:Here Comes Vi
Artist:Nicki Taylor
ArtistUnicode:Nicki Taylor
Creator:Jedi515
Version:Denting Blows
Source:League of Legends
Tags:lol riot games hue piltover hextech demacia noxus
BeatmapID:253509
BeatmapSetID:83906

[Difficulty]
HPDrainRate:3
CircleSize:3
OverallDifficulty:3
ApproachRate:4
SliderMultiplier:1
SliderTickRate:1

[Events]
//Background and Video events
0,0,"Vi_Splash_1.jpg",0,0
//Break Periods
2,45000,47080
2,73800,83480
//Storyboard Layer 0 (Background)
//Storyboard Layer 1 (Fail)
//Storyboard Layer 2 (Pass)
//Storyboard Layer 3 (Foreground)
//Storyboard Sound Samples
//Background Colour Transformations
3,100,163,162,255

[TimingPoints]
3200,400,4,2,0,50,1,0
28600,-100,4,3,0,80,0,0
41600,-100,4,3,0,80,0,0
47600,-100,4,3,0,80,0,0
60800,-100,4,3,0,80,0,1
72800,-100,4,3,0,80,0,0
125200,-100,4,3,0,80,0,1
140800,-100,4,3,0,80,0,0

[Colours]
Combo1 : 255,192,0
Combo2 : 232,196,102
Combo3 : 164,53,0
Combo4 : 0,0,85

[HitObjects]
216,88,3200,6,0,P|152:112|144:136,1,100
144,232,4000,2,0,P|184:264|240:264,1,100
312,256,4800,1,0,0:0:0:0:
328,176,5200,2,0,P|312:120|344:72,1,100
400,128,6000,1,0,0:0:0:0:
432,200,6400,6,0,L|384:296,1,100
312,320,7200,1,0,0:0:0:0:
224,288,7600,1,0,0:0:0:0:
144,240,8000,1,0,0:0:0:0:
64,160,8400,6,0,L|176:160,1,100
232,160,9200,2,0,L|336:160,1,100
400,160,10000,2,0,L|504:160,1,100
504,240,10800,6,0,L|504:296,1,50
504,290,11200,1,0,0:0:0:0:
424,288,11600,2,0,L|392:248,2,50
256,192,12400,12,0,15200,0:0:0:0:
248,160,16000,6,0,L|168:88,1,100
104,128,16800,1,0,0:0:0:0:
152,176,17200,1,0,0:0:0:0:
208,224,17600,2,0,L|208:336,2,100
264,176,18800,1,0,0:0:0:0:
296,120,19200,2,0,P|360:136|368:168,1,100
416,216,20000,2,0,P|384:280|344:280,1,100
304,336,20800,1,0,0:0:0:0:
248,272,21200,2,0,B|248:200|248:216|304:216,1,100
304,152,22000,6,0,L|344:112,2,50
304,152,22800,2,0,L|264:112,2,50
304,152,23600,2,0,L|256:208,2,50
304,152,24400,2,0,L|352:200,2,50
232,152,25200,5,0,0:0:0:0:
168,144,25600,2,0,P|152:208|176:240,1,100
208,288,26400,2,0,P|256:304|304:288,1,100
352,248,27200,2,0,P|368:192|352:144,1,100
328,80,28000,6,0,L|264:80,2,50
208,80,28800,1,0,0:0:0:0:
136,80,29200,2,0,L|72:168,1,100
80,232,30000,2,0,L|138:319,1,100
208,312,30800,1,0,0:0:0:0:
208,312,31200,1,0,0:0:0:0:
288,280,31600,6,0,L|336:240,2,50
224,240,32400,2,0,L|192:200,2,50
288,192,33200,2,0,L|336:152,2,50,0|0|0,0:0|0:0|0:0,0:0:0:0:
224,144,34000,2,0,L|192:104,2,50
280,64,34800,5,0,0:0:0:0:
352,64,35200,2,0,P|384:152|360:264,1,200
296,256,36400,1,0,0:0:0:0:
224,256,36800,2,0,P|200:168|224:64,1,200
312,56,38000,6,0,P|352:96|368:144,1,100
368,216,38800,2,0,P|352:272|304:296,1,100
200,296,39600,2,0,P|160:264|136:208,1,100
136,152,40400,2,0,P|160:96|200:56,1,100
256,56,41200,2,0,L|256:192,1,100
256,192,42000,12,0,44800,0:0:0:0:
168,80,48400,6,0,B|56:80|56:40|96:40|96:168,1,200
120,224,49600,1,0,0:0:0:0:
168,272,50000,1,0,0:0:0:0:
224,312,50400,1,0,0:0:0:0:
288,304,50800,2,0,B|408:304|408:344|368:344|368:200,1,200
344,160,52000,1,0,0:0:0:0:
304,96,52400,1,0,0:0:0:0:
240,56,52800,1,0,0:0:0:0:
200,128,53200,2,0,P|200:160|232:168,2,50
128,88,54000,6,0,B|80:160|176:192|120:280,1,200
184,304,55200,2,0,P|224:312|288:264,2,100
216,240,56400,2,0,L|240:120,1,100
256,64,57200,5,0,0:0:0:0:
256,64,57600,2,0,L|144:64,1,100
80,64,58400,1,0,0:0:0:0:
80,64,58800,2,0,L|80:192,1,100
80,240,59600,1,0,0:0:0:0:
152,240,60000,1,0,0:0:0:0:
184,240,60200,2,0,L|240:240,3,50
184,176,61200,6,0,L|120:88,1,100
272,176,62000,2,0,L|208:88,2,100
360,176,63200,2,0,L|296:88,1,100
368,72,64000,1,0,0:0:0:0:
440,136,64400,1,0,0:0:0:0:
440,224,64800,1,0,0:0:0:0:
368,288,65200,1,0,0:0:0:0:
288,296,65600,2,0,P|240:296|208:256,3,100
208,184,67200,5,0,0:0:0:0:
152,128,67600,2,0,B|112:72|112:104|168:24,1,100
208,88,68400,1,0,0:0:0:0:
264,48,68800,2,0,B|296:104|296:80|256:152,1,100
208,184,69600,1,0,0:0:0:0:
256,248,70000,5,0,0:0:0:0:
256,320,70400,2,0,L|328:320,2,50
184,320,71200,1,0,0:0:0:0:
184,248,71600,2,0,L|120:248,2,50
256,248,72400,1,0,0:0:0:0:
328,248,72800,2,0,L|432:248,2,100
256,192,84800,12,0,86400,0:0:0:0:
168,88,87200,5,0,0:0:0:0:
88,88,87600,2,0,L|88:192,1,100
88,256,88400,2,0,P|120:304|168:296,1,100
232,304,89200,2,0,P|280:304|304:256,1,100
344,208,90000,5,0,0:0:0:0:
344,112,90400,1,0,0:0:0:0:
272,56,90800,1,0,0:0:0:0:
184,56,91200,1,0,0:0:0:0:
112,112,91600,2,0,L|112:224,1,100
168,264,92400,1,0,0:0:0:0:
256,264,92800,6,0,L|368:264,2,100
256,192,94000,2,0,L|128:192,2,100
256,120,95200,2,0,L|360:120,2,100
264,48,96400,6,0,B|192:40|144:88,1,100
112,120,97200,2,0,P|88:152|80:224,1,100
120,272,98000,2,0,P|176:288|256:272,1,100
232,224,98800,5,0,0:0:0:0:
248,160,99200,1,0,0:0:0:0:
264,96,99600,1,0,0:0:0:0:
288,16,100000,5,0,0:0:0:0:
328,24,100200,2,0,P|352:40|360:64,3,50
376,96,101000,1,0,0:0:0:0:
384,168,101400,1,0,0:0:0:0:
408,232,101800,2,0,L|368:272,1,50
296,304,102400,5,0,0:0:0:0:
216,304,102800,1,0,0:0:0:0:
160,248,103200,1,0,0:0:0:0:
112,184,103600,2,0,L|112:128,1,50
112,104,104000,2,0,L|176:104,3,50
192,48,105200,6,0,P|224:40|248:56,2,50
192,104,106000,2,0,L|192:160,1,50
192,216,106600,2,0,P|160:224|144:208,2,50
224,216,107200,1,0,0:0:0:0:
256,216,107400,2,0,P|280:224|304:216,2,50
256,56,108400,6,0,L|216:96,2,50
256,56,109000,2,0,L|312:104,2,50
256,152,109800,1,0,0:0:0:0:
256,176,110000,2,0,L|256:288,1,100
256,304,110600,1,0,0:0:0:0:
352,272,111000,2,0,L|384:232,2,50
352,272,111600,2,0,L|312:320,2,50
408,160,112400,6,0,P|408:104|360:72,1,100
312,40,113200,1,0,0:0:0:0:
256,96,113600,2,0,P|208:128|160:96,1,100
120,56,114400,1,0,0:0:0:0:
80,120,114800,2,0,P|64:176|96:232,1,100
128,272,115600,2,0,L|192:192,1,100
224,272,116400,2,0,L|288:192,1,100
320,272,117200,2,0,L|384:192,1,100
408,280,118000,2,0,L|472:200,1,100
448,136,118800,6,0,L|448:72,2,50
376,104,119600,1,0,0:0:0:0:
304,80,120000,1,0,0:0:0:0:
232,56,120400,2,0,P|176:48|128:64,1,100
65,99,121200,1,0,0:0:0:0:
65,99,121600,2,0,P|57:147|73:219,1,100
96,256,122400,5,0,0:0:0:0:
168,256,122800,2,0,L|168:320,2,50
248,256,123600,1,0,0:0:0:0:
320,256,124000,1,0,0:0:0:0:
352,256,124200,2,0,L|416:256,3,50
408,184,125200,6,0,P|424:136|400:80,2,100
336,184,126400,2,0,P|320:128|344:80,2,100
384,240,127600,2,0,L|384:304,2,50
312,256,128400,1,0,0:0:0:0:
240,264,128800,1,0,0:0:0:0:
176,240,129200,1,0,0:0:0:0:
120,192,129600,2,0,P|112:144|128:88,1,100
184,48,130400,2,0,P|232:40|304:64,2,100
184,120,131600,5,0,0:0:0:0:
256,120,132000,1,0,0:0:0:0:
328,120,132400,2,0,L|384:120,2,50
328,192,133200,2,0,L|328:264,2,50
256,192,134000,5,0,0:0:0:0:
256,264,134400,2,0,L|304:312,2,50
184,264,135200,1,0,0:0:0:0:
184,192,135600,2,0,L|136:144,2,50
216,128,136400,1,0,0:0:0:0:
280,128,136800,2,0,L|400:128,2,100
280,56,138000,5,8,0:0:0:0:
208,56,138400,2,0,L|80:56,1,100,0|8,0:0|0:0,0:0:0:0:
56,112,139200,1,0,0:0:0:0:
104,176,139600,2,0,L|204:176,1,100,8|0,0:0|0:0,0:0:0:0:
256,240,140400,1,8,0:0:0:0:
208,304,140800,2,0,P|272:320|320:280,1,100,0|8,0:0|0:0,0:0:0:0:
368,288,141600,6,0,L|368:232,2,50,0|0|8,0:0|0:0|0:0,0:0:0:0:
296,248,142400,2,0,L|296:144,1,100,0|8,0:0|0:0,0:0:0:0:
224,208,143200,2,0,L|224:152,2,50,0|0|8,0:0|0:0|0:0,0:0:0:0:
152,168,144000,2,0,L|152:64,1,100,0|8,0:0|0:0,0:0:0:0:
80,80,144800,6,0,L|80:0,2,50,0|0|8,0:0|0:0|0:0,0:0:0:0:
40,136,145600,2,0,L|-48:136,2,50,0|0|8,0:0|0:0|0:0,0:0:0:0:
80,192,146400,2,0,L|80:256,2,50,0|0|8,0:0|0:0|0:0,0:0:0:0:
120,136,147200,2,0,L|184:136,2,50,0|0|8,0:0|0:0|0:0,0:0:0:0:
176,200,148000,6,0,L|176:336,1,100,0|8,0:0|0:0,0:0:0:0:
264,296,148800,2,0,L|264:184,1,100,0|8,0:0|0:0,0:0:0:0:
352,192,149600,2,0,L|352:312,1,100,0|8,0:0|0:0,0:0:0:0:
440,296,150400,2,0,L|440:184,1,100,0|8,0:0|0:0,0:0:0:0:
440,128,151200,1,8,0:0:0:0:
368,104,151600,2,0,P|312:88|264:112,1,100
200,104,152400,1,8,0:0:0:0:
120,104,152800,2,0,L|32:104,2,50
256,192,153600,12,4,156800,0:0:0:0:
