osu file format v12

[General]
AudioFilename: vvv192.mp3
AudioLeadIn: 0
PreviewTime: 44750
Countdown: 0
SampleSet: Normal
StackLeniency: 0.7
Mode: 3
LetterboxInBreaks: 1

[Editor]
DistanceSpacing: 1
BeatDivisor: 4
GridSize: 16

[Metadata]
Title:Va Va Voom
TitleUnicode:Va Va Voom
Artist:Nicki Minaj
ArtistUnicode:Nicki Minaj
Creator:Sathron
Version:Lustful
Source:
Tags:nicky pop rap horse dance
BeatmapID:214375
BeatmapSetID:75949

[Difficulty]
HPDrainRate:8
CircleSize:4
OverallDifficulty:7
ApproachRate:10
SliderMultiplier:1.2
SliderTickRate:1

[Events]
//Background and Video events
0,0,"bg.jpg",0,0
Video,400,"vid.avi"
//Break Periods
2,60307,61547
//Storyboard Layer 0 (Background)
//Storyboard Layer 1 (Fail)
//Storyboard Layer 2 (Pass)
//Storyboard Layer 3 (Foreground)
//Storyboard Sound Samples
//Background Colour Transformations
3,100,0,0,0

[TimingPoints]
107.942694478232,472.44094488189,4,1,0,100,1,0
7663,-100,4,2,0,70,0,0
30341,-100,4,1,0,60,0,1
44278,-100,4,1,0,60,0,0
45459,-100,4,1,0,60,0,1
60104,-100,4,1,0,60,0,0
61994,-100,4,2,0,70,0,0
83254,-100,4,1,0,60,0,1
97191,-100,4,1,0,60,0,0
98372,-100,4,1,0,60,0,1
113018,-100,4,1,0,60,0,0
113490,-100,4,2,0,70,0,0
147506,-100,4,1,0,60,0,1
161915,-100,4,1,0,60,0,0
162624,-100,4,1,0,60,0,1
177742,-100,4,1,0,60,0,0

[Colours]
Combo1 : 116,189,17
Combo2 : 150,86,29
Combo3 : 220,145,31
Combo4 : 245,203,35

[HitObjects]
448,320,7666,1,4,0:0:0:0:
320,320,7666,1,0,0:0:0:0:
64,300,7903,1,2,0:0:0:0:
192,288,8021,1,2,0:0:0:0:
320,288,8139,1,2,0:0:0:0:
448,288,8375,1,0,0:0:0:0:
320,288,8375,1,0,0:0:0:0:
64,256,8611,1,2,0:0:0:0:
192,288,8729,1,2,0:0:0:0:
320,288,8848,1,2,0:0:0:0:
192,288,9084,1,0,0:0:0:0:
320,288,9084,1,0,0:0:0:0:
448,288,9084,1,4,0:0:0:0:
64,304,9556,1,4,0:0:0:0:
192,288,9556,1,0,0:0:0:0:
320,288,9792,1,2,0:0:0:0:
448,288,9911,1,2,0:0:0:0:
320,288,10029,1,2,0:0:0:0:
192,288,10265,1,0,0:0:0:0:
64,192,10501,128,2,10619:0:0:0:0:
192,192,10501,128,0,10619:0:0:0:0:
320,288,10737,1,0,0:0:0:0:
64,272,10974,1,0,0:0:0:0:
192,288,10974,1,0,0:0:0:0:
448,288,10974,1,4,0:0:0:0:
320,288,11210,1,2,0:0:0:0:
192,192,11328,1,2,0:0:0:0:
64,192,11446,1,6,0:0:0:0:
64,192,11682,1,2,0:0:0:0:
192,192,11800,1,2,0:0:0:0:
320,192,11918,1,2,0:0:0:0:
448,192,12037,1,2,0:0:0:0:
320,192,12155,1,2,0:0:0:0:
320,192,12391,1,2,0:0:0:0:
192,192,12509,1,2,0:0:0:0:
64,192,12627,1,2,0:0:0:0:
192,192,12863,1,4,0:0:0:0:
320,192,12863,1,0,0:0:0:0:
64,192,13100,1,2,0:0:0:0:
192,192,13218,1,2,0:0:0:0:
320,192,13336,1,6,0:0:0:0:
448,192,13336,1,0,0:0:0:0:
192,192,13572,1,2,0:0:0:0:
320,192,13572,1,0,0:0:0:0:
64,192,13690,1,2,0:0:0:0:
192,192,13808,1,2,0:0:0:0:
64,192,13926,1,2,0:0:0:0:
192,192,14044,1,2,0:0:0:0:
448,192,14281,1,2,0:0:0:0:
320,192,14399,1,2,0:0:0:0:
448,192,14517,1,2,0:0:0:0:
64,192,14753,1,0,0:0:0:0:
192,192,14753,1,4,0:0:0:0:
320,192,14753,1,0,0:0:0:0:
64,192,15226,1,4,0:0:0:0:
448,192,15226,1,0,0:0:0:0:
64,192,15462,1,0,0:0:0:0:
192,192,15462,1,2,0:0:0:0:
448,192,15580,1,2,0:0:0:0:
192,192,15698,1,0,0:0:0:0:
320,192,15698,1,2,0:0:0:0:
64,192,15934,1,0,0:0:0:0:
192,192,15934,1,0,0:0:0:0:
448,192,15934,1,0,0:0:0:0:
448,192,16170,1,2,0:0:0:0:
320,192,16289,1,2,0:0:0:0:
64,192,16407,1,2,0:0:0:0:
192,192,16407,1,0,0:0:0:0:
192,192,16643,1,4,0:0:0:0:
320,192,16643,1,0,0:0:0:0:
64,192,16879,1,2,0:0:0:0:
64,192,16997,1,2,0:0:0:0:
64,192,17115,1,6,0:0:0:0:
192,192,17233,1,2,0:0:0:0:
320,192,17352,1,2,0:0:0:0:
192,192,17470,1,2,0:0:0:0:
64,192,17588,1,2,0:0:0:0:
192,192,17706,1,2,0:0:0:0:
320,192,17824,1,8,0:0:0:0:
448,192,17824,1,0,0:0:0:0:
192,192,17942,1,2,0:0:0:0:
320,192,18060,1,8,0:0:0:0:
448,192,18060,1,0,0:0:0:0:
192,192,18178,1,2,0:0:0:0:
320,192,18296,1,8,0:0:0:0:
448,192,18296,1,0,0:0:0:0:
320,192,18533,1,0,0:0:0:0:
448,192,18533,1,0,0:0:0:0:
64,192,18533,1,4,0:0:0:0:
448,192,18769,1,2,0:0:0:0:
448,192,18887,1,2,0:0:0:0:
320,192,19005,1,0,0:0:0:0:
192,192,19005,1,6,0:0:0:0:
64,192,19241,1,0,0:0:0:0:
192,192,19241,1,0,0:0:0:0:
320,192,19241,1,0,0:0:0:0:
448,192,19478,1,0,0:0:0:0:
320,192,19478,1,0,0:0:0:0:
192,192,19478,1,0,0:0:0:0:
64,288,19714,1,2,0:0:0:0:
192,304,19714,1,0,0:0:0:0:
448,192,19832,1,2,0:0:0:0:
64,288,20068,1,2,0:0:0:0:
192,304,20068,1,0,0:0:0:0:
448,192,20186,1,0,0:0:0:0:
320,192,20186,1,2,0:0:0:0:
64,192,20422,1,0,0:0:0:0:
192,192,20422,1,4,0:0:0:0:
320,192,20422,1,0,0:0:0:0:
192,192,20659,1,2,0:0:0:0:
320,192,20777,1,2,0:0:0:0:
192,192,20895,1,6,0:0:0:0:
320,192,21013,1,2,0:0:0:0:
192,192,21131,1,2,0:0:0:0:
64,192,21249,1,2,0:0:0:0:
192,192,21367,128,2,21604:0:0:0:0:
320,192,21367,128,0,21604:0:0:0:0:
192,256,21722,1,2,0:0:0:0:
320,256,21722,1,0,0:0:0:0:
320,192,21958,1,2,0:0:0:0:
448,192,22076,1,2,0:0:0:0:
64,192,22312,1,4,0:0:0:0:
320,192,22312,1,0,0:0:0:0:
448,192,22312,1,0,0:0:0:0:
448,320,22548,1,2,0:0:0:0:
320,320,22548,1,0,0:0:0:0:
320,192,22666,1,0,0:0:0:0:
448,192,22666,1,2,0:0:0:0:
64,192,22785,128,0,23257:0:0:0:0:
192,192,22785,128,4,23257:0:0:0:0:
192,288,23493,1,0,0:0:0:0:
448,288,23493,1,0,0:0:0:0:
64,288,23729,1,0,0:0:0:0:
192,288,23729,1,0,0:0:0:0:
320,192,23966,1,2,0:0:0:0:
64,192,24084,128,0,24438:0:0:0:0:
192,192,24084,128,2,24438:0:0:0:0:
192,192,24556,1,2,0:0:0:0:
320,192,24674,128,6,25147:0:0:0:0:
448,192,24674,128,0,25147:0:0:0:0:
64,192,25383,1,0,0:0:0:0:
192,192,25383,1,2,0:0:0:0:
320,192,25501,1,2,0:0:0:0:
448,192,25619,1,2,0:0:0:0:
448,192,25855,1,2,0:0:0:0:
64,192,25974,128,0,26328:0:0:0:0:
192,192,25974,128,2,26328:0:0:0:0:
320,192,26446,1,2,0:0:0:0:
192,192,26564,1,0,0:0:0:0:
448,192,26564,1,6,0:0:0:0:
64,272,27037,1,0,0:0:0:0:
192,288,27037,1,0,0:0:0:0:
448,288,27037,1,0,0:0:0:0:
192,256,27273,1,0,0:0:0:0:
320,256,27273,1,0,0:0:0:0:
192,256,27509,1,2,0:0:0:0:
320,256,27509,1,0,0:0:0:0:
64,192,27627,1,2,0:0:0:0:
448,192,27627,1,0,0:0:0:0:
448,192,27863,1,0,0:0:0:0:
320,192,27863,1,0,0:0:0:0:
64,192,27863,1,0,0:0:0:0:
64,192,28218,1,6,0:0:0:0:
192,192,28218,1,0,0:0:0:0:
320,192,28336,1,2,0:0:0:0:
448,192,28454,1,2,0:0:0:0:
320,192,28572,1,2,0:0:0:0:
192,192,28690,1,6,0:0:0:0:
64,192,28690,1,0,0:0:0:0:
448,192,28926,1,0,0:0:0:0:
320,192,28926,1,0,0:0:0:0:
64,192,29163,1,6,0:0:0:0:
192,192,29163,1,0,0:0:0:0:
320,192,29163,1,0,0:0:0:0:
448,192,29281,1,2,0:0:0:0:
320,192,29399,1,2,0:0:0:0:
192,192,29517,1,2,0:0:0:0:
64,192,29635,1,6,0:0:0:0:
448,192,29635,1,0,0:0:0:0:
64,192,29871,1,4,0:0:0:0:
448,192,29871,1,0,0:0:0:0:
192,192,30107,1,0,0:0:0:0:
320,192,30107,1,4,0:0:0:0:
64,192,30344,128,0,30580:0:0:0:0:
192,160,30344,128,10,30580:0:0:0:0:
320,192,30344,128,6,30580:0:0:0:0:
448,192,30344,128,0,30580:0:0:0:0:
448,304,30816,1,0,0:0:0:0:
320,288,30816,1,0,0:0:0:0:
64,192,30816,1,0,0:0:0:0:
64,272,31052,1,0,0:0:0:0:
192,192,31052,1,0,0:0:0:0:
448,192,31289,1,0,0:0:0:0:
320,192,31289,1,0,0:0:0:0:
64,192,31525,1,2,0:0:0:0:
192,192,31525,1,2,0:0:0:0:
320,192,31525,1,0,0:0:0:0:
448,192,31761,1,2,0:0:0:0:
192,192,31761,1,2,0:0:0:0:
64,192,31997,1,0,0:0:0:0:
320,192,31997,1,0,0:0:0:0:
448,192,32233,1,2,0:0:0:0:
192,192,32233,1,2,0:0:0:0:
64,192,32706,1,8,0:0:0:0:
192,192,32706,1,8,0:0:0:0:
320,192,32706,1,8,0:0:0:0:
448,192,33178,1,0,0:0:0:0:
320,192,33178,1,0,0:0:0:0:
192,192,33178,1,0,0:0:0:0:
64,192,33651,128,2,34123:0:0:0:0:
192,192,33651,128,8,34123:0:0:0:0:
320,192,33651,128,10,34123:0:0:0:0:
448,192,33651,128,8,34123:0:0:0:0:
448,192,34359,1,0,0:0:0:0:
192,192,34359,1,0,0:0:0:0:
64,192,34478,1,0,0:0:0:0:
320,192,34478,1,0,0:0:0:0:
192,192,34596,1,0,0:0:0:0:
448,192,34596,1,0,0:0:0:0:
64,192,34832,1,2,0:0:0:0:
192,192,34832,1,2,0:0:0:0:
64,192,35068,1,0,0:0:0:0:
192,192,35068,1,0,0:0:0:0:
448,192,35304,1,0,0:0:0:0:
320,192,35304,1,0,0:0:0:0:
192,192,35541,1,2,0:0:0:0:
320,192,35541,1,2,0:0:0:0:
64,192,35777,1,2,0:0:0:0:
192,192,35777,1,2,0:0:0:0:
320,192,35777,1,0,0:0:0:0:
192,288,36013,128,4,36249:0:0:0:0:
320,288,36013,128,0,36249:0:0:0:0:
192,240,36485,1,2,0:0:0:0:
320,240,36485,1,2,0:0:0:0:
64,192,36722,128,6,37194:0:0:0:0:
448,192,36722,128,6,37194:0:0:0:0:
192,192,37430,128,4,37903:0:0:0:0:
320,192,37430,128,0,37903:0:0:0:0:
64,192,37666,128,2,37903:0:0:0:0:
448,304,37666,128,2,37903:0:0:0:0:
64,192,38139,1,0,0:0:0:0:
192,192,38139,1,0,0:0:0:0:
320,192,38257,1,0,0:0:0:0:
448,192,38257,1,0,0:0:0:0:
64,192,38375,1,0,0:0:0:0:
192,192,38375,1,0,0:0:0:0:
192,192,38611,1,2,0:0:0:0:
320,192,38611,1,2,0:0:0:0:
64,192,38611,1,0,0:0:0:0:
448,192,38848,1,0,0:0:0:0:
320,192,38848,1,0,0:0:0:0:
192,192,38966,1,0,0:0:0:0:
64,192,39084,1,0,0:0:0:0:
192,192,39202,1,0,0:0:0:0:
320,192,39320,1,0,0:0:0:0:
448,192,39320,1,2,0:0:0:0:
64,192,39320,1,2,0:0:0:0:
64,192,39556,1,2,0:0:0:0:
192,192,39556,1,2,0:0:0:0:
192,192,39792,128,4,40029:0:0:0:0:
448,192,39792,128,0,40029:0:0:0:0:
64,192,40265,128,6,40501:0:0:0:0:
320,192,40265,128,2,40501:0:0:0:0:
192,192,40737,128,4,40974:0:0:0:0:
320,192,40737,128,0,40974:0:0:0:0:
64,192,41210,128,2,41682:0:0:0:0:
448,192,41210,128,2,41682:0:0:0:0:
192,192,41682,1,4,0:0:0:0:
320,192,41682,1,4,0:0:0:0:
64,288,41918,1,0,0:0:0:0:
320,304,41918,1,0,0:0:0:0:
192,192,42155,1,0,0:0:0:0:
320,192,42155,1,0,0:0:0:0:
448,192,42155,1,0,0:0:0:0:
64,192,42391,1,2,0:0:0:0:
192,192,42391,1,2,0:0:0:0:
448,192,42627,1,0,0:0:0:0:
320,192,42627,1,0,0:0:0:0:
64,192,42627,1,0,0:0:0:0:
192,192,42863,1,0,0:0:0:0:
320,192,42863,1,0,0:0:0:0:
320,192,43100,128,2,43336:0:0:0:0:
448,192,43100,128,2,43336:0:0:0:0:
448,192,43572,128,2,44281:0:0:0:0:
192,192,43808,128,2,44281:0:0:0:0:
320,192,44044,128,12,44281:0:0:0:0:
448,192,44989,1,0,0:0:0:0:
320,192,45226,1,0,0:0:0:0:
64,192,45462,128,2,45698:0:0:0:0:
192,192,45462,128,6,45698:0:0:0:0:
320,192,45462,128,4,45698:0:0:0:0:
320,192,45934,1,0,0:0:0:0:
448,192,45934,1,0,0:0:0:0:
192,192,46170,128,2,46407:0:0:0:0:
448,192,46170,128,2,46407:0:0:0:0:
64,192,46643,1,0,0:0:0:0:
192,192,46643,1,0,0:0:0:0:
448,192,46879,1,2,0:0:0:0:
64,192,46879,1,2,0:0:0:0:
448,192,47115,1,0,0:0:0:0:
64,192,47115,1,0,0:0:0:0:
192,192,47352,128,2,47824:0:0:0:0:
320,192,47352,128,6,47824:0:0:0:0:
192,192,48060,128,2,48533:0:0:0:0:
320,192,48060,128,6,48533:0:0:0:0:
448,192,48769,1,0,0:0:0:0:
320,192,48887,1,0,0:0:0:0:
192,192,49005,1,0,0:0:0:0:
64,192,49123,1,0,0:0:0:0:
192,192,49241,128,2,49478:0:0:0:0:
448,192,49241,128,2,49478:0:0:0:0:
448,192,49714,1,0,0:0:0:0:
320,192,49714,1,0,0:0:0:0:
64,192,49950,128,2,50186:0:0:0:0:
192,192,49950,128,2,50186:0:0:0:0:
448,192,49950,128,0,50186:0:0:0:0:
192,192,50422,1,0,0:0:0:0:
320,192,50422,1,0,0:0:0:0:
448,192,50422,1,0,0:0:0:0:
192,192,50659,1,2,0:0:0:0:
320,192,50659,1,2,0:0:0:0:
192,192,50895,1,0,0:0:0:0:
320,192,50895,1,0,0:0:0:0:
64,192,51131,128,2,51604:0:0:0:0:
448,192,51131,128,6,51604:0:0:0:0:
64,192,51840,128,6,52312:0:0:0:0:
448,192,51840,128,2,52312:0:0:0:0:
448,320,52548,1,0,0:0:0:0:
320,320,52548,1,0,0:0:0:0:
64,304,52785,1,0,0:0:0:0:
192,304,52785,1,0,0:0:0:0:
192,208,53021,1,2,0:0:0:0:
320,192,53139,1,2,0:0:0:0:
448,192,53257,1,2,0:0:0:0:
64,192,53493,1,0,0:0:0:0:
192,192,53493,1,0,0:0:0:0:
448,192,53493,1,0,0:0:0:0:
448,192,53729,1,2,0:0:0:0:
320,192,53848,1,2,0:0:0:0:
192,192,53966,1,2,0:0:0:0:
448,192,54202,1,0,0:0:0:0:
320,192,54202,1,0,0:0:0:0:
192,192,54202,1,0,0:0:0:0:
64,192,54438,1,2,0:0:0:0:
192,192,54438,1,2,0:0:0:0:
320,192,54556,1,0,0:0:0:0:
448,192,54674,1,0,0:0:0:0:
320,192,54792,1,0,0:0:0:0:
448,192,54911,128,2,56328:0:0:0:0:
192,192,54911,128,6,56328:0:0:0:0:
320,192,55619,128,6,56328:0:0:0:0:
64,192,55619,128,2,56328:0:0:0:0:
192,272,56564,1,0,0:0:0:0:
320,272,56564,1,0,0:0:0:0:
64,192,56800,128,2,57037:0:0:0:0:
192,192,56800,128,2,57037:0:0:0:0:
64,192,57273,1,0,0:0:0:0:
192,192,57273,1,0,0:0:0:0:
64,192,57509,128,2,57745:0:0:0:0:
448,192,57509,128,2,57745:0:0:0:0:
64,304,57981,1,0,0:0:0:0:
192,272,57981,1,0,0:0:0:0:
320,304,57981,1,0,0:0:0:0:
448,304,58218,1,2,0:0:0:0:
320,304,58218,1,0,0:0:0:0:
64,256,58218,1,2,0:0:0:0:
192,272,58454,1,8,0:0:0:0:
320,256,58454,1,8,0:0:0:0:
448,192,58690,128,2,59163:0:0:0:0:
320,192,58690,128,0,59163:0:0:0:0:
192,192,58690,128,6,59163:0:0:0:0:
64,192,59399,128,6,59871:0:0:0:0:
192,192,59399,128,0,59871:0:0:0:0:
320,192,59399,128,2,59871:0:0:0:0:
64,288,60107,1,14,0:0:0:0:
448,288,60107,1,14,0:0:0:0:
64,192,61997,132,4,62470:0:0:0:0:
192,192,61997,128,0,62470:0:0:0:0:
448,192,61997,128,0,62470:0:0:0:0:
448,288,62706,1,2,0:0:0:0:
320,288,62706,1,0,0:0:0:0:
64,288,62824,1,2,0:0:0:0:
448,192,62942,1,0,0:0:0:0:
192,192,62942,1,2,0:0:0:0:
192,192,63178,1,0,0:0:0:0:
320,192,63178,1,0,0:0:0:0:
64,192,63415,1,2,0:0:0:0:
192,192,63533,1,2,0:0:0:0:
320,192,63651,1,2,0:0:0:0:
64,192,63887,1,4,0:0:0:0:
448,192,63887,1,0,0:0:0:0:
192,192,64123,1,2,0:0:0:0:
320,192,64123,1,0,0:0:0:0:
64,192,64241,1,2,0:0:0:0:
192,192,64359,1,6,0:0:0:0:
320,192,64596,1,0,0:0:0:0:
448,192,64596,1,2,0:0:0:0:
192,192,64714,1,2,0:0:0:0:
64,192,64832,1,2,0:0:0:0:
192,192,64950,1,2,0:0:0:0:
320,192,65068,128,2,65186:0:0:0:0:
448,192,65068,128,0,65186:0:0:0:0:
64,192,65422,128,2,65541:0:0:0:0:
192,192,65422,128,0,65541:0:0:0:0:
448,256,65777,1,0,0:0:0:0:
320,256,65777,1,0,0:0:0:0:
192,256,65777,1,4,0:0:0:0:
64,288,66013,1,2,0:0:0:0:
192,192,66131,1,2,0:0:0:0:
320,192,66249,1,2,0:0:0:0:
448,192,66249,1,4,0:0:0:0:
320,192,66485,1,2,0:0:0:0:
192,192,66604,1,2,0:0:0:0:
64,192,66722,1,2,0:0:0:0:
192,192,66840,1,2,0:0:0:0:
320,192,66958,1,2,0:0:0:0:
192,192,67076,1,2,0:0:0:0:
64,192,67076,1,0,0:0:0:0:
320,192,67312,1,0,0:0:0:0:
448,192,67312,1,2,0:0:0:0:
320,192,67430,1,0,0:0:0:0:
448,192,67430,1,2,0:0:0:0:
64,192,67666,128,4,68139:0:0:0:0:
192,192,67666,128,0,68139:0:0:0:0:
320,192,67666,128,0,68139:0:0:0:0:
448,272,68375,1,2,0:0:0:0:
320,192,68493,1,2,0:0:0:0:
192,192,68611,1,2,0:0:0:0:
192,192,68848,1,0,0:0:0:0:
448,192,68848,1,0,0:0:0:0:
64,192,69084,1,2,0:0:0:0:
192,192,69202,1,2,0:0:0:0:
320,192,69320,1,2,0:0:0:0:
192,192,69556,1,4,0:0:0:0:
320,192,69556,1,0,0:0:0:0:
64,192,69792,1,2,0:0:0:0:
448,192,69911,1,2,0:0:0:0:
64,192,70029,1,6,0:0:0:0:
192,192,70147,1,2,0:0:0:0:
320,192,70265,1,2,0:0:0:0:
448,192,70383,1,2,0:0:0:0:
320,192,70501,1,2,0:0:0:0:
192,192,70619,1,2,0:0:0:0:
64,192,70737,1,2,0:0:0:0:
192,192,70855,128,2,71092:0:0:0:0:
448,192,70855,128,0,71092:0:0:0:0:
64,192,71210,128,2,71446:0:0:0:0:
320,192,71210,128,0,71446:0:0:0:0:
448,192,71682,1,2,0:0:0:0:
448,192,71800,1,2,0:0:0:0:
448,192,71918,1,2,0:0:0:0:
320,192,71918,1,0,0:0:0:0:
192,192,71918,1,4,0:0:0:0:
64,192,72155,1,0,0:0:0:0:
192,192,72155,1,0,0:0:0:0:
448,192,72155,1,0,0:0:0:0:
192,192,72391,1,0,0:0:0:0:
320,192,72391,1,0,0:0:0:0:
64,192,72627,1,2,0:0:0:0:
320,192,72745,1,2,0:0:0:0:
448,192,72745,1,0,0:0:0:0:
64,192,72981,1,2,0:0:0:0:
320,192,73100,1,2,0:0:0:0:
448,192,73100,1,0,0:0:0:0:
64,192,73336,1,4,0:0:0:0:
192,192,73336,1,0,0:0:0:0:
320,192,73572,1,2,0:0:0:0:
448,192,73690,1,2,0:0:0:0:
320,192,73808,1,6,0:0:0:0:
192,192,73926,1,2,0:0:0:0:
320,192,74044,1,2,0:0:0:0:
192,192,74163,1,2,0:0:0:0:
320,192,74281,128,2,74517:0:0:0:0:
448,192,74281,128,0,74517:0:0:0:0:
64,192,74635,128,2,74871:0:0:0:0:
320,192,74635,128,0,74871:0:0:0:0:
192,192,74989,1,2,0:0:0:0:
320,192,74989,1,0,0:0:0:0:
192,192,75225,5,0,0:0:0:0:
448,192,75225,1,4,0:0:0:0:
64,192,75225,1,0,0:0:0:0:
192,320,75461,1,0,0:0:0:0:
64,320,75461,1,2,0:0:0:0:
64,192,75579,1,2,0:0:0:0:
192,192,75579,1,0,0:0:0:0:
320,192,75698,128,4,76170:0:0:0:0:
448,192,75698,128,0,76170:0:0:0:0:
64,288,76406,1,0,0:0:0:0:
320,288,76406,1,0,0:0:0:0:
320,288,76642,1,0,0:0:0:0:
448,288,76642,1,0,0:0:0:0:
192,192,76879,1,2,0:0:0:0:
320,192,76997,128,2,77351:0:0:0:0:
448,192,76997,128,0,77351:0:0:0:0:
320,192,77469,1,2,0:0:0:0:
64,192,77587,128,0,78060:0:0:0:0:
192,192,77587,128,6,78060:0:0:0:0:
320,192,78296,1,2,0:0:0:0:
448,192,78296,1,0,0:0:0:0:
192,192,78414,1,2,0:0:0:0:
64,192,78532,1,2,0:0:0:0:
64,192,78768,1,2,0:0:0:0:
320,192,78887,128,2,79241:0:0:0:0:
448,192,78887,128,0,79241:0:0:0:0:
192,192,79359,1,2,0:0:0:0:
64,192,79477,1,6,0:0:0:0:
320,192,79477,1,0,0:0:0:0:
64,288,79950,1,0,0:0:0:0:
320,288,79950,1,0,0:0:0:0:
448,272,79950,1,0,0:0:0:0:
192,256,80186,1,0,0:0:0:0:
320,256,80186,1,0,0:0:0:0:
192,256,80422,1,0,0:0:0:0:
320,256,80422,1,2,0:0:0:0:
64,192,80540,1,0,0:0:0:0:
448,192,80540,1,2,0:0:0:0:
448,192,80776,1,0,0:0:0:0:
192,192,80776,1,0,0:0:0:0:
64,192,80776,1,0,0:0:0:0:
320,192,81131,1,0,0:0:0:0:
448,192,81131,1,6,0:0:0:0:
192,192,81249,1,2,0:0:0:0:
64,192,81367,1,2,0:0:0:0:
192,192,81485,1,2,0:0:0:0:
448,192,81603,1,0,0:0:0:0:
320,192,81603,1,6,0:0:0:0:
192,192,81839,1,0,0:0:0:0:
64,192,81839,1,0,0:0:0:0:
192,192,82076,1,0,0:0:0:0:
320,192,82076,1,0,0:0:0:0:
448,192,82076,1,6,0:0:0:0:
64,192,82194,1,2,0:0:0:0:
192,192,82312,1,2,0:0:0:0:
320,192,82430,1,2,0:0:0:0:
64,192,82548,1,0,0:0:0:0:
448,192,82548,1,6,0:0:0:0:
64,192,82784,1,0,0:0:0:0:
448,192,82784,1,4,0:0:0:0:
192,192,83020,1,4,0:0:0:0:
320,192,83020,1,0,0:0:0:0:
64,192,83257,128,0,83493:0:0:0:0:
192,192,83257,128,6,83493:0:0:0:0:
320,192,83257,128,6,83493:0:0:0:0:
448,192,83257,128,4,83493:0:0:0:0:
448,288,83729,1,0,0:0:0:0:
192,288,83729,1,0,0:0:0:0:
64,288,83966,1,2,0:0:0:0:
192,288,83966,1,2,0:0:0:0:
448,288,84202,1,0,0:0:0:0:
320,288,84202,1,0,0:0:0:0:
64,288,84202,1,0,0:0:0:0:
192,288,84438,1,0,0:0:0:0:
320,288,84438,1,0,0:0:0:0:
448,288,84438,1,0,0:0:0:0:
64,240,84674,1,2,0:0:0:0:
192,240,84674,1,6,0:0:0:0:
448,240,84674,1,0,0:0:0:0:
192,240,84911,1,0,0:0:0:0:
320,240,84911,1,0,0:0:0:0:
64,192,85147,128,6,85383:0:0:0:0:
448,192,85147,128,2,85383:0:0:0:0:
192,192,85619,128,4,85855:0:0:0:0:
320,192,85619,128,4,85855:0:0:0:0:
64,192,86092,128,6,86328:0:0:0:0:
192,192,86092,128,0,86328:0:0:0:0:
448,192,86092,128,2,86328:0:0:0:0:
448,192,86564,128,0,86800:0:0:0:0:
320,192,86564,128,4,86800:0:0:0:0:
64,192,86564,128,0,86800:0:0:0:0:
64,192,87037,1,6,0:0:0:0:
192,192,87037,1,6,0:0:0:0:
320,192,87037,1,4,0:0:0:0:
448,192,87037,1,4,0:0:0:0:
320,192,87273,128,0,87509:0:0:0:0:
448,192,87273,128,0,87509:0:0:0:0:
64,272,87745,1,2,0:0:0:0:
320,192,87745,1,2,0:0:0:0:
192,192,87981,128,0,88218:0:0:0:0:
448,192,87981,128,0,88218:0:0:0:0:
64,192,88454,128,2,88690:0:0:0:0:
192,192,88454,128,2,88690:0:0:0:0:
448,288,88926,1,2,0:0:0:0:
320,288,88926,1,6,0:0:0:0:
64,272,89163,1,0,0:0:0:0:
192,192,89281,1,0,0:0:0:0:
320,192,89399,1,0,0:0:0:0:
64,192,89635,1,6,0:0:0:0:
192,192,89635,1,2,0:0:0:0:
448,192,89871,1,0,0:0:0:0:
320,192,89989,1,0,0:0:0:0:
192,192,90107,1,2,0:0:0:0:
64,192,90226,1,2,0:0:0:0:
192,192,90344,1,2,0:0:0:0:
320,192,90462,1,2,0:0:0:0:
448,192,90580,1,2,0:0:0:0:
320,192,90698,1,2,0:0:0:0:
64,192,90816,1,6,0:0:0:0:
192,192,90816,1,6,0:0:0:0:
448,192,90816,1,0,0:0:0:0:
64,256,91052,1,4,0:0:0:0:
192,272,91052,1,0,0:0:0:0:
320,272,91052,1,0,0:0:0:0:
448,288,91289,1,0,0:0:0:0:
320,304,91289,1,0,0:0:0:0:
192,272,91289,1,4,0:0:0:0:
448,320,91525,1,2,0:0:0:0:
320,304,91525,1,2,0:0:0:0:
64,320,91525,1,0,0:0:0:0:
192,192,91761,128,0,91997:0:0:0:0:
320,192,91761,128,0,91997:0:0:0:0:
320,192,92233,128,0,92470:0:0:0:0:
448,192,92233,128,0,92470:0:0:0:0:
64,192,92706,128,6,94123:0:0:0:0:
192,192,93178,128,6,94123:0:0:0:0:
320,192,93651,1,6,0:0:0:0:
448,192,93651,1,2,0:0:0:0:
320,192,93887,1,0,0:0:0:0:
448,192,94005,1,0,0:0:0:0:
320,192,94123,1,6,0:0:0:0:
192,192,94359,1,0,0:0:0:0:
320,192,94359,1,0,0:0:0:0:
64,192,94596,1,6,0:0:0:0:
192,192,94596,1,2,0:0:0:0:
320,192,94596,1,4,0:0:0:0:
448,192,94596,1,4,0:0:0:0:
64,192,94832,128,0,95068:0:0:0:0:
320,192,94832,128,0,95068:0:0:0:0:
64,192,95304,128,2,95541:0:0:0:0:
192,192,95304,128,2,95541:0:0:0:0:
448,272,95777,1,0,0:0:0:0:
320,288,95777,1,0,0:0:0:0:
64,288,96013,1,2,0:0:0:0:
320,288,96013,1,2,0:0:0:0:
192,192,96249,1,0,0:0:0:0:
320,192,96249,1,0,0:0:0:0:
448,192,96485,1,2,0:0:0:0:
320,192,96604,1,2,0:0:0:0:
192,192,96722,1,2,0:0:0:0:
64,192,96958,1,0,0:0:0:0:
192,192,96958,1,0,0:0:0:0:
192,192,97194,1,0,0:0:0:0:
320,192,97194,1,6,0:0:0:0:
448,192,97194,1,6,0:0:0:0:
64,192,97903,1,0,0:0:0:0:
192,192,98139,1,0,0:0:0:0:
448,192,98375,128,2,98611:0:0:0:0:
320,192,98375,128,6,98611:0:0:0:0:
64,192,98375,128,4,98611:0:0:0:0:
192,192,98848,1,0,0:0:0:0:
448,192,98848,1,0,0:0:0:0:
64,192,99084,128,0,99320:0:0:0:0:
192,192,99084,128,2,99320:0:0:0:0:
320,192,99084,128,2,99320:0:0:0:0:
448,304,99556,1,0,0:0:0:0:
320,304,99556,1,0,0:0:0:0:
448,288,99792,1,2,0:0:0:0:
64,320,99792,1,2,0:0:0:0:
320,304,100029,1,0,0:0:0:0:
64,320,100029,1,0,0:0:0:0:
64,192,100265,128,6,100737:0:0:0:0:
192,192,100265,128,6,100737:0:0:0:0:
320,192,100974,128,6,101446:0:0:0:0:
448,192,100974,128,6,101446:0:0:0:0:
64,192,101682,128,0,101918:0:0:0:0:
320,192,101682,128,0,101918:0:0:0:0:
192,192,102155,1,6,0:0:0:0:
64,192,102155,1,0,0:0:0:0:
320,192,102273,1,2,0:0:0:0:
448,192,102391,1,2,0:0:0:0:
64,192,102627,1,0,0:0:0:0:
192,192,102627,1,0,0:0:0:0:
448,192,102627,1,2,0:0:0:0:
192,192,102863,1,2,0:0:0:0:
320,192,102981,1,2,0:0:0:0:
448,192,103100,1,2,0:0:0:0:
64,192,103336,1,4,0:0:0:0:
192,192,103336,1,0,0:0:0:0:
448,192,103336,1,0,0:0:0:0:
448,192,103572,1,2,0:0:0:0:
320,192,103572,1,2,0:0:0:0:
192,192,103572,1,4,0:0:0:0:
64,192,103808,1,4,0:0:0:0:
448,192,103808,1,0,0:0:0:0:
448,192,104044,128,6,104517:0:0:0:0:
320,192,104044,128,2,104517:0:0:0:0:
64,192,104044,128,4,104517:0:0:0:0:
64,192,104753,128,6,105226:0:0:0:0:
192,192,104753,128,6,105226:0:0:0:0:
448,192,104753,128,0,105226:0:0:0:0:
448,288,105462,1,0,0:0:0:0:
192,320,105462,1,0,0:0:0:0:
448,320,105698,1,0,0:0:0:0:
64,336,105698,1,0,0:0:0:0:
192,192,105934,1,2,0:0:0:0:
448,192,105934,1,2,0:0:0:0:
320,192,105934,1,4,0:0:0:0:
320,192,106170,1,0,0:0:0:0:
448,192,106170,1,0,0:0:0:0:
64,192,106407,1,0,0:0:0:0:
192,192,106407,1,0,0:0:0:0:
448,192,106407,1,0,0:0:0:0:
192,192,106643,1,6,0:0:0:0:
320,192,106643,1,2,0:0:0:0:
448,192,106643,1,0,0:0:0:0:
64,192,106879,1,0,0:0:0:0:
192,192,106879,1,0,0:0:0:0:
64,192,107115,1,0,0:0:0:0:
320,192,107115,1,0,0:0:0:0:
192,192,107352,1,6,0:0:0:0:
320,192,107352,1,2,0:0:0:0:
192,192,107588,1,0,0:0:0:0:
320,192,107588,1,0,0:0:0:0:
64,320,107824,128,6,108296:0:0:0:0:
448,336,107824,128,6,108296:0:0:0:0:
192,192,108060,1,0,0:0:0:0:
320,192,108060,1,0,0:0:0:0:
192,192,108296,1,0,0:0:0:0:
320,192,108296,1,0,0:0:0:0:
64,192,108533,128,6,109005:0:0:0:0:
448,192,108533,128,6,109005:0:0:0:0:
192,192,108769,1,0,0:0:0:0:
320,192,108769,1,0,0:0:0:0:
192,192,109005,1,0,0:0:0:0:
320,192,109005,1,0,0:0:0:0:
192,304,109241,1,0,0:0:0:0:
320,192,109359,1,0,0:0:0:0:
448,192,109478,1,0,0:0:0:0:
320,192,109596,1,0,0:0:0:0:
64,192,109714,128,6,109950:0:0:0:0:
192,192,109714,128,2,109950:0:0:0:0:
448,272,110186,1,0,0:0:0:0:
192,272,110186,1,0,0:0:0:0:
448,192,110422,128,2,110659:0:0:0:0:
320,192,110422,128,6,110659:0:0:0:0:
64,192,110895,1,0,0:0:0:0:
192,192,111013,1,0,0:0:0:0:
64,192,111131,1,0,0:0:0:0:
320,192,111367,1,0,0:0:0:0:
192,192,111367,1,0,0:0:0:0:
192,192,111604,128,4,113021:0:0:0:0:
320,192,111604,128,4,113021:0:0:0:0:
64,192,111604,1,6,0:0:0:0:
448,192,111604,1,2,0:0:0:0:
64,192,112312,1,2,0:0:0:0:
448,192,112312,1,6,0:0:0:0:
64,192,113493,1,6,0:0:0:0:
192,192,113493,1,0,0:0:0:0:
320,192,113729,1,2,0:0:0:0:
448,192,113966,1,2,0:0:0:0:
192,192,114202,1,2,0:0:0:0:
448,192,114438,128,0,114911:0:0:0:0:
320,192,114438,128,6,114911:0:0:0:0:
64,192,115147,1,0,0:0:0:0:
320,192,115383,1,2,0:0:0:0:
64,192,115855,1,4,0:0:0:0:
192,192,115855,1,0,0:0:0:0:
448,192,115855,1,0,0:0:0:0:
320,192,116092,1,2,0:0:0:0:
192,192,116328,1,2,0:0:0:0:
448,192,116328,1,4,0:0:0:0:
64,192,116564,1,2,0:0:0:0:
448,192,116800,128,2,118218:0:0:0:0:
64,192,117273,128,2,118218:0:0:0:0:
192,192,117273,1,4,0:0:0:0:
320,192,117273,1,0,0:0:0:0:
192,192,118218,1,6,0:0:0:0:
320,192,118218,1,0,0:0:0:0:
64,192,118454,1,0,0:0:0:0:
64,192,118690,1,0,0:0:0:0:
64,192,118926,1,0,0:0:0:0:
64,192,119163,1,0,0:0:0:0:
448,192,119399,1,0,0:0:0:0:
64,192,119635,1,4,0:0:0:0:
192,192,119635,1,0,0:0:0:0:
320,192,119635,1,0,0:0:0:0:
448,192,119871,1,0,0:0:0:0:
64,192,120107,1,0,0:0:0:0:
320,192,120107,1,0,0:0:0:0:
448,192,120107,1,4,0:0:0:0:
448,192,120344,1,2,0:0:0:0:
448,192,120580,1,2,0:0:0:0:
448,192,120816,1,2,0:0:0:0:
448,192,121052,128,0,123415:0:0:0:0:
320,192,121052,128,6,123415:0:0:0:0:
64,192,121289,1,2,0:0:0:0:
64,192,121525,1,2,0:0:0:0:
192,192,121761,1,2,0:0:0:0:
64,192,121997,1,2,0:0:0:0:
192,192,122470,1,2,0:0:0:0:
64,192,122706,1,2,0:0:0:0:
192,192,122942,128,2,123415:0:0:0:0:
64,192,123415,1,4,0:0:0:0:
192,192,123651,1,2,0:0:0:0:
320,192,123887,1,6,0:0:0:0:
192,192,124123,1,2,0:0:0:0:
448,192,124359,1,2,0:0:0:0:
64,192,124832,128,6,125777:0:0:0:0:
192,192,124832,128,0,125777:0:0:0:0:
448,192,124832,1,2,0:0:0:0:
320,192,124832,1,2,0:0:0:0:
320,192,125068,1,2,0:0:0:0:
320,192,125541,1,2,0:0:0:0:
448,192,125777,1,2,0:0:0:0:
320,192,125777,1,2,0:0:0:0:
448,192,126013,1,0,0:0:0:0:
448,192,126249,1,0,0:0:0:0:
448,192,126485,1,0,0:0:0:0:
64,192,126722,1,0,0:0:0:0:
64,192,126958,1,0,0:0:0:0:
448,192,127194,1,0,0:0:0:0:
320,192,127194,1,4,0:0:0:0:
64,192,127194,1,0,0:0:0:0:
448,192,127430,1,0,0:0:0:0:
192,192,127666,1,0,0:0:0:0:
64,192,127666,1,4,0:0:0:0:
448,192,127666,1,0,0:0:0:0:
192,192,127903,1,2,0:0:0:0:
320,192,127903,1,0,0:0:0:0:
320,192,128139,1,2,0:0:0:0:
192,192,128139,1,0,0:0:0:0:
320,192,128375,1,2,0:0:0:0:
192,192,128375,1,0,0:0:0:0:
64,192,128611,1,6,0:0:0:0:
448,192,128611,1,0,0:0:0:0:
64,192,129084,1,2,0:0:0:0:
192,192,129084,1,0,0:0:0:0:
320,192,129084,1,0,0:0:0:0:
64,192,129556,1,6,0:0:0:0:
448,192,129556,1,0,0:0:0:0:
64,192,129792,1,2,0:0:0:0:
448,192,129792,1,0,0:0:0:0:
192,192,130029,1,6,0:0:0:0:
320,192,130029,1,0,0:0:0:0:
448,192,130029,1,0,0:0:0:0:
64,192,130501,128,2,130737:0:0:0:0:
320,192,130501,128,0,130737:0:0:0:0:
192,192,130974,1,6,0:0:0:0:
320,192,130974,1,0,0:0:0:0:
448,192,131210,1,2,0:0:0:0:
64,192,131446,128,2,131682:0:0:0:0:
192,192,131446,128,0,131682:0:0:0:0:
64,192,131918,1,6,0:0:0:0:
192,192,131918,1,0,0:0:0:0:
448,192,131918,1,0,0:0:0:0:
320,192,132391,128,0,132627:0:0:0:0:
192,192,132391,128,2,132627:0:0:0:0:
448,192,132863,128,0,133100:0:0:0:0:
320,192,132863,128,6,133100:0:0:0:0:
64,192,133336,128,2,133572:0:0:0:0:
192,192,133336,128,0,133572:0:0:0:0:
448,192,133336,128,0,133572:0:0:0:0:
64,192,133808,1,6,0:0:0:0:
448,192,133808,1,0,0:0:0:0:
64,192,134281,1,2,0:0:0:0:
192,192,134281,1,0,0:0:0:0:
448,192,134281,1,0,0:0:0:0:
64,192,134517,1,2,0:0:0:0:
448,192,134517,1,0,0:0:0:0:
320,192,134753,1,2,0:0:0:0:
448,192,134753,1,4,0:0:0:0:
64,192,134989,1,2,0:0:0:0:
320,192,134989,1,0,0:0:0:0:
64,192,135226,1,2,0:0:0:0:
192,192,135226,1,0,0:0:0:0:
64,192,135462,1,2,0:0:0:0:
192,192,135462,1,0,0:0:0:0:
320,192,135462,1,0,0:0:0:0:
64,192,135698,1,6,0:0:0:0:
192,192,135698,1,0,0:0:0:0:
448,192,135698,1,0,0:0:0:0:
64,192,135934,1,2,0:0:0:0:
192,192,135934,1,0,0:0:0:0:
320,192,135934,1,0,0:0:0:0:
448,192,136170,128,0,136643:0:0:0:0:
320,192,136170,128,0,136643:0:0:0:0:
192,192,136170,128,2,136643:0:0:0:0:
64,192,136643,1,6,0:0:0:0:
192,192,137115,128,0,137588:0:0:0:0:
320,192,137115,128,0,137588:0:0:0:0:
64,192,137115,1,2,0:0:0:0:
448,192,137115,1,0,0:0:0:0:
64,192,137588,1,6,0:0:0:0:
448,192,137588,1,0,0:0:0:0:
64,272,138060,1,2,0:0:0:0:
192,272,138060,1,0,0:0:0:0:
448,192,138296,1,0,0:0:0:0:
320,192,138296,1,0,0:0:0:0:
64,192,138296,1,2,0:0:0:0:
192,192,138533,1,6,0:0:0:0:
448,192,138533,1,0,0:0:0:0:
64,192,138769,1,2,0:0:0:0:
192,192,138769,1,0,0:0:0:0:
320,192,138769,1,0,0:0:0:0:
192,192,139005,1,2,0:0:0:0:
320,192,139005,1,0,0:0:0:0:
64,192,139241,1,2,0:0:0:0:
448,192,139241,1,0,0:0:0:0:
64,192,139478,1,4,0:0:0:0:
192,192,139478,1,2,0:0:0:0:
320,192,139478,1,0,0:0:0:0:
448,192,139478,1,0,0:0:0:0:
320,192,139950,1,2,0:0:0:0:
448,192,139950,1,8,0:0:0:0:
320,192,140186,1,2,0:0:0:0:
448,192,140186,1,0,0:0:0:0:
64,192,140304,1,0,0:0:0:0:
192,192,140304,1,2,0:0:0:0:
320,192,140422,1,10,0:0:0:0:
448,192,140422,1,4,0:0:0:0:
64,192,140659,1,2,0:0:0:0:
448,192,140659,1,0,0:0:0:0:
192,192,140895,1,2,0:0:0:0:
320,192,140895,1,0,0:0:0:0:
64,192,141013,1,2,0:0:0:0:
448,192,141013,1,0,0:0:0:0:
192,192,141131,1,2,0:0:0:0:
320,192,141131,1,0,0:0:0:0:
64,192,141367,1,2,0:0:0:0:
192,192,141367,1,4,0:0:0:0:
448,192,141367,1,0,0:0:0:0:
320,192,141604,1,2,0:0:0:0:
192,192,141722,1,2,0:0:0:0:
320,192,141840,1,2,0:0:0:0:
192,192,141958,1,2,0:0:0:0:
320,192,142076,1,2,0:0:0:0:
448,192,142076,1,0,0:0:0:0:
64,192,142194,1,0,0:0:0:0:
192,192,142194,1,2,0:0:0:0:
320,192,142312,1,2,0:0:0:0:
448,192,142312,1,4,0:0:0:0:
64,192,142548,1,2,0:0:0:0:
192,192,142548,1,0,0:0:0:0:
320,192,142548,1,0,0:0:0:0:
64,192,142785,1,2,0:0:0:0:
192,192,142785,1,0,0:0:0:0:
64,192,142903,1,2,0:0:0:0:
192,192,142903,1,0,0:0:0:0:
64,192,143021,1,2,0:0:0:0:
192,192,143021,1,0,0:0:0:0:
64,192,143257,1,0,0:0:0:0:
192,192,143257,1,4,0:0:0:0:
448,192,143257,1,0,0:0:0:0:
64,192,143415,1,0,0:0:0:0:
192,192,143415,1,4,0:0:0:0:
448,192,143415,1,0,0:0:0:0:
64,192,143572,1,0,0:0:0:0:
192,192,143572,1,4,0:0:0:0:
448,192,143572,1,0,0:0:0:0:
64,192,143729,128,2,143966:0:0:0:0:
192,192,143729,128,0,143966:0:0:0:0:
448,192,143729,128,0,143966:0:0:0:0:
448,192,144202,128,0,144438:0:0:0:0:
320,192,144202,128,0,144438:0:0:0:0:
192,192,144202,128,2,144438:0:0:0:0:
448,192,144674,1,0,0:0:0:0:
320,192,144674,1,0,0:0:0:0:
64,192,144674,1,10,0:0:0:0:
64,192,144911,1,2,0:0:0:0:
192,192,144911,1,8,0:0:0:0:
448,192,144911,1,0,0:0:0:0:
64,192,145147,1,2,0:0:0:0:
192,192,145147,1,8,0:0:0:0:
320,192,145147,1,0,0:0:0:0:
448,192,145147,1,0,0:0:0:0:
64,192,145383,1,8,0:0:0:0:
448,192,145383,1,0,0:0:0:0:
192,192,145619,1,2,0:0:0:0:
320,192,145619,1,0,0:0:0:0:
448,192,145619,1,8,0:0:0:0:
64,192,145619,128,0,147273:0:0:0:0:
192,192,146092,128,10,147273:0:0:0:0:
320,192,146564,128,10,147273:0:0:0:0:
448,192,147037,128,10,147273:0:0:0:0:
64,192,147509,1,12,0:0:0:0:
192,192,147509,1,14,0:0:0:0:
320,192,147509,1,0,0:0:0:0:
448,192,147509,1,2,0:0:0:0:
64,192,147745,1,0,0:0:0:0:
192,192,147745,1,0,0:0:0:0:
320,192,147745,1,0,0:0:0:0:
192,192,147981,1,0,0:0:0:0:
320,192,147981,1,0,0:0:0:0:
448,192,147981,1,0,0:0:0:0:
64,192,148218,1,2,0:0:0:0:
192,192,148218,1,2,0:0:0:0:
448,192,148218,1,0,0:0:0:0:
192,192,148454,128,0,148690:0:0:0:0:
448,192,148454,128,0,148690:0:0:0:0:
64,192,148926,128,2,149163:0:0:0:0:
448,192,148926,128,0,149163:0:0:0:0:
320,192,148926,128,2,149163:0:0:0:0:
64,192,149399,1,6,0:0:0:0:
320,192,149399,1,2,0:0:0:0:
448,192,149399,1,4,0:0:0:0:
320,192,149635,1,0,0:0:0:0:
448,192,149635,1,0,0:0:0:0:
192,192,149753,1,0,0:0:0:0:
320,192,149871,1,4,0:0:0:0:
448,192,149871,1,0,0:0:0:0:
64,192,150107,1,2,0:0:0:0:
320,192,150107,1,2,0:0:0:0:
192,192,150344,1,4,0:0:0:0:
320,192,150344,1,0,0:0:0:0:
448,192,150580,1,0,0:0:0:0:
192,192,150816,1,6,0:0:0:0:
320,192,150816,1,2,0:0:0:0:
64,192,151052,1,2,0:0:0:0:
64,192,151289,1,4,0:0:0:0:
192,192,151289,1,6,0:0:0:0:
320,192,151289,1,2,0:0:0:0:
448,192,151289,1,0,0:0:0:0:
64,192,151525,1,0,0:0:0:0:
192,192,151525,1,0,0:0:0:0:
320,192,151525,1,0,0:0:0:0:
192,192,151761,1,0,0:0:0:0:
320,192,151761,1,0,0:0:0:0:
320,192,151997,1,2,0:0:0:0:
448,192,151997,1,2,0:0:0:0:
64,192,152233,128,0,152470:0:0:0:0:
320,192,152233,128,0,152470:0:0:0:0:
448,192,152233,128,0,152470:0:0:0:0:
192,192,152706,128,2,152942:0:0:0:0:
320,192,152706,128,2,152942:0:0:0:0:
448,192,152706,128,0,152942:0:0:0:0:
64,192,153178,128,2,153415:0:0:0:0:
192,192,153178,128,2,153415:0:0:0:0:
64,192,153651,1,0,0:0:0:0:
192,192,153651,1,0,0:0:0:0:
448,192,153887,128,6,155068:0:0:0:0:
64,192,154123,1,2,0:0:0:0:
192,192,154241,1,2,0:0:0:0:
320,192,154359,1,2,0:0:0:0:
192,192,154478,1,2,0:0:0:0:
64,192,154596,1,2,0:0:0:0:
192,192,154714,1,2,0:0:0:0:
320,192,154832,1,2,0:0:0:0:
192,192,154950,1,2,0:0:0:0:
64,192,155068,1,6,0:0:0:0:
320,192,155068,1,6,0:0:0:0:
64,192,155304,1,0,0:0:0:0:
448,192,155304,1,0,0:0:0:0:
64,192,155541,1,0,0:0:0:0:
448,192,155541,1,0,0:0:0:0:
192,192,155777,1,2,0:0:0:0:
320,192,155777,1,2,0:0:0:0:
64,192,156013,128,0,156249:0:0:0:0:
448,192,156013,128,0,156249:0:0:0:0:
64,192,156485,128,2,156722:0:0:0:0:
320,192,156485,128,2,156722:0:0:0:0:
320,192,156958,1,2,0:0:0:0:
448,192,156958,1,6,0:0:0:0:
64,192,157194,1,0,0:0:0:0:
192,192,157194,1,0,0:0:0:0:
320,192,157312,1,0,0:0:0:0:
448,192,157430,1,4,0:0:0:0:
64,192,157666,1,2,0:0:0:0:
192,192,157903,1,0,0:0:0:0:
320,192,157903,1,6,0:0:0:0:
448,192,157903,1,2,0:0:0:0:
64,192,158139,1,2,0:0:0:0:
192,192,158375,1,0,0:0:0:0:
320,192,158375,1,2,0:0:0:0:
448,192,158375,1,6,0:0:0:0:
64,192,158611,1,2,0:0:0:0:
64,192,158848,1,4,0:0:0:0:
192,192,158848,1,6,0:0:0:0:
320,192,158848,1,6,0:0:0:0:
448,192,158848,1,4,0:0:0:0:
448,192,159084,1,0,0:0:0:0:
192,192,159084,1,0,0:0:0:0:
64,192,159320,128,2,159556:0:0:0:0:
192,192,159320,128,2,159556:0:0:0:0:
448,192,159792,128,0,160029:0:0:0:0:
320,192,159792,128,2,160029:0:0:0:0:
64,192,159792,128,2,160029:0:0:0:0:
64,192,160265,1,2,0:0:0:0:
192,192,160265,1,2,0:0:0:0:
320,192,160501,1,0,0:0:0:0:
448,192,160501,1,0,0:0:0:0:
192,192,160737,1,6,0:0:0:0:
320,192,160737,1,2,0:0:0:0:
192,192,160974,1,0,0:0:0:0:
320,192,160974,1,0,0:0:0:0:
64,192,161092,1,0,0:0:0:0:
448,192,161092,1,0,0:0:0:0:
192,192,161210,1,0,0:0:0:0:
320,192,161210,1,0,0:0:0:0:
64,192,161446,128,6,161918:0:0:0:0:
448,192,161446,128,6,161918:0:0:0:0:
192,192,162155,1,0,0:0:0:0:
320,192,162155,1,0,0:0:0:0:
192,192,162391,1,0,0:0:0:0:
320,192,162391,1,0,0:0:0:0:
64,192,162627,128,2,162863:0:0:0:0:
320,192,162627,128,2,162863:0:0:0:0:
448,192,162627,128,0,162863:0:0:0:0:
64,192,163100,1,0,0:0:0:0:
448,192,163100,1,0,0:0:0:0:
64,192,163336,128,2,163572:0:0:0:0:
320,192,163336,128,0,163572:0:0:0:0:
448,192,163336,128,0,163572:0:0:0:0:
192,192,163808,1,0,0:0:0:0:
320,192,163808,1,0,0:0:0:0:
64,192,164044,1,2,0:0:0:0:
320,192,164044,1,2,0:0:0:0:
192,192,164281,1,0,0:0:0:0:
448,192,164281,1,0,0:0:0:0:
64,192,164517,128,6,164989:0:0:0:0:
320,192,164517,128,6,164989:0:0:0:0:
192,192,164753,1,0,0:0:0:0:
448,192,164753,1,0,0:0:0:0:
192,192,164989,1,0,0:0:0:0:
448,192,164989,1,0,0:0:0:0:
192,192,165226,128,6,165698:0:0:0:0:
448,192,165226,128,6,165698:0:0:0:0:
64,192,165462,1,0,0:0:0:0:
320,192,165462,1,0,0:0:0:0:
64,192,165698,1,0,0:0:0:0:
320,192,165698,1,0,0:0:0:0:
192,192,165934,1,2,0:0:0:0:
320,192,165934,1,2,0:0:0:0:
320,192,166170,1,2,0:0:0:0:
448,192,166170,1,2,0:0:0:0:
64,192,166407,1,0,0:0:0:0:
192,192,166407,1,6,0:0:0:0:
320,192,166407,1,6,0:0:0:0:
448,192,166407,1,0,0:0:0:0:
64,192,166643,1,0,0:0:0:0:
192,192,166643,1,0,0:0:0:0:
64,192,166879,1,0,0:0:0:0:
320,192,166879,1,0,0:0:0:0:
64,192,167115,1,6,0:0:0:0:
192,192,167115,1,6,0:0:0:0:
448,192,167115,1,0,0:0:0:0:
320,192,167352,1,0,0:0:0:0:
448,192,167352,1,0,0:0:0:0:
64,192,167588,1,0,0:0:0:0:
448,192,167588,1,0,0:0:0:0:
192,192,167824,1,2,0:0:0:0:
448,192,167824,1,6,0:0:0:0:
64,192,168060,1,0,0:0:0:0:
192,192,168060,1,0,0:0:0:0:
320,192,168060,1,0,0:0:0:0:
192,192,168296,128,6,169241:0:0:0:0:
320,192,168296,128,6,169241:0:0:0:0:
64,192,169005,128,6,169241:0:0:0:0:
448,192,169005,128,6,169241:0:0:0:0:
64,192,169478,1,2,0:0:0:0:
192,192,169596,1,2,0:0:0:0:
64,192,169714,1,2,0:0:0:0:
192,192,169832,1,2,0:0:0:0:
320,192,169950,1,2,0:0:0:0:
448,192,170068,1,2,0:0:0:0:
320,192,170186,128,6,170422:0:0:0:0:
64,192,170186,128,2,170422:0:0:0:0:
320,192,170659,1,0,0:0:0:0:
448,192,170659,1,0,0:0:0:0:
64,192,170895,1,6,0:0:0:0:
192,192,170895,1,2,0:0:0:0:
320,192,171013,1,0,0:0:0:0:
448,192,171131,1,0,0:0:0:0:
192,192,171367,1,0,0:0:0:0:
448,192,171367,1,0,0:0:0:0:
64,192,171604,1,2,0:0:0:0:
448,192,171604,1,6,0:0:0:0:
64,192,171840,1,4,0:0:0:0:
448,192,171840,1,0,0:0:0:0:
64,192,172076,128,2,172548:0:0:0:0:
192,192,172312,128,6,172548:0:0:0:0:
320,192,172548,1,4,0:0:0:0:
448,192,172785,128,6,173257:0:0:0:0:
320,192,173021,128,6,173257:0:0:0:0:
192,192,173257,1,4,0:0:0:0:
64,192,173493,1,2,0:0:0:0:
192,192,173493,1,2,0:0:0:0:
448,192,173493,1,0,0:0:0:0:
64,192,173729,1,0,0:0:0:0:
320,192,173729,1,0,0:0:0:0:
192,192,173966,128,6,174438:0:0:0:0:
320,192,173966,128,6,174438:0:0:0:0:
448,192,173966,1,0,0:0:0:0:
448,192,174202,1,0,0:0:0:0:
448,192,174438,1,0,0:0:0:0:
64,192,174674,128,6,174911:0:0:0:0:
448,192,174674,128,6,174911:0:0:0:0:
64,192,175147,1,4,0:0:0:0:
192,192,175147,1,0,0:0:0:0:
192,192,175383,1,2,0:0:0:0:
320,192,175383,1,6,0:0:0:0:
320,192,175619,1,0,0:0:0:0:
448,192,175619,1,4,0:0:0:0:
192,192,175855,128,6,177273:0:0:0:0:
320,192,175855,128,6,177273:0:0:0:0:
64,192,175855,1,0,0:0:0:0:
448,192,175855,1,0,0:0:0:0:
64,192,176564,128,6,177273:0:0:0:0:
448,192,176564,128,6,177273:0:0:0:0:
64,192,177745,1,12,0:0:0:0:
192,192,177745,1,14,0:0:0:0:
320,192,177745,1,4,0:0:0:0:
448,192,177745,1,4,0:0:0:0:
