osu file format v9

[General]
AudioFilename: Super Bass.mp3
AudioLeadIn: 1000
PreviewTime: 106398
Countdown: 0
SampleSet: Normal
StackLeniency: 0.7
Mode: 1
LetterboxInBreaks: 0

[Editor]
Bookmarks: 14637,23849,32353,58337,64479,67316,75584,95308,107461,167001,191922
DistanceSpacing: 1.1
BeatDivisor: 4
GridSize: 4

[Metadata]
Title:Super Bass
Artist:Nicki Minaj
Creator:Gonzvlo
Version:oTo
Source:
Tags:ErufenRito Revengexsoyah Soyah

[Difficulty]
HPDrainRate:6
CircleSize:7
OverallDifficulty:6
ApproachRate:5
SliderMultiplier:1.5
SliderTickRate:4

[Events]
//Background and Video events
0,0,"TaikoBG.jpg"
//Break Periods
//Storyboard Layer 0 (Background)
//Storyboard Layer 1 (Fail)
//Storyboard Layer 2 (Pass)
//Storyboard Layer 3 (Foreground)
//Storyboard Sound Samples
//Background Colour Transformations
3,100,255,255,255

[TimingPoints]
1635,472.44094488189,4,1,0,60,1,0
46989,-100,4,1,0,60,0,1
77225,-100,4,1,0,60,0,0
107461,-100,4,1,0,60,0,1
137697,-100,4,1,0,60,0,0
137816,-125,4,1,0,60,0,0
167934,-100,4,1,0,60,0,1
198170,-100,4,1,0,60,0,0

[Colours]
Combo1 : 0,255,255
Combo2 : 255,255,149
Combo3 : 230,230,230
Combo4 : 91,173,255
Combo5 : 164,100,249
SliderBorder : 255,255,255
SliderTrackOverride : 255,0,128

[HitObjects]
100,136,1635,1,6
264,164,2107,1,0
100,136,2579,1,2
264,164,3051,1,0
428,152,3524,1,0
428,152,3642,1,2
356,276,3879,1,0
216,300,3997,1,2
116,196,4233,1,2
64,64,4469,1,0
88,132,4587,1,0
212,60,4823,1,0
284,68,4942,1,2
368,184,5178,1,0
300,204,5296,1,0
236,240,5414,1,0
108,300,5650,1,0
16,192,5886,1,2
80,64,6123,1,0
152,68,6241,1,0
224,60,6359,1,0
364,76,6595,1,0
440,196,6831,1,2
312,260,7068,1,0
240,268,7186,1,2
168,268,7304,1,0
24,264,7540,1,0
60,204,7658,1,2
28,64,7894,1,2
132,160,8131,1,0
200,132,8249,1,2
344,124,8485,1,0
460,208,8721,1,4
240,8,9194,5,2
180,48,9312,1,0
112,72,9430,1,0
52,144,9666,1,2
136,220,9902,1,0
208,236,10138,1,0
308,240,10375,1,0
360,236,10493,1,2
424,164,10729,1,0
392,148,10847,1,2
212,152,11083,1,0
104,120,11320,1,2
200,48,11556,1,0
312,48,11792,1,0
372,52,11910,1,2
416,44,12028,1,0
308,192,12264,1,0
332,144,12383,1,2
164,216,12737,1,0
260,280,12855,1,0
376,288,12973,1,2
408,228,13091,1,0
428,192,13209,1,0
348,148,13327,1,0
280,72,13446,1,0
232,124,13682,1,0
168,152,13800,1,0
92,120,13918,1,2
68,192,14036,1,0
64,268,14154,1,0
168,300,14272,1,0
256,328,14391,1,2
440,56,14627,5,0
364,64,14863,1,2
300,68,15099,1,0
232,68,15335,1,2
172,128,15572,1,0
172,128,15690,1,2
172,128,15808,1,0
172,128,16044,1,0
172,128,16162,1,2
328,112,16516,37,0
396,196,16635,1,0
332,272,16753,1,2
176,272,17107,1,0
124,248,17225,1,2
132,88,17579,1,0
96,96,17697,1,2
144,176,17934,1,0
144,176,18052,1,0
144,176,18170,1,2
292,280,18524,1,0
356,284,18642,1,2
224,92,18879,1,2
272,64,18997,1,2
384,56,19115,1,0
464,136,19233,1,0
204,248,19351,1,2
248,240,19469,1,2
444,192,19587,1,0
152,116,19823,1,0
80,180,19942,1,2
44,256,20060,1,0
348,216,20414,5,0
308,220,20532,1,2
328,144,20886,1,0
276,144,21005,1,2
272,72,21359,1,0
212,64,21477,1,2
128,68,21713,1,0
60,80,21949,1,2
380,252,22304,1,0
344,244,22422,1,0
280,232,22540,1,2
196,256,22658,1,0
132,268,22776,1,0
72,264,22894,1,2
380,100,23131,1,0
312,100,23249,1,2
244,92,23367,1,0
196,76,23485,1,2
140,84,23603,1,0
64,96,23839,1,6
396,304,24075,5,0
332,304,24194,1,2
276,308,24312,1,0
212,312,24430,1,2
156,308,24548,1,0
152,184,24784,1,2
224,200,25020,1,2
424,208,25257,1,0
440,168,25375,1,2
424,88,25493,1,0
296,72,25729,1,2
224,80,25965,1,2
160,272,26201,5,2
104,272,26320,1,0
56,272,26438,1,0
52,224,26556,1,0
52,172,26674,1,2
92,104,26910,1,0
464,120,27146,1,2
344,96,27264,1,2
280,88,27383,1,0
164,92,27501,1,0
236,196,27619,1,0
364,204,27855,1,0
364,248,27973,1,2
296,304,28209,1,0
232,312,28327,1,2
240,84,28564,1,0
112,40,28800,1,0
48,72,28918,1,0
48,148,29036,1,2
60,224,29154,1,0
72,292,29272,1,0
144,256,29509,1,0
404,208,29745,5,0
392,264,29863,1,2
396,92,30099,1,2
344,80,30217,1,0
276,256,30453,1,2
208,240,30690,1,0
160,196,30808,1,0
156,156,30926,1,2
196,96,31044,1,0
236,56,31162,1,0
264,160,31398,1,2
424,284,31635,1,2
320,296,31871,1,4
240,296,32107,1,4
116,280,32343,1,4
372,184,32579,5,0
320,184,32697,1,2
296,160,32816,5,0
228,108,32934,1,2
160,96,33052,1,0
224,208,33288,1,0
468,180,33524,1,0
404,76,33760,1,2
336,80,33879,1,2
252,48,33997,1,2
160,48,34233,1,2
56,132,34469,1,0
120,244,34705,1,0
120,244,34823,1,0
120,244,34942,1,0
176,168,35178,1,0
172,84,35414,1,4
332,260,35650,1,4
268,272,35886,1,4
184,284,36123,1,4
200,204,36359,1,0
200,164,36477,1,0
244,184,36595,1,2
244,184,36713,1,0
244,184,36831,1,0
244,184,37068,1,2
460,152,37540,5,0
404,156,37658,1,0
352,176,37776,1,0
300,80,38012,1,2
124,120,38249,1,0
100,168,38367,1,0
72,216,38485,1,0
92,324,38721,1,0
180,260,38957,1,2
236,252,39075,1,0
236,252,39194,1,0
312,332,39430,1,4
392,152,39902,1,0
192,64,40375,1,2
284,96,40611,1,0
368,140,40847,1,2
272,192,41083,1,0
136,152,41320,1,0
84,160,41438,1,2
112,112,41556,1,0
84,160,41792,1,0
176,220,42028,1,0
228,236,42146,1,2
228,236,42264,1,0
336,244,42501,1,0
444,260,42737,1,2
30,136,42973,5,0
192,48,43209,1,2
336,144,43445,1,0
160,248,43681,1,8
352,248,43917,1,0
176,144,44154,1,2
320,48,44390,1,0
485,136,44626,1,8
256,192,44863,12,2,46516
256,72,46989,5,0
320,104,47461,1,2
384,180,47697,1,0
344,208,47816,1,0
288,244,47934,1,0
96,264,48170,1,0
28,152,48406,1,2
160,128,48642,1,0
128,80,48760,1,2
64,56,48879,1,0
208,276,49115,1,0
200,220,49351,1,2
320,308,49823,37,2
188,180,50060,1,0
256,60,50296,1,2
320,180,50532,1,0
440,104,50768,1,2
420,136,50886,1,0
172,100,51123,1,0
136,128,51241,1,2
40,132,51477,1,0
352,356,51713,1,2
472,252,51949,1,0
384,120,52186,1,2
32,232,52422,1,2
96,232,52540,1,0
152,228,52658,1,2
204,236,52776,1,0
256,240,52894,1,2
216,156,53131,1,2
328,348,53603,1,2
264,328,53839,1,0
320,288,54075,1,2
256,383,54312,1,0
268,268,54548,1,2
144,208,54902,1,0
208,192,55020,1,2
312,176,55257,1,0
380,112,55375,1,2
308,108,55493,1,0
444,264,55847,5,0
380,268,55965,1,2
256,340,56202,1,0
132,272,56438,1,2
212,144,56674,1,0
76,148,56910,1,2
104,84,57028,1,0
188,68,57146,1,0
264,80,57383,1,0
264,80,57619,1,0
264,80,57855,1,6
328,348,58327,5,2
264,328,58682,1,0
320,288,58800,1,2
256,383,59036,1,0
220,364,59272,1,0
144,208,59626,1,0
208,192,59744,1,2
312,176,59981,1,0
380,112,60099,1,2
308,108,60217,1,0
444,264,60572,1,0
380,268,60689,1,2
256,340,60926,1,0
132,272,61162,1,2
212,144,61398,1,0
288,180,61634,1,2
104,84,61752,1,0
188,68,61870,1,0
264,80,62107,1,0
264,80,62343,1,0
272,216,62579,1,0
236,216,62697,1,0
196,220,62816,1,0
196,220,62934,1,0
16,172,63052,1,2
400,208,63524,1,0
400,208,63642,1,0
344,208,63760,1,0
344,208,63879,1,0
364,96,63997,1,2
236,328,64469,1,0
144,312,64587,1,0
144,312,64705,1,0
164,272,64823,1,0
16,244,64942,1,2
436,128,65414,1,0
408,120,65532,1,0
356,116,65650,1,0
324,88,65768,1,0
496,244,65886,1,2
344,280,66123,1,2
84,160,66359,1,0
144,160,66477,1,0
156,204,66595,1,0
156,204,66713,1,0
16,324,66831,1,2
264,208,67304,1,0
324,200,67422,1,0
360,200,67540,1,2
360,200,67658,1,0
496,324,67776,5,0
352,364,68012,1,0
208,280,68249,1,8
136,140,68485,1,0
256,40,68721,1,2
376,140,68957,1,2
304,280,69194,1,10
160,364,69430,1,2
16,324,69666,37,4
124,116,70020,1,0
124,116,70138,1,8
256,28,70375,1,0
388,116,70611,1,2
388,296,70965,5,0
388,296,71083,1,8
256,384,71320,1,0
124,296,71556,1,2
188,112,71792,1,0
76,96,71910,1,0
136,116,72028,1,2
268,192,72264,1,0
204,204,72383,1,0
136,200,72501,1,0
400,172,72737,1,0
328,148,72855,1,0
296,116,72973,1,2
256,312,73446,37,0
388,116,73800,1,0
388,116,73918,1,8
256,28,74155,1,0
124,116,74391,1,2
124,296,74745,5,0
124,296,74863,1,8
256,384,75100,1,0
388,296,75336,1,0
396,80,75572,1,0
332,88,75690,1,0
264,76,75808,1,2
108,228,76044,1,0
172,248,76162,1,0
236,240,76280,1,2
332,260,76398,1,0
376,220,76516,1,0
420,184,76635,1,2
364,168,76753,1,0
272,172,76989,1,0
320,164,77107,1,0
356,208,77225,1,0
144,144,77697,1,2
144,144,78170,1,0
144,144,78642,1,2
144,144,79115,1,0
144,144,79587,1,2
144,144,80060,1,0
144,144,80532,1,2
144,144,80768,1,0
208,72,81005,5,4
292,76,81241,1,2
316,140,81477,1,0
228,276,81949,1,0
296,296,82186,1,0
176,200,82422,1,2
404,92,82658,1,2
348,80,82776,1,0
296,72,82894,1,2
248,52,83012,1,0
192,32,83131,1,0
348,192,83367,1,2
348,192,83603,1,0
348,192,83839,1,0
348,192,84312,1,2
172,280,84548,1,0
128,252,84666,1,0
52,212,84784,1,0
72,296,84902,1,0
144,348,85020,1,2
232,340,85138,1,0
340,328,85257,1,2
428,228,85493,1,0
396,240,85611,1,2
328,252,85729,1,0
240,212,85847,1,2
188,112,85965,1,0
232,56,86201,1,6
32,88,86674,5,0
48,156,87028,1,0
40,204,87146,1,2
128,280,87383,1,0
188,288,87501,1,0
248,304,87619,1,2
336,308,87737,1,0
428,308,87855,1,0
316,144,88091,1,6
92,100,88564,1,0
136,80,88682,1,0
200,60,88800,1,2
260,48,88918,1,0
308,60,89036,1,0
372,80,89154,1,2
468,100,89509,1,4
412,260,89745,1,0
364,256,89863,1,0
312,240,89981,1,2
264,228,90099,1,2
224,220,90217,1,0
424,180,90453,1,4
380,88,90690,1,2
332,96,90808,1,0
256,96,90926,5,0
200,112,91044,1,0
140,132,91162,1,2
156,24,91398,1,0
268,184,91871,1,4
256,360,92107,5,4
180,196,92343,1,4
356,288,92579,1,2
156,288,92816,1,8
400,96,93052,5,0
368,100,93170,1,2
308,100,93288,1,2
268,100,93406,1,0
216,100,93524,1,0
168,104,93642,1,2
116,100,93760,1,0
404,196,93997,1,2
344,196,94115,1,0
304,200,94233,1,0
264,196,94351,1,2
212,192,94469,1,0
160,180,94587,1,0
104,180,94705,1,2
328,300,94942,1,0
272,296,95060,1,2
216,304,95178,1,0
148,308,95296,1,2
80,292,95414,1,0
400,264,95650,1,2
176,256,95886,5,0
340,88,96123,1,4
172,88,96359,1,4
336,256,96595,1,4
336,184,97068,1,0
272,168,97186,1,0
224,144,97304,1,0
124,132,97540,1,2
460,200,97776,1,0
428,260,97894,1,2
368,304,98012,1,0
264,284,98131,1,0
136,296,98249,1,2
40,248,98367,1,0
8,152,98485,1,2
404,144,98721,1,0
404,144,98839,1,0
404,144,98957,1,2
404,144,99075,1,0
140,104,99194,1,0
404,144,99430,1,2
264,120,100139,1,0
264,120,100375,1,2
264,120,100611,1,0
264,120,100847,1,0
264,120,101083,1,0
264,120,101320,1,2
400,220,101556,5,2
368,220,101674,1,0
312,216,101792,1,0
264,208,101910,1,2
212,196,102028,1,0
172,184,102146,1,0
140,156,102264,1,2
120,290,102501,1,0
165,366,102619,1,0
211,290,102737,1,2
256,366,102855,1,0
302,290,102973,1,0
348,366,103091,1,0
393,290,103209,1,8
484,130,103446,37,0
318,42,103682,1,2
176,144,103918,1,0
352,248,104154,1,8
160,248,104390,1,0
336,144,104627,1,2
195,42,104863,1,0
29,130,105099,1,8
256,192,105335,12,2,106989
256,72,107461,5,0
320,104,107933,1,2
384,180,108169,1,0
344,208,108288,1,0
288,244,108406,1,0
96,264,108642,1,0
28,152,108878,1,2
160,128,109114,1,0
128,80,109232,1,2
64,56,109351,1,0
208,276,109587,1,0
200,220,109823,1,2
320,308,110295,37,2
188,180,110532,1,0
256,60,110768,1,2
320,180,111004,1,0
440,104,111240,1,2
420,136,111358,1,0
172,100,111595,1,0
136,128,111713,1,2
40,132,111949,1,0
352,356,112185,1,2
472,252,112421,1,0
384,120,112658,1,2
32,232,112894,1,2
96,232,113012,1,0
152,228,113130,1,2
204,236,113248,1,0
256,240,113366,1,2
216,156,113603,1,2
328,348,114075,1,0
264,328,114311,1,0
320,288,114547,5,2
256,383,114784,5,2
268,268,115020,1,4
144,208,115374,1,0
208,192,115492,1,2
312,176,115729,1,0
380,112,115847,1,2
308,108,115965,1,0
444,264,116319,5,0
380,268,116437,1,2
256,340,116674,1,0
132,272,116910,1,2
212,144,117146,1,0
76,148,117382,1,2
104,84,117500,1,0
188,68,117618,1,0
264,80,117855,1,0
264,80,118091,1,0
264,80,118327,1,6
328,348,118799,5,2
264,328,119035,1,0
320,288,119271,1,2
256,383,119508,1,0
268,268,119744,1,2
144,208,120098,1,0
208,192,120216,1,2
312,176,120453,1,0
380,112,120571,1,2
308,108,120689,1,0
444,264,121044,1,0
380,268,121161,1,2
256,340,121398,1,0
132,272,121634,5,2
212,144,121870,1,0
76,148,122106,1,2
104,84,122224,1,0
188,68,122342,1,0
256,32,122579,5,2
228,208,123052,1,0
196,212,123170,1,0
152,208,123288,1,0
116,208,123406,1,0
16,212,123524,1,2
424,208,123997,1,0
376,200,124115,1,0
344,188,124233,1,0
344,188,124351,1,0
496,212,124469,1,2
272,148,124942,1,0
312,124,125060,1,0
352,120,125178,1,0
352,120,125296,1,0
16,140,125414,1,2
260,24,125886,1,0
216,28,126005,1,0
176,24,126123,1,0
176,24,126241,1,0
496,140,126358,1,2
344,104,126595,1,2
188,184,126831,1,0
120,184,126949,1,0
72,176,127068,1,0
36,168,127186,1,0
16,60,127303,1,2
392,212,127776,1,2
400,160,127894,1,2
392,132,128012,1,2
380,108,128131,1,2
496,60,128249,5,0
352,20,128485,1,0
208,104,128722,1,8
136,244,128958,1,0
256,344,129194,1,2
376,244,129430,1,2
304,104,129667,1,10
160,20,129903,1,2
16,324,130138,37,4
124,116,130492,1,0
124,116,130610,1,8
256,28,130847,1,0
388,116,131083,1,2
388,296,131437,5,0
388,296,131555,1,8
256,384,131792,1,0
124,296,132028,1,2
188,112,132264,1,0
76,96,132382,1,0
136,116,132500,1,2
268,192,132736,1,0
204,204,132855,1,0
136,200,132973,1,0
400,172,133209,1,0
328,148,133327,1,0
296,116,133445,1,2
256,312,133918,37,2
388,116,134272,1,0
388,116,134390,1,8
256,28,134627,1,0
124,116,134863,1,2
124,296,135217,5,0
124,296,135335,1,8
256,384,135572,1,0
388,296,135808,1,2
396,80,136044,1,0
332,88,136162,1,0
264,76,136280,1,2
108,228,136516,1,0
172,248,136634,1,0
236,240,136752,1,2
332,260,136870,1,0
376,220,136988,1,0
420,184,137107,1,2
364,168,137225,1,0
272,172,137461,1,0
320,164,137579,1,0
356,208,137697,1,0
48,152,138642,5,2
48,152,139587,1,0
48,152,139823,1,0
48,152,140060,1,0
48,152,140296,1,0
48,152,140532,1,8
240,120,141005,1,0
240,120,141241,1,0
240,120,141477,1,0
240,120,142422,1,2
240,120,143367,1,0
240,120,143603,1,0
240,120,143839,1,0
240,120,144075,1,0
240,120,144312,1,8
240,120,145257,1,4
240,120,146201,1,2
240,120,146438,1,0
240,120,146674,1,2
96,136,147146,5,0
160,60,147383,1,0
256,32,147619,1,0
352,60,147855,1,0
416,136,148091,1,8
248,200,148564,1,0
248,200,149036,1,0
248,200,149509,1,0
248,200,149981,1,2
372,192,150453,1,0
248,200,150926,1,0
144,140,151398,1,0
184,288,151871,53,2
256,356,152107,1,0
328,288,152343,1,0
256,220,152579,1,0
340,176,152816,1,4
148,168,153760,1,2
396,324,154705,1,2
308,368,154942,5,0
308,368,155060,1,2
244,296,155296,5,0
204,368,155414,1,2
116,324,155650,5,8
236,240,155886,5,0
304,280,156123,5,0
256,204,156359,1,2
256,204,156595,1,4
288,112,157540,1,0
176,248,158484,5,2
292,220,158721,1,0
284,128,158839,1,2
264,268,159075,1,0
308,192,159193,1,2
232,208,159430,1,8
204,148,160138,1,0
308,148,160375,1,2
324,28,160729,53,0
324,28,160847,1,0
420,4,161083,1,0
392,100,161320,1,8
188,28,161674,5,0
188,28,161792,1,0
92,4,162028,1,0
120,100,162265,1,6
376,200,163209,53,8
244,184,163446,1,0
256,228,163682,1,0
180,164,163918,1,0
176,272,164155,1,2
216,344,164509,5,0
188,356,164627,1,0
92,380,164863,5,0
120,284,165100,1,8
368,284,165453,53,0
324,356,165572,1,0
264,176,165808,5,0
392,284,166044,5,6
256,16,166516,1,4
120,284,166989,5,6
256,72,167934,5,4
320,104,168406,1,2
384,180,168642,1,0
344,208,168761,1,0
288,244,168879,1,0
96,264,169115,1,0
28,152,169351,1,2
160,128,169587,1,0
128,80,169705,1,2
64,56,169824,1,0
208,276,170060,1,0
200,220,170296,1,2
320,308,170768,37,2
188,180,171005,1,0
256,60,171241,1,2
320,180,171477,1,0
440,104,171713,1,2
420,136,171831,1,0
172,100,172068,1,0
136,128,172186,1,2
40,132,172422,1,0
352,356,172658,1,2
472,252,172894,1,0
384,120,173131,1,2
32,232,173367,1,2
96,232,173485,1,0
152,228,173603,1,2
204,236,173721,1,0
256,240,173839,1,2
216,156,174076,1,2
328,348,174548,1,2
264,328,174784,1,0
320,288,175020,1,2
256,383,175257,1,0
268,268,175493,1,2
144,208,175847,1,0
208,192,175965,1,2
312,176,176202,1,0
380,112,176320,1,2
308,108,176438,1,0
444,264,176792,5,0
380,268,176910,1,2
256,340,177147,1,0
132,272,177383,1,2
212,144,177619,1,0
76,148,177855,1,2
104,84,177973,1,0
188,68,178091,1,0
264,80,178328,1,0
264,80,178564,1,0
264,80,178800,1,6
328,348,179272,5,2
264,328,179508,1,0
320,288,179744,1,2
256,383,179981,1,0
268,268,180217,1,2
144,208,180571,1,0
208,192,180689,1,2
312,176,180926,1,0
380,112,181044,1,2
308,108,181162,1,0
444,264,181517,1,0
380,268,181634,1,2
256,340,181871,5,0
132,272,182107,1,2
212,144,182343,1,0
76,148,182579,1,2
104,84,182697,1,0
188,68,182815,1,0
264,80,183052,1,0
264,80,183288,1,0
108,314,183524,1,2
256,212,183997,1,0
70,239,184469,1,2
100,172,184942,1,0
70,142,185414,1,2
284,180,185886,1,0
272,192,186359,1,2
336,184,186831,5,2
252,192,187068,1,0
236,136,187304,1,2
256,382,187776,53,0
256,104,188249,1,2
240,264,188721,5,2
228,196,188957,1,0
176,120,189194,1,8
216,120,189430,1,0
276,148,189666,1,2
312,100,189902,1,2
360,148,190138,1,10
272,164,190375,1,2
184,224,190611,37,4
132,152,190965,1,0
144,136,191083,1,8
280,108,191320,1,0
328,184,191556,1,2
304,208,191910,5,0
388,296,192028,1,8
272,304,192265,1,0
124,296,192501,1,2
188,112,192737,1,0
76,96,192855,1,0
136,116,192973,1,2
268,192,193209,1,0
204,204,193328,1,0
136,200,193446,1,0
400,172,193682,1,0
328,148,193800,1,0
296,116,193918,1,2
256,312,194391,37,2
332,140,194745,1,0
388,116,194863,1,8
256,96,195100,1,0
212,192,195336,1,2
288,216,195690,5,0
268,232,195808,1,8
176,212,196045,1,0
296,244,196281,1,2
396,80,196517,1,0
332,88,196635,1,0
264,76,196753,1,2
108,228,196989,1,0
172,248,197107,1,0
236,240,197225,1,2
332,260,197343,1,0
376,220,197461,1,0
420,184,197579,1,0
364,168,197698,1,2
272,172,197934,1,0
320,164,198052,1,0
356,208,198170,1,0
