osu file format v9

[General]
AudioFilename: Super Bass.mp3
AudioLeadIn: 1000
PreviewTime: 106398
Countdown: 0
SampleSet: Soft
StackLeniency: 0.4
Mode: 0
LetterboxInBreaks: 0

[Editor]
Bookmarks: 14637,23849,32353,36831,58337,64479,67316,75584,95308,167001,191922
DistanceSpacing: 1.3
BeatDivisor: 4
GridSize: 4

[Metadata]
Title:Super Bass
Artist:Nicki Minaj
Creator:Gonzvlo
Version:o3o
Source:
Tags:ErufenRito Revengexsoyah Soyah

[Difficulty]
HPDrainRate:6
CircleSize:4
OverallDifficulty:8
ApproachRate:9
SliderMultiplier:2.6
SliderTickRate:4

[Events]
//Background and Video events
Video,100,"Nicki Minaj - Super Bass.flv"
0,0,"BG.png"
//Break Periods
2,77235,80405
2,137697,146213
//Storyboard Layer 0 (Background)
//Storyboard Layer 1 (Fail)
//Storyboard Layer 2 (Pass)
//Storyboard Layer 3 (Foreground)
Sprite,Foreground,Centre,"derekface.png",320,240 F,0,199587,199764,0,1 S,0,199764,,0.2627199 R,0,199764,,0.1433606 F,0,199764,200098,1 M,0,199764,200119,329,277,332,286 F,0,200098,201005,1 F,0,201005,201241,1,0
Sprite,Foreground,Centre,"HB.png",320,240 M,0,198170,198642,320,500,320,460 F,0,200532,201477,1,0
//Storyboard Sound Samples
//Background Colour Transformations
3,100,255,255,255

[TimingPoints]
1635,472.44094488189,4,2,0,70,1,0
16694,-100,4,2,2,70,0,0
16812,-100,4,2,0,70,0,0
31044,-100,4,2,2,70,0,0
32107,-100,4,2,0,70,0,0
32343,-100,4,2,2,70,0,0
32461,-100,4,2,0,70,0,0
35296,-100,4,2,2,50,0,0
36241,-100,4,2,0,70,0,0
46989,-90.9090909090909,4,2,0,70,0,1
62107,-90.9090909090909,4,2,0,70,0,0
62579,-90.9090909090909,4,2,0,30,0,0
62638,-90.9090909090909,4,2,0,70,0,0
63524,-90.9090909090909,4,2,0,30,0,0
63583,-90.9090909090909,4,2,0,70,0,0
64469,-90.9090909090909,4,2,0,30,0,0
64528,-90.9090909090909,4,2,0,70,0,0
65414,-90.9090909090909,4,2,0,30,0,0
65473,-90.9090909090909,4,2,0,70,0,0
65886,-90.9090909090909,4,2,2,50,0,0
66359,-90.9090909090909,4,2,0,30,0,0
66418,-90.9090909090909,4,2,0,70,0,0
67304,-90.9090909090909,4,2,0,30,0,0
67363,-90.9090909090909,4,2,0,70,0,0
69666,-90.9090909090909,4,2,0,70,0,1
77225,-90.9090909090909,4,2,0,70,0,0
80766,-100,4,2,2,70,0,0
81064,-100,4,2,0,70,0,0
91516,-100,4,2,2,50,0,0
92461,-100,4,2,0,70,0,0
95827,-100,4,2,2,50,0,0
96713,-100,4,2,0,70,0,0
107461,-90.9090909090909,4,2,0,70,0,1
122579,-90.9090909090909,4,2,0,70,0,0
123052,-90.9090909090909,4,2,0,30,0,0
123111,-90.9090909090909,4,2,0,70,0,0
123997,-90.9090909090909,4,2,0,30,0,0
124056,-90.9090909090909,4,2,0,70,0,0
124942,-90.9090909090909,4,2,0,30,0,0
125001,-90.9090909090909,4,2,0,70,0,0
125886,-90.9090909090909,4,2,0,30,0,0
125946,-90.9090909090909,4,2,0,70,0,0
126241,-90.9090909090909,4,2,2,50,0,0
126831,-90.9090909090909,4,2,0,30,0,0
126890,-90.9090909090909,4,2,0,70,0,0
127776,-90.9090909090909,4,2,0,30,0,0
127835,-90.9090909090909,4,2,0,70,0,0
130138,-90.9090909090909,4,2,0,70,0,1
137697,-90.9090909090909,4,2,0,70,0,0
147146,-117.647058823529,4,2,0,50,0,0
152816,-117.647058823529,4,1,0,50,0,0
152875,-117.647058823529,4,2,0,50,0,0
154646,-117.647058823529,4,2,2,50,0,0
155591,-117.647058823529,4,2,0,50,0,0
156300,-117.647058823529,4,2,2,50,0,0
156654,-117.647058823529,4,2,0,50,0,0
158367,-117.647058823529,4,2,2,50,0,0
159312,-117.647058823529,4,2,0,50,0,0
160316,-117.647058823529,4,2,2,50,0,0
160434,-117.647058823529,4,2,1,50,0,0
162205,-117.647058823529,4,2,2,50,0,0
162323,-117.647058823529,4,2,0,50,0,0
164095,-117.647058823529,4,2,2,50,0,0
164213,-117.647058823529,4,2,0,50,0,0
167934,-90.9090909090909,4,2,0,70,0,1
183052,-90.9090909090909,4,2,0,50,0,0
186713,-90.9090909090909,4,2,2,50,0,0
187245,-90.9090909090909,4,2,0,50,0,0
190611,-90.9090909090909,4,2,0,70,0,1
198170,-90.9090909090909,4,2,0,50,0,0

[Colours]
Combo1 : 0,204,71
Combo2 : 255,255,149
Combo3 : 230,230,230
Combo4 : 91,173,255
Combo5 : 164,100,249
Combo6 : 0,255,255
SliderBorder : 255,255,255
SliderTrackOverride : 255,0,128

[HitObjects]
488,312,1635,2,0,B|448:264|376:280|372:312|368:340|296:360|256:312,1,260,4|0
24,72,2579,2,0,B|64:120|136:104|140:72|144:44|216:24|256:72,1,260,2|0
512,236,3524,6,0,B|440:236|440:236|376:236|320:288|336:360,1,260,2|0
0,148,4469,2,0,B|72:148|72:148|136:148|192:96|176:24,1,260,2|0
304,152,5414,6,0,B|272:88|328:28|392:36|424:80|424:80|452:116,1,260,2|0
296,240,6359,2,0,B|360:208|420:264|412:328|368:360|368:360|332:388,1,260,2|0
208,232,7304,54,0,B|240:296|184:356|120:348|88:304|88:304|60:268,1,260,2|0
216,144,8249,2,0,B|152:176|92:120|100:56|144:24|144:24|180:-4,1,260,2|0
256,72,8957,1,0
400,76,9194,6,0,B|356:76|316:108|312:156,1,130,6|0
396,160,9548,1,0
480,164,9666,2,0,B|476:211|436:243|392:243,1,130,0|0
308,244,10020,1,0
308,328,10138,2,0,B|440:328,2,130,2|0|0
199,155,10847,5,0
199,155,11083,2,0,B|196:108|156:76|112:76,1,130,2|0
116,160,11437,1,0
32,164,11555,2,0,B|35:211|75:243|119:243,1,130
204,244,11909,1,0
204,328,12027,2,0,B|72:328,2,130,2|0|0
360,360,12737,54,0,B|384:292|444:264,1,130,0|2
480,192,13091,1,0
442,119,13209,2,0,B|384:92|360:24,1,130,0|0
152,24,13682,6,0,B|129:92|70:119,1,130,0|2
33,192,14036,1,0
70,264,14154,2,0,B|129:292|153:360,1,130,0|0
208,192,14627,6,0,B|200:64,1,130,0|2
304,192,15099,2,0,B|312:320,1,130
120,188,15572,2,0,B|108:56,1,130,0|2
392,196,16044,2,0,B|404:328,1,130
212,348,16516,53,0
212,348,16635,1,0
212,348,16753,2,0,B|140:376|88:320|96:272,1,130,2|0
176,272,17107,1,0
104,228,17225,2,0,B|104:96,1,130,8|0
188,96,17579,1,0
144,16,17697,2,0,B|108:16|108:16|56:16|28:56,2,130,2|0|8
300,348,18524,5,0
300,348,18642,2,0,B|372:376|424:320|416:272,1,130,2|0
336,272,18996,1,0
408,228,19114,2,0,B|408:96,1,130,8|0
324,96,19469,1,0
368,16,19587,2,0,B|404:16|404:16|456:16|484:56,2,130,2|0|8
180,184,20414,5,0
180,184,20532,2,0,B|149:127|149:127|88:106,1,130,2|0
20,156,20886,1,0
88,208,21005,2,0,B|118:264|118:264|179:285,1,130,8|0
332,284,21477,2,0,B|394:264|394:264|424:206,1,130,2|0
492,156,21831,1,0
424,105,21949,2,0,B|362:127|362:127|332:184,1,130,8|0
184,284,22422,54,0,B|140:284|140:284|92:284|68:244,1,130,2|0
140,200,22776,1,0
204,148,22894,2,0,B|176:112|124:108|88:136,1,130,8|0
16,88,23249,1,0
88,44,23367,2,0,B|156:24|216:52,1,130,2|0
140,200,23839,1,8
328,284,24075,5,0
328,284,24194,1,0
328,284,24312,2,0,B|372:284|372:284|420:284|444:244,1,130,2|0
372,200,24666,1,0
308,148,24784,2,0,B|336:112|388:108|424:136,1,130,8|0
496,88,25138,1,0
444,24,25256,2,0,B|376:4|316:32,1,130,2|0
256,92,25611,1,0
196,32,25729,2,0,B|138:5|70:25,1,130,8|0
68,324,26201,6,0,B|136:344|196:316,1,130,2|0
256,260,26556,1,0
316,316,26674,2,0,B|374:343|442:323,1,130,8|0
340,192,27146,2,0,B|384:168|420:216|468:192,1,130,2|0
172,192,27619,2,0,B|128:168|92:216|44:192,1,130,8|0
4,116,27973,53,0
92,104,28091,2,0,B|136:88|184:92|216:116,1,130,2|0
256,192,28446,1,0
296,268,28564,2,0,B|329:293|377:297|421:281,1,130,8|0
484,224,28918,1,0
496,132,29036,2,0,B|472:64|408:40,1,130,2|0
256,128,29509,1,8
102,40,29745,6,0,B|40:64|16:132,1,130,0|2
32,216,30099,1,0
92,276,30217,2,0,B|144:296|144:296|213:267,1,130,0|8
419,276,30690,2,0,B|368:296|368:296|299:267,1,130,0|2
256,196,31044,2,0,B|256:96,2,65,2|0|2
180,344,31516,5,0
180,344,31635,1,2
332,344,31871,1,2
332,200,32107,1,2
180,200,32343,1,2
112,64,32579,54,0,B|172:64|172:64|172:100|200:128,1,130,0|2
256,64,32934,1,0
312,128,33052,2,0,B|339:102|339:66|339:66|399:66,1,130,0|8
412,244,33524,2,0,B|396:308|336:344,1,130,0|2
256,368,33879,1,0
176,344,33997,2,0,B|116:308|100:244,1,130,0|8
196,60,34469,6,0,B|228:40|256:36|256:36|284:40|316:60,1,130,0|2
256,120,34823,1,0
196,180,34942,2,0,B|228:200|256:204|256:204|284:200|316:180,1,130,0|8
416,280,35414,5,2
192,336,35650,1,2
320,336,35886,1,2
96,280,36123,1,2
72,120,36359,54,0,B|144:120|144:120|180:75,1,130,0|2
256,36,36713,1,0
331,75,36831,2,0,B|368:120|368:120|440:120,1,130,0|8
488,312,37304,5,0
488,312,37540,2,0,B|444:308|444:308|440:256|400:236,1,130,2|0
352,304,37894,1,0
316,228,38012,2,0,B|256:252|256:252|196:228,1,130,10|0
160,304,38367,1,0
109,237,38485,2,0,B|72:256|68:308|68:308|24:312,2,130,2|0|10
256,32,39194,1,2
404,236,39430,1,2
212,128,39666,6,0,B|176:96|128:96|92:120,1,130,0|8
212,240,40138,1,0
300,128,40375,2,0,B|336:96|384:96|420:120,1,130,2|0
300,240,40847,1,8
136,200,41083,54,0,B|116:240|128:292|172:316,1,130,0|2
256,312,41438,1,0
344,312,41556,2,0,B|385:290|397:238|377:198,1,130,0|8
132,88,42028,1,0
380,88,42264,1,2
192,144,42501,2,0,B|256:132|256:132|320:144,1,130,0|8
484,136,42973,5,0
320,48,43209,1,2
176,144,43445,1,0
352,248,43681,1,8
160,248,43917,1,0
336,144,44154,1,2
192,48,44390,1,0
28,136,44626,1,8
256,192,45099,12,8,46516
324,312,46989,6,0,B|288:276|288:220|324:184,1,142.999995738268,4|0
188,72,47461,2,0,B|224:108|224:164|188:200,1,142.999995738268,8|0
160,356,47934,1,2
40,252,48170,1,0
128,120,48406,1,8
128,120,48642,2,0,B|204:188|292:124|288:24|204:-4,1,285.999991476536,2|0
64,64,49351,1,8
324,312,49823,5,2
188,184,50060,1,0
256,60,50296,1,8
324,184,50532,1,0
188,312,50768,2,0,B|224:276|224:220|188:184,1,142.999995738268,2|0
324,72,51240,2,0,B|288:108|288:164|324:200,1,142.999995738268,8|0
352,356,51713,1,2
472,252,51949,1,0
384,120,52186,1,8
384,120,52422,2,0,B|308:188|220:128|224:24|308:-4,1,285.999991476536,2|0
448,64,53131,1,8
332,324,53603,53,2
178,324,53839,1,0
304,240,54075,1,8
256,383,54312,1,0
207,240,54548,1,2
132,116,54902,5,0
132,116,55020,1,8
256,44,55257,1,0
380,116,55493,1,2
380,268,55847,5,0
380,268,55965,1,8
256,340,56202,1,0
132,268,56438,1,2
192,128,56674,54,0,B|144:128|144:128|92:128|64:176,1,142.999995738268,0|8
256,196,57146,2,0,B|256:340,1,142.999995738268,0|2
320,128,57619,2,0,B|368:128|368:128|420:128|448:176,1,142.999995738268,0|8
212,148,58327,5,2
132,272,58682,1,0
132,272,58799,1,8
256,340,59036,1,0
380,272,59272,1,2
380,112,59626,5,0
380,112,59744,1,8
256,44,59981,1,0
132,112,60217,1,2
192,256,60453,54,0,B|144:256|144:256|92:256|64:208,1,142.999995738268,0|8
256,188,60925,2,0,B|256:44,1,142.999995738268,0|2
320,256,61398,2,0,B|368:256|368:256|420:256|448:208,1,142.999995738268,0|8
256,352,62107,5,2
256,188,62343,1,0
216,40,62579,2,2,B|188:40|188:40|180:44|180:44|180:36|180:36|172:40|172:40|84:40,1,142.999995738268,4|0
16,172,63052,5,2
188,176,63288,1,0
296,40,63524,2,2,B|324:40|324:40|332:44|332:44|332:36|332:36|340:40|340:40|428:40,1,142.999995738268,4|0
496,172,63997,53,2
332,228,64233,1,0
212,112,64469,2,2,B|156:112|156:112|148:116|148:116|148:108|148:108|140:112|140:112|80:112,1,142.999995738268,4|0
16,244,64942,5,2
188,248,65178,1,0
300,112,65414,2,2,B|356:112|356:112|364:116|364:116|364:108|364:108|372:112|372:112|432:112,1,142.999995738268,4|0
496,244,65886,5,2
344,280,66123,1,2
216,192,66359,2,2,B|124:192|124:192|116:196|116:196|116:188|116:188|108:192|108:192|84:192,1,142.999995738268,4|0
16,324,66831,53,2
188,324,67068,1,0
296,192,67304,2,2,B|388:192|388:192|396:196|396:196|396:188|396:188|404:192|404:192|428:192,1,142.999995738268,4|0
496,324,67776,5,0
352,364,68012,1,0
208,280,68249,1,8
136,140,68485,1,0
256,40,68721,1,2
376,140,68957,1,2
304,280,69194,1,10
160,364,69430,1,2
140,216,69666,6,0,B|96:176|100:98|160:68|216:84,2,214.499993607402,4|2|0
372,168,70611,54,0,B|416:208|411:285|352:316|296:300,2,214.499993607402,2|2|0
184,152,71556,5,2
184,152,71792,1,0
332,4,72028,1,10
180,4,72264,1,0
328,152,72501,1,0
124,80,72737,1,2
388,80,72973,1,8
256,176,73209,1,0
336,284,73446,6,0,B|388:284|388:284|444:284|484:228|460:168,2,214.499993607402,2|2|0
176,284,74390,54,0,B|124:284|124:284|68:284|28:228|52:168,2,214.499993607402,2|2|0
328,152,75335,5,2
328,152,75572,1,0
180,4,75808,1,10
332,4,76044,1,0
184,152,76281,1,0
388,80,76517,1,2
124,80,76753,1,8
400,308,81005,38,0,B|356:308|316:276|312:228,1,130,2|0
396,224,81359,1,0
480,220,81477,2,0,B|476:173|436:141|392:141,1,130,8|0
304,140,81831,1,0
308,56,81949,2,0,B|352:56|352:56|404:40|404:40|440:40,2,130,2|0|8
199,229,82658,21,0
199,229,82776,1,0
199,229,82894,2,0,B|196:276|156:308|112:308,1,130,2|0
116,224,83248,1,0
32,220,83366,2,0,B|35:173|75:141|119:141,1,130,8|0
208,140,83720,1,0
204,56,83839,2,0,B|160:56|160:56|108:40|108:40|72:40,2,130,2|0|8
300,224,84548,5,0
212,224,84666,1,0
208,140,84784,2,0,B|159:144|137:182|137:182|115:220,1,130,2|0
108,304,85138,1,0
192,308,85257,2,0,B|228:312|256:300|256:300|284:312|320:308,1,130,8|0
404,304,85611,1,0
397,220,85729,2,0,B|375:182|375:182|353:144|304:140,1,130,2|0
256,360,86201,1,10
32,108,86674,38,0,B|56:148|104:160|146:144,1,130,2|0
108,64,87028,1,0
196,24,87146,2,0,B|256:48|256:48|316:24,1,130,8|0
404,64,87501,1,0
480,107,87619,2,0,B|456:148|408:160|364:144,1,130,2|0
256,336,88091,1,10
191,28,88564,22,0,B|323:28,1,130,2|0
344,112,88918,1,0
256,112,89036,1,8
168,112,89154,1,0
208,192,89272,1,0
304,192,89390,1,0
256,272,89509,1,2
120,192,89745,5,0
160,272,89863,1,0
208,352,89981,1,8
304,352,90099,1,0
352,272,90217,1,0
392,192,90335,1,0
343,112,90453,38,0,B|392:108|424:76|427:29,1,130,2|0
336,24,90808,1,0
256,72,90926,1,8
176,24,91044,1,0
84,29,91162,2,0,B|88:76|120:108|168:112,1,130,0|2
332,196,91635,21,0
332,196,91753,1,2
256,360,91989,1,0
256,360,92107,1,2
180,196,92343,1,2
356,288,92579,1,2
156,288,92816,1,8
100,128,93052,6,0,B|56:80|56:80|64:12,1,130,0|2
140,52,93406,1,0
212,16,93524,2,0,B|256:64|256:64|300:16,1,130,0|8
372,52,93879,1,0
448,15,93997,2,0,B|456:80|456:80|412:128,1,130,0|2
328,136,94351,37,0
256,180,94469,1,0
184,136,94587,1,0
184,220,94705,2,0,B|175:265|175:265|164:307|191:345,1,130,8|0
256,292,95059,1,0
320,344,95178,2,0,B|347:307|336:265|336:265|328:220,2,130,2|0|8
176,256,95886,21,2
340,88,96123,1,2
172,88,96359,1,2
336,256,96595,1,2
96,20,97068,6,0,B|56:80|88:144,1,130,2|0
120,220,97422,1,0
168,288,97540,1,8
344,288,97776,37,0
392,220,97894,1,0
424,143,98012,2,0,B|456:80|416:20,1,130,2|0
356,84,98367,1,0
316,8,98485,2,0,B|256:32|256:32|196:8,1,130,8|0
156,84,98839,1,0
196,160,98957,2,0,B|256:136|256:136|316:160,2,130,2|0|8
152,296,99666,1,0
360,296,99902,1,2
216,356,100138,22,8,B|180:388|132:388|96:360,1,130,0|8
216,244,100610,1,0
296,356,100847,2,8,B|332:388|380:388|416:360,1,130,2|0
296,244,101319,1,8
440,124,101556,6,0,B|379:99|379:99|319:123,1,130,0|2
256,68,101910,1,0
192,124,102028,2,0,B|132:100|132:100|72:124,1,130,0|8
60,300,102501,2,0,B|112:296|148:308|176:344,1,130,0|2
256,376,102855,1,0
336,343,102973,2,0,B|364:308|400:296|452:300,1,130,0|8
484,130,103446,37,0
318,42,103682,1,2
176,144,103918,1,0
352,248,104154,1,8
160,248,104390,1,0
336,144,104627,1,2
195,42,104863,1,0
29,130,105099,1,8
256,192,105572,12,8,106989
25,364,107461,22,0,B|92:340|92:340|160:363,1,142.999995738268,6|0
272,256,107934,2,0,B|203:279|203:279|135:256,1,142.999995738268,8|0
136,104,108406,1,2
256,4,108642,1,0
376,104,108879,1,8
252,192,109115,2,0,B|332:296|488:280|552:180|532:64,1,428.999987214804,2|8
136,128,110296,5,2
328,216,110532,1,0
184,216,110768,1,8
376,128,111005,1,0
487,20,111241,2,0,B|419:43|419:43|351:20,1,142.999995738268,2|0
240,128,111714,2,0,B|308:104|308:104|376:127,1,142.999995738268,8|0
376,280,112186,1,2
256,380,112422,1,0
136,280,112659,1,8
260,192,112895,2,0,B|180:88|24:104|-40:204|-20:320,1,428.999987214804,2|8
341,317,114075,5,2
169,317,114311,1,0
309,223,114547,1,8
256,383,114784,1,0
202,223,115020,1,2
356,36,115375,53,0
356,36,115493,1,8
508,80,115729,1,0
356,128,115965,1,2
156,36,116320,5,0
156,36,116438,1,8
4,80,116674,1,0
156,128,116910,1,2
300,192,117146,6,0,B|336:224|396:220|426:177,1,142.999995738268,0|8
332,52,117619,1,0
180,52,117855,1,2
83,176,118091,2,0,B|116:220|176:224|210:191,1,142.999995738268,0|8
356,348,118800,53,2
156,348,119154,1,0
156,348,119272,1,8
4,304,119508,1,0
156,256,119744,1,2
356,348,120099,5,0
356,348,120217,1,8
508,304,120453,1,0
356,256,120689,1,2
172,200,120926,6,0,B|136:168|76:172|46:215,1,142.999995738268,0|8
212,280,121398,1,0
300,128,121635,1,2
468,184,121871,2,0,B|437:227|377:231|342:200,1,142.999995738268,0|8
256,32,122579,53,2
256,196,122816,1,0
216,344,123051,2,2,B|188:344|188:344|180:340|180:340|180:348|180:348|172:344|172:344|84:344,1,142.999995738268,4|0
16,212,123524,5,2
188,208,123761,1,0
296,344,123996,2,2,B|324:344|324:344|332:340|332:340|332:348|332:348|340:344|340:344|428:344,1,142.999995738268,4|0
496,212,124469,5,2
332,156,124706,1,0
212,272,124941,2,2,B|156:272|156:272|148:268|148:268|148:276|148:276|140:272|140:272|80:272,1,142.999995738268,4|0
16,140,125414,53,2
188,136,125651,1,0
300,272,125886,2,2,B|356:272|356:272|364:268|364:268|364:276|364:276|372:272|372:272|432:272,1,142.999995738268,4|0
496,140,126358,5,2
344,104,126595,1,2
216,192,126831,2,2,B|124:192|124:192|116:188|116:188|116:196|116:196|108:192|108:192|84:192,1,142.999995738268,4|0
16,60,127303,5,2
188,60,127541,1,0
296,192,127776,2,2,B|388:192|388:192|396:188|396:188|396:196|396:196|404:192|404:192|428:192,1,142.999995738268,4|0
496,60,128249,53,0
352,20,128485,1,0
208,104,128722,1,8
136,244,128958,1,0
256,344,129194,1,2
376,244,129430,1,2
304,104,129667,1,10
160,20,129903,1,2
136,156,130138,6,0,B|80:184|60:240|96:308|156:312,2,214.499993607402,4|2|0
376,228,131083,6,0,B|432:200|452:144|416:76|356:72,2,214.499993607402,2|2|0
256,348,132028,53,2
256,348,132264,2,0,B|212:352|212:352|160:356|128:312,1,142.999995738268,0|8
256,36,132737,2,0,B|300:32|300:32|352:28|384:72,1,142.999995738268,0|0
256,324,133209,2,0,B|212:328|212:328|160:332|128:288,1,142.999995738268,0|8
256,212,133682,1,0
372,152,133918,6,0,B|428:180|448:236|412:304|352:308,2,214.499993607402,2|2|0
140,232,134863,6,0,B|84:204|64:148|100:80|160:76,2,214.499993607402,2|2|0
256,348,135808,53,2
256,348,136044,2,0,B|300:352|300:352|352:356|384:312,1,142.999995738268,0|8
256,36,136517,2,0,B|212:32|212:32|160:28|128:72,1,142.999995738268,0|0
256,324,136989,2,0,B|300:328|300:328|352:332|384:288,1,142.999995738268,0|8
96,136,147146,21,0
160,60,147383,1,0
256,32,147619,1,0
352,60,147855,1,0
416,136,148091,1,0
352,216,148327,2,0,B|316:264|256:276|196:264|160:216,1,220.999990779162
68,260,149036,6,0,B|144:364|256:388|368:364|444:260,1,441.999981558324,0|8
372,192,150217,1,0
444,124,150453,2,0,B|368:20|256:-4|144:20|68:124,1,441.999981558324
184,288,151871,69,8
256,356,152107,1,0
328,288,152343,1,0
256,220,152579,1,0
188,148,152816,6,0,B|220:100|204:40,1,110.499995389581
307,42,153288,2,0,B|292:100|324:148,1,110.499995389581
412,100,153760,2,0,B|500:168,1,110.499995389581,8|0
408,212,154233,2,0,B|496:276,1,110.499995389581
396,324,154705,69,2
308,368,154942,5,0
308,368,155060,1,2
204,368,155296,69,0
204,368,155414,1,2
116,324,155650,5,8
204,280,155886,1,0
304,280,156123,1,0
256,204,156359,1,2
324,148,156595,70,0,B|292:100|308:40,1,110.499995389581,2|0
204,42,157067,2,0,B|220:100|188:148,1,110.499995389581
112,84,157539,2,0,B|24:152,1,110.499995389581,8|0
120,184,158012,2,0,B|32:248,1,110.499995389581
116,296,158484,5,2
204,340,158721,69,0
204,340,158839,1,2
308,340,159075,5,0
308,340,159193,1,2
396,296,159430,69,8
308,248,159666,6,0,B|256:264|256:264|204:248,1,110.499995389581
204,148,160138,1,0
308,148,160375,1,2
324,28,160729,69,0
324,28,160847,1,0
420,4,161083,1,0
392,100,161320,1,8
188,28,161674,5,0
188,28,161792,1,0
92,4,162028,1,0
120,100,162265,1,2
428,192,163209,69,8
332,164,163446,1,0
256,228,163682,1,0
180,164,163918,1,0
84,192,164155,1,2
188,356,164509,5,0
188,356,164627,1,0
92,380,164863,1,0
120,284,165100,1,8
324,356,165453,69,0
324,356,165572,1,0
420,380,165808,1,0
392,284,166044,5,2
256,16,166516,69,2
120,284,166989,5,2
324,72,167934,70,0,B|292:132|292:132|324:200,1,142.999995738268,6|0
188,312,168406,2,0,B|220:248|220:248|188:184,1,142.999995738268,8|0
160,28,168879,1,0
40,132,169115,1,0
128,264,169351,1,8
128,264,169587,2,0,B|204:196|292:256|288:360|204:388,1,285.999991476536,2|0
64,320,170296,1,8
324,72,170768,5,2
188,200,171005,1,0
256,324,171241,1,8
324,200,171477,1,0
188,72,171713,2,0,B|220:136|220:136|188:200,1,142.999995738268,2|0
324,312,172185,2,0,B|292:248|292:248|324:184,1,142.999995738268,8|0
352,28,172658,1,0
472,132,172894,1,0
384,264,173131,1,8
384,264,173367,2,0,B|308:196|220:256|224:360|308:388,1,285.999991476536,2|0
448,320,174075,1,8
170,66,174548,69,2
342,66,174784,1,0
202,160,175020,1,8
256,0,175257,1,0
309,160,175493,1,2
156,348,175847,5,0
156,348,175966,1,8
4,304,176202,1,0
156,256,176438,1,2
356,348,176793,69,0
356,348,176911,1,8
508,304,177147,1,0
356,256,177383,1,2
184,152,177619,5,0
332,4,177855,1,10
180,4,178091,1,0
328,152,178328,1,0
124,80,178564,1,2
388,80,178800,1,8
156,348,179272,69,2
356,348,179627,1,0
356,348,179745,1,8
508,304,179981,1,0
356,256,180217,1,2
156,348,180572,5,0
156,348,180690,1,8
4,304,180926,1,0
156,256,181162,1,2
328,152,181398,69,0
180,4,181634,1,10
332,4,181870,1,0
184,152,182107,1,0
388,80,182343,1,2
124,80,182579,1,8
402,316,183052,5,2
256,192,183288,1,0
108,70,183524,1,2
440,242,183997,69,0
256,192,184233,1,0
70,145,184469,1,2
440,145,184942,5,0
256,192,185178,1,0
70,242,185414,1,2
402,70,185886,69,0
256,192,186123,1,0
108,316,186359,1,2
336,21,186831,5,2
256,192,187068,1,2
173,360,187304,1,2
256,2,187776,69,0
256,192,188012,1,0
256,379,188249,1,2
173,24,188721,5,2
204,180,188957,1,0
72,240,189194,1,8
164,348,189430,1,0
256,240,189666,1,2
348,348,189902,1,2
440,240,190138,1,10
308,180,190375,1,2
340,24,190611,1,6
120,96,190965,69,0
120,96,191083,1,8
16,216,191320,1,0
136,320,191556,1,2
392,288,191910,5,0
392,288,192028,1,8
496,168,192265,1,0
376,64,192501,1,2
332,216,192737,69,0
208,120,192973,1,8
256,272,193209,1,0
304,120,193446,1,2
180,216,193682,1,0
136,64,193918,1,8
376,64,194154,1,0
356,216,194390,6,0,B|408:216|408:216|464:216|512:168|496:104,2,214.499993607402,2|2|0
156,168,195335,70,0,B|104:168|104:168|48:168|0:216|16:280,2,214.499993607402,2|2|0
260,48,196280,1,2
356,168,196516,5,0
188,308,196752,1,10
324,308,196988,1,0
156,168,197225,1,0
376,244,197461,1,2
136,244,197697,1,8
