osu file format v9

[General]
AudioFilename: Super Bass.mp3
AudioLeadIn: 1000
PreviewTime: 106398
Countdown: 0
SampleSet: Soft
StackLeniency: 0.4
Mode: 0
LetterboxInBreaks: 0

[Editor]
Bookmarks: 47001,62119,77237,81017,107473,122591,137709,147158,167946,183064
DistanceSpacing: 0.8
BeatDivisor: 4
GridSize: 4

[Metadata]
Title:Super Bass
Artist:Nicki Minaj
Creator:Gonzvlo
Version:o1o
Source:
Tags:ErufenRito Revengexsoyah Soyah

[Difficulty]
HPDrainRate:4
CircleSize:4
OverallDifficulty:4
ApproachRate:5
SliderMultiplier:1.5
SliderTickRate:2

[Events]
//Background and Video events
Video,100,"Nicki Minaj - Super Bass.flv"
0,0,"BG.png"
//Break Periods
2,77225,79805
2,137697,145946
//Storyboard Layer 0 (Background)
//Storyboard Layer 1 (Fail)
//Storyboard Layer 2 (Pass)
//Storyboard Layer 3 (Foreground)
Sprite,Foreground,Centre,"derekface.png",320,240 F,0,199587,199764,0,1 S,0,199764,,0.2627199 R,0,199764,,0.1433606 F,0,199764,200098,1 M,0,199764,200119,329,277,332,286 F,0,200098,201005,1 M,0,200119,200414,332,286,333,291 M,0,200414,201005,333,291,338,272 F,0,201005,201477,1,0.029661
Sprite,Foreground,Centre,"Gonz.png",320,240 L,69666,1 S,0,0,,1 S,0,0,118,1.05,1 S,0,354,472,1.05,1 S,0,709,827,1.05,1 S,0,945,1063,1.05,1 S,0,1299,1417,1.05,1 S,0,1653,1772,1.05,1 L,73446,1 S,0,0,,1 S,0,0,118,1.05,1 S,0,354,472,1.05,1 S,0,709,827,1.05,1 S,0,945,1063,1.05,1 S,0,1299,1417,1.05,1 S,0,1653,1772,1.05,1 L,115020,1 S,0,0,,1 S,0,0,118,1.05,1 S,0,354,472,1.05,1 S,0,709,827,1.05,1 S,0,945,1063,1.05,1 S,0,1299,1417,1.05,1 S,0,1653,1772,1.05,1 L,118800,1 S,0,0,,1 S,0,0,118,1.05,1 S,0,354,472,1.05,1 S,0,709,827,1.05,1 S,0,945,1063,1.05,1 S,0,1299,1417,1.05,1 S,0,1653,1772,1.05,1 L,160375,1 S,0,0,,1 S,0,0,118,1.05,1 S,0,354,472,1.05,1 S,0,709,827,1.05,1 S,0,945,1063,1.05,1 S,0,1299,1417,1.05,1 S,0,1653,1772,1.05,1 L,164154,1 S,0,0,,1 S,0,0,118,1.05,1 S,0,354,472,1.05,1 S,0,709,827,1.05,1 S,0,945,1063,1.05,1 S,0,1299,1417,1.05,1 S,0,1653,1772,1.05,1 L,190611,1 S,0,0,,1 S,0,0,118,1.05,1 S,0,354,472,1.05,1 S,0,709,827,1.05,1 S,0,945,1063,1.05,1 S,0,1299,1417,1.05,1 S,0,1653,1772,1.05,1 L,194390,1 S,0,0,,1 S,0,0,118,1.05,1 S,0,354,472,1.05,1 S,0,709,827,1.05,1 S,0,945,1063,1.05,1 S,0,1299,1417,1.05,1 S,0,1653,1772,1.05,1 M,0,1162,1635,755,450,522,450 F,0,1635,,1 M,0,46516,46989,522,450,755,450 F,0,46989,,1 M,0,61635,62107,755,450,522,450 M,0,76753,77225,522,450,755,450 F,0,77225,,1 M,0,106989,107461,755,450,522,450 M,0,122107,122579,522,450,755,450 F,0,122579,,1 M,0,146674,147146,755,450,522,450 M,0,167461,167934,522,450,755,450 M,0,182579,183052,755,450,522,450 M,0,197697,198170,522,450,755,450
Sprite,Foreground,Centre,"Erufen.png",320,240 L,54548,1 S,0,0,,1 S,0,0,118,1.05,1 S,0,354,472,1.05,1 S,0,709,827,1.05,1 S,0,945,1063,1.05,1 S,0,1299,1417,1.05,1 S,0,1653,1772,1.05,1 L,58327,1 S,0,0,,1 S,0,0,118,1.05,1 S,0,354,472,1.05,1 S,0,709,827,1.05,1 S,0,945,1063,1.05,1 S,0,1299,1417,1.05,1 S,0,1653,1772,1.05,1 L,130138,1 S,0,0,,1 S,0,0,118,1.05,1 S,0,354,472,1.05,1 S,0,709,827,1.05,1 S,0,945,1063,1.05,1 S,0,1299,1417,1.05,1 S,0,1653,1772,1.05,1 L,133918,1 S,0,0,,1 S,0,0,118,1.05,1 S,0,354,472,1.05,1 S,0,709,827,1.05,1 S,0,945,1063,1.05,1 S,0,1299,1417,1.05,1 S,0,1653,1772,1.05,1 L,175493,1 S,0,0,,1 S,0,0,118,1.05,1 S,0,354,472,1.05,1 S,0,709,827,1.05,1 S,0,945,1063,1.05,1 S,0,1299,1417,1.05,1 S,0,1653,1772,1.05,1 L,179272,1 S,0,0,,1 S,0,0,118,1.05,1 S,0,354,472,1.05,1 S,0,709,827,1.05,1 S,0,945,1063,1.05,1 S,0,1299,1417,1.05,1 S,0,1653,1772,1.05,1 M,0,46516,46989,-114,450,114,450 F,0,46989,,1 M,0,61635,62107,114,450,-114,450 F,0,62107,,1 M,0,80532,81005,-114,450,114,450 M,0,106989,107461,114,450,-114,450 M,0,122107,122579,-114,450,114,450 M,0,137225,137697,114,450,-114,450 M,0,167461,167934,-114,450,114,450 M,0,182579,183052,114,450,-114,450
Sprite,Foreground,Centre,"HB.png",320,240 M,0,198170,198642,320,500,320,460 F,0,200532,201477,1,0
//Storyboard Sound Samples
//Background Colour Transformations
3,100,255,255,255

[TimingPoints]
1635,472.44094488189,4,2,0,70,1,0
16635,-100,4,2,2,70,0,0
16871,-100,4,2,0,70,0,0
31516,-100,4,2,2,50,0,0
32461,-100,4,2,0,70,0,0
35296,-100,4,2,2,50,0,0
36241,-100,4,2,0,70,0,0
46457,-100,4,2,0,70,0,0
46989,-90.9090909090909,4,2,0,70,0,1
62107,-104.166666666667,4,2,0,70,0,0
69666,-90.9090909090909,4,2,0,70,0,1
77225,-90.9090909090909,4,2,0,70,0,0
80946,-100,4,2,2,70,0,0
81064,-100,4,2,0,70,0,0
91516,-100,4,2,2,50,0,0
92461,-100,4,2,0,70,0,0
95827,-100,4,2,2,50,0,0
96477,-100,4,2,0,70,0,0
107461,-90.9090909090909,4,2,0,70,0,1
122579,-100,4,2,0,70,0,0
130138,-100,4,2,0,70,0,1
137697,-100,4,2,0,70,0,0
147146,-117.647058823529,4,2,0,50,0,0
152816,-117.647058823529,4,1,0,50,0,0
152875,-117.647058823529,4,2,0,50,0,0
154646,-117.647058823529,4,2,2,50,0,0
155591,-117.647058823529,4,2,0,50,0,0
156300,-117.647058823529,4,2,2,50,0,0
156654,-117.647058823529,4,2,0,50,0,0
158367,-117.647058823529,4,2,2,50,0,0
159312,-117.647058823529,4,2,0,50,0,0
160316,-117.647058823529,4,2,2,50,0,0
160434,-117.647058823529,4,2,1,50,0,0
162205,-117.647058823529,4,2,2,50,0,0
162323,-117.647058823529,4,2,0,50,0,0
164095,-117.647058823529,4,2,2,50,0,0
166044,-117.647058823529,4,2,0,50,0,0
167934,-90.9090909090909,4,2,0,70,0,1
183052,-90.9090909090909,4,2,0,70,0,0
190611,-90.9090909090909,4,2,0,70,0,1
198170,-90.9090909090909,4,2,0,50,0,0

[Colours]
Combo1 : 0,204,71
Combo2 : 255,255,149
Combo3 : 230,230,230
Combo4 : 91,173,255
Combo5 : 164,100,249
Combo6 : 0,255,255
SliderBorder : 255,255,255
SliderTrackOverride : 255,0,128

[HitObjects]
0,144,1634,2,0,B|140:144|140:144|224:8,1,300,2|0
512,240,3524,6,0,B|372:240|372:240|288:376,1,300,2|0
40,120,5414,6,0,B|80:36|176:84|156:120|136:156|232:204|272:120,1,300,2|0
472,264,7304,54,0,B|432:348|336:300|356:264|376:228|280:180|240:264,1,300,2|0
40,72,9194,6,0,B|188:72,1,150,6|0
112,164,10138,2,0,B|128:220|184:228|184:228|184:276,1,150,2|0
328,276,11083,2,0,B|328:228|328:228|384:220|400:164,1,150,2|0
322,72,12028,2,0,B|472:72,1,150,2|0
480,224,12973,6,0,B|484:278|435:319|382:306,1,150,2|0
424,156,13918,2,0,B|371:142|322:183|326:238,1,150,2|0
187,238,14863,2,0,B|191:183|142:142|88:156,1,150,2|0
131,306,15808,2,0,B|78:319|29:278|32:224,1,150,2|0
164,152,16753,53,2
72,36,17225,1,8
220,28,17697,2,0,B|248:16|264:16|292:28,1,75,2|0
256,92,18170,1,8
348,212,18642,1,2
440,328,19115,1,8
292,336,19587,2,0,B|264:348|248:348|220:336,1,75,2|0
256,272,20060,1,8
148,180,20532,5,2
256,76,21005,1,8
364,180,21477,1,2
294,230,21713,2,0,B|218:230,1,75,0|8
120,103,22422,2,0,B|110:72|110:72|102:47|114:31|126:14|151:13|151:13|185:13,1,150,2|8
328,13,23367,2,0,B|362:13|362:13|387:14|399:31|411:47|403:72|403:72|392:103,1,150,2|8
392,256,24312,6,0,B|403:287|403:287|411:312|399:328|387:345|362:346|362:346|328:346,1,150,2|8
185,346,25257,2,0,B|152:346|152:346|126:344|115:328|103:311|111:286|111:286|121:255,1,150,2|8
128,116,26201,1,2
256,184,26674,1,8
384,116,27146,54,0,B|344:56|256:20|168:56|128:116,2,300,2|2|2
128,268,29981,2,0,B|168:328|256:364|344:328|384:268,1,300,2|2
256,192,31398,1,8
116,135,31871,6,0,B|140:45|140:45|186:13,1,150,2|2
324,12,32816,2,0,B|371:45|371:45|395:135,1,150,2|8
424,284,33760,2,0,B|352:344|352:344|296:344,1,150,2|8
256,280,34468,1,0
217,344,34705,2,0,B|161:344|161:344|89:284,1,150,2|8
188,104,35650,6,0,B|224:132|256:140|288:132|324:104,1,150,2|2
324,232,36595,2,0,B|288:204|256:196|224:204|188:232,1,150,2|8
72,284,37540,2,0,B|93:333|145:348|145:348|196:363,1,150,2|8
256,320,38249,1,0
320,362,38485,2,0,B|368:348|368:348|420:333|440:284,1,150,2|8
333,202,39430,54,0,B|333:118,2,75,2|0|8
181,202,40375,2,0,B|181:118,2,75,2|0|8
61,110,41320,2,0,B|77:75|118:60|118:60|186:35,1,150,2|8
328,36,42264,2,0,B|396:60|396:60|437:75|453:110,1,150,2|8
440,260,43209,6,0,B|376:300|376:300|296:300,1,150,2|8
256,240,43918,1,0
211,300,44154,2,0,B|136:300|136:300|72:260,1,150,2|8
256,192,45099,12,10,46516
136,184,46989,5,6
16,268,47461,1,8
121,369,47934,1,2
233,272,48406,1,8
233,272,48642,2,0,B|260:103,1,164.999995082617
314,59,49351,2,0,B|357:26|450:37|470:117,1,164.999995082617,8|2
358,199,50296,1,8
433,326,50768,6,0,B|460:157,1,164.999995082617,2|8
402,27,51713,1,2
290,124,52186,1,8
290,124,52422,2,0,B|263:293,1,164.999995082617
209,337,53131,2,0,B|166:370|73:359|53:279,1,164.999995082617,8|2
165,197,54075,1,8
133,51,54548,54,0,B|167:24|241:33|257:97,2,123.749996311963,2|2|0
112,124,55493,2,0,B|78:151|4:142|-12:78,2,123.749996311963,2|2|0
172,168,56438,1,2
208,312,56910,2,0,B|165:384|36:374,2,164.999995082617,8|2|8
356,292,58327,6,0,B|486:302,2,123.749996311963,2|2|0
308,236,59272,2,0,B|178:226,2,123.749996311963,2|2|0
364,188,60217,1,2
440,60,60690,1,8
296,28,61162,1,2
296,28,61634,1,8
256,152,62107,5,2
124,116,62579,2,0,B|80:144|80:192|80:192|80:248,1,144.000005493164,2|0
140,376,63524,2,0,B|184:348|184:300|184:300|184:244,1,144.000005493164,2|0
328,247,64469,2,0,B|328:300|328:300|328:348|372:376,1,144.000005493164,2|0
432,244,65414,2,0,B|432:192|432:192|432:144|388:116,1,144.000005493164,2|0
256,60,66359,2,0,B|256:212,2,144.000005493164,2|0|10
360,156,67776,54,0,B|376:228,1,72.0000027465821,2|0
312,260,68249,2,0,B|292:332,1,72.0000027465821,8|0
219,329,68721,2,0,B|200:260,1,72.0000027465821,2|2
136,226,69194,2,0,B|152:156,1,72.0000027465821,10|2
88,120,69666,6,0,B|36:120|20:80|20:80|8:44,2,123.749996311963,4|2|0
88,44,70611,2,0,B|140:44|156:84|156:84|168:120,2,123.749996311963,2|2|0
88,120,71556,1,2
180,236,72028,1,8
332,236,72501,1,2
256,108,72973,1,8
424,120,73446,6,0,B|476:120|492:80|492:80|504:44,2,123.749996311963,2|2|0
424,44,74390,2,0,B|372:44|356:84|356:84|344:120,2,123.749996311963,2|2|0
424,120,75335,1,2
332,236,75808,1,8
180,236,76280,1,2
256,108,76753,1,8
27,237,81005,70,0,B|46:332|150:337,1,150,2|8
212,248,81949,2,0,B|193:153|89:148,1,150,2|8
246,108,82894,38,0,B|248:56|312:24|360:48,1,150,2|8
324,116,83603,1,0
465,175,84075,1,0
465,175,84312,2,0,B|444:260|508:329,1,150,8|2
349,287,85257,21,8
349,287,85493,2,0,B|181:278,1,150
191,204,86201,2,0,B|136:140|152:64,1,150,8|2
8,112,87146,2,0,B|-39:164|8:252|52:228|96:204|144:292|96:344,1,300,8|8
248,340,88564,5,2
284,209,89036,2,0,B|247:31,1,150,8|2
374,151,89981,2,0,B|337:-27,1,150,8|2
478,69,90926,1,8
495,217,91398,2,0,B|472:301|364:323,1,150,2|2
246,354,92343,37,2
246,354,92816,1,2
124,268,93288,2,0,B|136:216|116:160|64:140,1,150,2|8
208,152,94233,2,0,B|212:95|244:59|301:52,1,150,2|8
352,196,95178,1,0
488,136,95650,1,8
444,80,95886,22,0,B|479:-7,2,75,2|2|2
396,300,97068,2,0,B|328:340|244:304,1,150,2|8
100,308,98012,1,2
94,163,98485,1,8
197,54,98957,1,2
197,54,99430,2,0,B|355:46,1,150,8|2
472,128,100375,5,8
472,128,100611,2,0,B|492:219|420:285,1,150
370,302,101320,2,0,B|212:310,1,150,8|2
101,217,102264,1,8
101,217,102501,2,0,B|259:209,1,150
310,163,103209,2,0,B|365:114|345:23,1,150,8|2
492,55,104154,37,8
492,55,104390,2,0,B|440:132|494:213,1,150
444,260,105099,1,8
256,192,105572,12,10,106989
188,332,107461,22,0,B|212:372|256:384|300:372|324:332,1,164.999995082617,4|8
444,208,108406,2,0,B|452:148|388:104|332:140,1,164.999995082617,2|8
180,140,109351,2,0,B|124:104|60:148|68:208,1,164.999995082617,2|8
200,316,110296,6,0,B|256:376|256:376|312:316,1,164.999995082617,2|8
308,200,111241,2,0,B|304:152|212:132|216:68,1,164.999995082617,2|8
256,8,111949,1,0
296,70,112186,2,0,B|300:132|208:152|204:200,2,164.999995082617,2|8|2
436,160,113603,1,8
380,320,114075,5,2
312,292,114312,1,0
256,340,114548,1,8
200,292,114784,1,0
132,320,115020,54,0,B|68:204,2,123.749996311963,2|2|0
64,348,115965,2,0,B|4:240,2,123.749996311963,2|2|0
132,320,116910,1,2
144,164,117383,1,8
256,260,117855,1,2
368,164,118327,1,8
380,320,118800,6,0,B|444:204,2,123.749996311963,2|2|0
448,348,119745,2,0,B|508:240,2,123.749996311963,2|2|0
380,320,120690,1,2
368,164,121162,1,8
256,260,121634,1,2
144,164,122107,1,8
256,48,122579,5,0
120,80,123052,1,2
120,80,123524,1,0
256,136,123997,1,2
392,192,124469,53,0
392,192,124942,1,2
256,248,125414,1,0
120,304,125886,1,2
256,368,126359,5,0
392,304,126831,1,2
256,248,127304,1,0
120,304,127776,1,2
256,248,128249,5,0
392,192,128721,1,2
256,136,129194,1,0
256,136,129430,1,0
256,136,129666,1,8
216,232,130138,54,0,B|136:144,2,112.5,2|2|0
296,232,131083,2,0,B|376:144,2,112.5,2|2|0
256,168,132028,5,2
156,272,132501,2,0,B|154:329|198:369|250:369,1,150,8|2
364,296,133446,2,0,B|409:294|426:239,2,75,8|0|2
244,236,134390,6,0,B|152:216,2,75,8|0|2
312,120,135335,2,0,B|404:100,2,75,8|0|2
204,36,136280,53,8
68,83,136753,1,0
68,83,137225,1,8
208,200,147146,22,0,B|183:166|183:166|161:140|167:103|189:90,1,127.499994680286,2|0
324,92,148091,2,0,B|345:105|351:142|329:168|329:168|304:202,1,127.499994680286,8|0
84,232,149036,6,0,B|76:308|144:336|144:336|204:356,1,191.249992020429,0|0
256,308,149981,1,8
309,355,150217,2,0,B|368:336|368:336|436:308|428:232,1,191.249992020429
184,68,151871,70,0,B|164:48|132:32|132:32|100:48|80:68,1,127.499994680286,8|0
88,196,152816,2,0,B|88:324,1,127.499994680286
180,196,153760,2,0,B|180:324,2,127.499994680286,8|0|2
328,316,155650,6,0,B|349:337|381:353|381:353|413:337|433:316,1,127.499994680286,8|0
424,188,156595,2,0,B|424:60,1,127.499994680286,2|0
332,187,157540,2,0,B|332:60,2,127.499994680286,8|0|2
56,192,159430,70,0,B|88:216|116:192|144:168|176:192,1,127.499994680286,8|0
296,40,160375,2,0,B|392:40,2,95.6249960102143,2|0|0
216,40,161320,2,0,B|120:40,2,95.6249960102143,8|0|0
256,104,162264,5,2
456,192,163209,70,0,B|424:216|396:192|368:168|336:192,1,127.499994680286,8|0
216,344,164154,2,0,B|120:344,2,95.6249960102143,2|0|0
296,344,165099,2,0,B|392:344,2,95.6249960102143,8|0|0
256,280,166044,5,2
164,144,166516,69,2
348,144,166989,5,2
56,296,167934,70,0,B|97:250|92:186|41:138,1,164.999995082617,6|8
177,38,168879,2,0,B|84:40,2,82.4999975413085,2|0|8
230,88,169587,2,0,B|408:84,1,164.999995082617
394,84,170296,2,0,B|352:164|408:244,1,164.999995082617,8|2
464,360,171241,1,8
316,350,171713,6,0,B|140:360,1,164.999995082617,2|8
72,236,172658,2,0,B|20:239|-3:285,2,82.4999975413085,2|0|8
108,168,173367,2,0,B|203:152|196:42,1,164.999995082617
196,49,174075,2,0,B|372:34,1,164.999995082617,8|2
476,128,175020,1,8
352,212,175493,70,0,B|294:177|290:109,2,123.749996311963,2|2|0
316,276,176438,2,0,B|256:308|195:278,2,123.749996311963,2|2|0
359,336,177383,2,0,B|407:394|522:371,2,164.999995082617,2|8|2
213,364,178800,1,8
141,233,179272,6,0,B|129:168|75:132,2,123.749996311963,2|2|0
215,233,180217,2,0,B|265:190|269:125,2,123.749996311963,2|2|0
248,300,181162,2,0,B|313:368|415:336,2,164.999995082617,2|8|2
381,235,182579,1,8
316,80,183052,70,0,B|256:136|256:136|196:80,1,164.999995082617,2|2
88,36,183997,1,0
0,116,184469,2,0,B|8:152|48:164|76:164|76:164|144:164,1,164.999995082617,2|0
108,272,185414,5,2
220,304,185886,2,0,B|220:328|220:328|220:348|232:368|256:380|280:368|292:348|292:328|292:328|292:304,1,164.999995082617,0|0
404,272,186831,1,2
373,164,187304,70,0,B|436:164|436:164|464:164|504:152|520:116,1,164.999995082617,2|0
424,36,188249,1,2
316,112,188721,6,0,B|256:56|256:56|196:112,1,164.999995082617,2|8
256,220,189666,1,2
256,296,189902,2,0,B|256:384,2,82.4999975413085,2|8|2
184,260,190611,70,0,B|104:260|104:260|64:280,2,123.749996311963,6|2|0
184,184,191556,2,0,B|104:184|104:184|64:164,2,123.749996311963,2|2|0
188,108,192501,1,2
324,36,192973,1,8
188,36,193446,1,2
324,108,193918,1,8
328,260,194390,6,0,B|408:260|408:260|448:280,2,123.749996311963,2|2|0
328,184,195335,2,0,B|408:184|408:184|448:164,2,123.749996311963,2|2|0
324,108,196280,1,2
188,36,196753,1,8
324,36,197225,1,2
188,108,197697,1,8
