osu file format v9

[General]
AudioFilename: Super Bass.mp3
AudioLeadIn: 1000
PreviewTime: 106398
Countdown: 0
SampleSet: Soft
StackLeniency: 0.6
Mode: 0
LetterboxInBreaks: 0

[Editor]
DistanceSpacing: 0.8
BeatDivisor: 8
GridSize: 4

[Metadata]
Title:Super Bass
Artist:Nicki Minaj
Creator:Gonzvlo
Version:o0o
Source:
Tags:ErufenRito Revengexsoyah Soyah

[Difficulty]
HPDrainRate:2
CircleSize:3
OverallDifficulty:2
ApproachRate:3
SliderMultiplier:1.2
SliderTickRate:1

[Events]
//Background and Video events
Video,100,"Nicki Minaj - Super Bass.flv"
0,0,"BG.png"
//Break Periods
2,77237,79565
2,137709,145706
//Storyboard Layer 0 (Background)
//Storyboard Layer 1 (Fail)
//Storyboard Layer 2 (Pass)
//Storyboard Layer 3 (Foreground)
Sprite,Foreground,Centre,"derekface.png",320,240 F,0,199587,199764,0,1 S,0,199764,,0.2627199 R,0,199764,,0.1433606 F,0,199764,200098,1 M,0,199764,200119,329,277,332,286 F,0,200098,201005,1 M,0,200119,200414,332,286,333,291 M,0,200414,201005,333,291,338,272 F,0,201005,201477,1,0.029661
Sprite,Foreground,Centre,"HB.png",320,240 M,0,198170,198642,320,500,320,460 F,0,200532,201477,1,0
//Storyboard Sound Samples
//Background Colour Transformations
3,100,255,255,255

[TimingPoints]
1635,472.44094488189,4,2,0,70,1,0
16635,-100,4,2,2,70,0,0
16871,-100,4,2,0,70,0,0
31516,-100,4,2,2,50,0,0
32461,-100,4,2,0,70,0,0
35296,-100,4,2,2,50,0,0
36182,-100,4,2,0,70,0,0
46989,-90.9090909090909,4,2,0,70,0,1
62107,-104.166666666667,4,2,0,70,0,0
62520,-104.166666666667,4,1,0,70,0,0
62638,-104.166666666667,4,2,0,70,0,0
63465,-104.166666666667,4,1,0,70,0,0
63583,-104.166666666667,4,2,0,70,0,0
64410,-104.166666666667,4,1,0,70,0,0
64528,-104.166666666667,4,2,0,70,0,0
65355,-104.166666666667,4,1,0,70,0,0
65473,-104.166666666667,4,2,0,70,0,0
66300,-104.166666666667,4,1,0,70,0,0
66418,-104.166666666667,4,2,0,70,0,0
67245,-104.166666666667,4,1,0,70,0,0
67363,-104.166666666667,4,2,0,70,0,0
69666,-90.9090909090909,4,2,0,70,0,1
77225,-90.9090909090909,4,2,0,70,0,0
80946,-100,4,2,2,70,0,0
81064,-100,4,2,0,70,0,0
91516,-100,4,2,2,50,0,0
92875,-100,4,2,0,70,0,0
95827,-100,4,2,2,50,0,0
96477,-100,4,2,0,70,0,0
107461,-90.9090909090909,4,2,0,70,0,1
122579,-104.166666666667,4,2,0,70,0,0
122993,-104.166666666667,4,1,0,70,0,0
123111,-104.166666666667,4,2,0,70,0,0
123938,-104.166666666667,4,1,0,70,0,0
124056,-104.166666666667,4,2,0,70,0,0
124883,-104.166666666667,4,1,0,70,0,0
125001,-104.166666666667,4,2,0,70,0,0
125827,-104.166666666667,4,1,0,70,0,0
125946,-104.166666666667,4,2,0,70,0,0
126772,-104.166666666667,4,1,0,70,0,0
126890,-104.166666666667,4,2,0,70,0,0
127717,-104.166666666667,4,1,0,70,0,0
127835,-104.166666666667,4,2,0,70,0,0
130138,-90.9090909090909,4,2,0,70,0,1
137697,-90.9090909090909,4,2,0,70,0,0
147146,-117.647058823529,4,2,0,50,0,0
152816,-117.647058823529,4,1,0,50,0,0
152875,-117.647058823529,4,2,0,50,0,0
154646,-117.647058823529,4,2,2,50,0,0
155591,-117.647058823529,4,2,0,50,0,0
156300,-117.647058823529,4,2,2,50,0,0
156654,-117.647058823529,4,2,0,50,0,0
158367,-117.647058823529,4,2,2,50,0,0
159312,-117.647058823529,4,2,0,50,0,0
160316,-117.647058823529,4,2,2,50,0,0
160434,-117.647058823529,4,2,1,50,0,0
162205,-117.647058823529,4,2,2,50,0,0
162323,-117.647058823529,4,2,0,50,0,0
164095,-117.647058823529,4,2,2,50,0,0
166044,-117.647058823529,4,2,0,50,0,0
167934,-90.9090909090909,4,2,0,70,0,1
183052,-117.647058823529,4,2,0,70,0,0
183465,-117.647058823529,4,1,0,70,0,0
183583,-117.647058823529,4,2,0,70,0,0
184410,-117.647058823529,4,1,0,70,0,0
184528,-117.647058823529,4,2,0,70,0,0
185355,-117.647058823529,4,1,0,70,0,0
185473,-117.647058823529,4,2,0,70,0,0
186300,-117.647058823529,4,1,0,70,0,0
186418,-117.647058823529,4,2,0,70,0,0
187245,-117.647058823529,4,1,0,70,0,0
187363,-117.647058823529,4,2,0,70,0,0
188190,-117.647058823529,4,1,0,70,0,0
188308,-117.647058823529,4,2,0,70,0,0
190611,-90.9090909090909,4,2,0,70,0,1
198170,-90.9090909090909,4,2,0,50,0,0

[Colours]
Combo1 : 0,204,71
Combo2 : 255,255,149
Combo3 : 230,230,230
Combo4 : 91,173,255
Combo5 : 164,100,249
Combo6 : 0,255,255
SliderBorder : 255,255,255
SliderTrackOverride : 255,0,128

[HitObjects]
400,240,1635,2,0,B|324:216|272:272|256:316|256:316|240:272|188:216|112:240,1,360,4|0
112,144,3524,2,0,B|188:168|240:112|256:68|256:68|272:112|324:168|400:144,1,360,2|0
456,220,5414,6,0,B|424:248|376:248|376:248|336:248,1,120,2|0
256,204,6359,1,2
172,248,6831,2,0,B|138:248|138:248|90:248|58:220,2,120,0|2|0
256,296,8249,1,2
420,192,9194,6,0,B|468:184|480:140|480:140|492:104,1,120,4|0
396,108,10138,2,0,B|348:116|336:160|336:160|324:196,1,120,2|0
360,284,11083,1,2
304,360,11556,1,0
208,360,12028,1,2
152,284,12501,1,0
187,194,12973,54,0,B|176:160|176:160|164:116|116:108,1,120,2|0
20,105,13917,2,0,B|32:140|32:140|44:184|92:192,1,120,2|0
120,284,14863,2,0,B|156:384|256:416|356:384|392:284,1,360,2|0
308,240,16753,6,0,B|320:180|320:180|300:124,1,120,2|8
211,124,17697,2,0,B|192:180|192:180|204:240,1,120,2|8
120,284,18642,2,0,B|180:368|180:368|332:368|332:368|392:284,1,360,2|8
304,248,20532,5,2
304,152,21005,1,8
208,152,21477,1,2
208,248,21949,1,8
112,280,22422,2,0,B|132:352|208:368|256:340|256:340|304:368|380:352|400:280,1,360,2|8
392,184,24312,54,0,B|300:100,1,120,2|8
208,103,25257,2,0,B|120:184,1,120,2|8
120,280,26201,6,0,B|208:360,1,120,2|8
303,360,27146,2,0,B|391:279,1,120,2|8
320,212,28091,6,0,B|320:140|320:140|320:76|256:28|192:76|192:140|192:140|192:212,1,360,2|8
156,300,29981,2,0,B|192:360|256:376|320:360|356:300,1,240,2|2
252,132,31871,53,2
252,132,32343,1,2
164,104,32816,2,0,B|188:40|256:16|324:40|348:104,2,240,0|2|0
196,292,35650,6,0,B|324:292,1,120,2|2
372,216,36595,2,0,B|312:196|312:196|200:196|200:196|140:216,2,240,2|0|2
352,24,39430,6,0,B|476:24,2,120,2|8|2
256,44,40847,1,8
160,24,41320,2,0,B|36:24,2,120,2|8|2
140,120,42737,1,8
120,216,43209,54,0,B|88:296|148:392|256:376|316:320|308:236,1,360,2|8
203,238,45099,2,0,B|196:320|256:376|364:392|424:296|392:216,1,360,2|8
328,148,46989,5,4
256,68,47461,1,8
184,148,47934,1,2
136,240,48406,2,0,B|172:268|220:260|256:224|256:224|292:260|340:268|376:240,1,263.999992132187,8|8
436,340,49823,6,0,B|398:373|357:379|312:363,1,131.999996066094,2|8
198,363,50768,2,0,B|154:379|113:373|76:340,1,131.999996066094,2|8
136,236,51713,2,0,B|172:264|220:256|256:220|256:220|292:256|340:264|376:236,2,263.999992132187,2|2|2
120,56,54548,6,0,B|72:60|38:87|28:136,1,131.999996066094,2|8
56,236,55493,1,2
116,148,55965,2,0,B|164:144|198:117|208:68,2,131.999996066094,8|2|8
392,328,58327,54,0,B|440:324|474:297|484:248,1,131.999996066094,2|8
456,148,59272,1,2
396,236,59744,2,0,B|348:240|314:267|304:316,2,131.999996066094,8|2|8
160,16,62107,6,0,B|32:16|8:168|108:252|204:196|204:196|360:328|360:328|256:440|152:328|152:328|308:196|308:196|404:252|504:168|480:16|352:16,1,1382.40005273438,2|2
360,116,68249,2,0,B|256:68|256:68|152:116,1,230.400008789063,8|8
68,184,69666,6,0,B|44:204|36:232|48:268|48:268|60:308,1,131.999996066094,2|8
156,348,70611,1,2
132,244,71083,2,0,B|156:224|164:196|152:160|152:160|140:120,2,131.999996066094,8|2|8
444,200,73446,54,0,B|468:180|476:152|464:116|464:116|452:76,1,131.999996066094,2|8
356,36,74391,1,2
380,140,74863,2,0,B|356:160|348:188|360:224|360:224|372:264,2,131.999996066094,8|2|8
94,319,81005,6,0,B|162:319|162:319|208:344,1,120,2|8
304,344,81950,2,0,B|349:319|349:319|417:319,1,120,2|8
424,224,82894,2,0,B|316:224|316:224|256:264|256:264|196:224|196:224|88:224,1,360,2|8
120,132,84784,38,0,B|152:36|256:-4|360:36|392:132,1,360,2|8
392,228,86674,2,0,B|360:324|256:364|152:324|120:228,1,360,2|8
208,204,88564,22,0,B|224:236|256:244|288:236|304:204,1,120,2|8
356,124,89509,1,2
304,44,89981,2,0,B|288:12|256:4|224:12|208:44,1,120,8|2
156,124,90926,1,8
256,124,91398,1,2
252,316,92343,5,2
252,316,92815,1,2
348,288,93288,2,0,B|324:224|256:200|188:224|164:288,2,240,2|2|2
444,300,95650,1,8
408,212,96123,38,0,B|360:136|256:96|152:136|104:212,1,360,2|8
196,248,98012,2,0,B|256:268|316:248,3,120,2|8|0|8
352,360,99902,22,0,B|476:360,2,120,2|8|2
256,340,101320,1,8
160,360,101792,2,0,B|36:360,2,120,2|8|2
140,264,103209,1,8
120,168,103682,6,0,B|88:88|148:-8|256:8|316:64|308:148,1,360,2|8
203,145,105572,2,0,B|196:64|256:8|364:-8|424:88|392:168,1,360,2|8
312,236,107461,6,0,B|292:264|256:276|220:264|200:236,1,131.999996066094,4|8
136,320,108406,2,0,B|184:368|256:384|328:368|376:320,2,263.999992132187,2|2|2
116,216,110768,53,8
200,148,111241,2,0,B|220:120|256:108|292:120|312:148,1,131.999996066094,2|8
376,64,112186,2,0,B|328:16|256:0|184:16|136:64,2,263.999992132187,2|2|2
308,264,115020,6,0,B|384:248|384:248|440:264,1,131.999996066094,2|8
488,356,115965,1,2
384,340,116438,2,0,B|308:356|308:356|252:340,2,131.999996066094,8|2|8
204,120,118800,6,0,B|128:136|128:136|72:120,1,131.999996066094,2|8
24,28,119745,1,2
128,44,120218,2,0,B|204:28|204:28|260:44,2,131.999996066094,8|2|8
160,368,122579,54,0,B|32:368|8:216|108:132|204:188|204:188|360:56|360:56|256:-56|152:56|152:56|308:188|308:188|404:132|504:216|480:368|352:368,1,1382.40005273438,2|2
360,268,128721,2,0,B|256:316|256:316|152:268,1,230.400008789063,8|8
76,192,130138,6,0,B|24:148|24:148|16:84,1,131.999996066094,4|8
100,20,131083,1,2
132,120,131556,2,0,B|184:164|184:164|192:228,2,131.999996066094,8|2|8
436,192,133918,6,0,B|488:236|488:236|496:300,1,131.999996066094,4|8
412,364,134863,1,2
380,264,135336,2,0,B|328:220|328:220|320:156,2,131.999996066094,8|2|8
216,120,147146,86,0,B|300:120|300:120|352:120|384:148|392:184,1,203.999991488457,0|8
296,336,149036,2,0,B|212:336|212:336|160:336|128:308|120:272,1,203.999991488457,0|8
96,104,150926,6,0,B|160:32|280:76|256:148|232:220|352:264|416:192,1,407.999982976914
348,128,153288,69,0
292,44,153760,2,0,B|336:16|400:24|440:60|448:116,2,203.999991488457,8|2|8
144,156,156595,5,2
164,256,157068,1,0
220,340,157540,2,0,B|176:368|112:360|72:324|64:268,2,203.999991488457,8|2|8
408,352,160375,70,0,B|464:320|464:276|448:236|412:232|404:232|396:232|372:268|336:192|372:116|396:152|404:152|412:152|448:148|464:108|464:64|408:32,1,407.999982976914,2|2
256,192,163209,1,8
104,352,164154,6,0,B|48:320|48:276|64:236|100:232|108:232|116:232|140:268|176:192|140:116|116:152|108:152|100:152|64:148|48:108|48:64|104:32,1,407.999982976914,2|2
204,76,166516,69,2
308,76,166989,5,2
184,292,167934,69,4
256,372,168406,1,8
328,292,168879,1,2
376,200,169351,2,0,B|340:172|292:180|256:216|256:216|220:180|172:172|136:200,1,263.999992132187,8|8
76,96,170768,6,0,B|113:62|154:56|199:72,1,131.999996066094,2|8
312,72,171713,2,0,B|356:55|397:62|434:95,1,131.999996066094,2|8
376,200,172658,2,0,B|340:172|292:180|256:216|256:216|220:180|172:172|136:200,2,263.999992132187,2|2|2
412,40,175493,69,2
456,136,175965,1,8
504,232,176438,1,2
400,224,176910,1,8
352,128,177383,1,2
256,316,178327,5,2
160,128,179272,69,2
112,224,179745,1,8
8,232,180217,1,2
56,136,180690,1,8
100,40,181162,1,2
320,32,183052,6,0,B|320:128|320:128|432:128|432:128|512:128|512:240|424:240|424:240|312:240|312:240|312:296|312:296|312:368|256:383|200:368|200:296|200:296|200:240|200:240|88:240|88:240|0:240|0:128|80:128|80:128|192:128|192:128|192:32,1,1325.99994467497,2|8
340,364,190611,69,2
424,300,191083,1,8
512,236,191556,1,2
416,204,192028,1,8
328,268,192501,1,2
256,72,193446,5,2
184,268,194390,69,2
96,204,194863,1,8
0,236,195335,1,2
88,300,195808,1,8
172,364,196280,1,2
256,300,196753,6,0,B|304:264|296:176|256:184|216:192|208:104|256:68,1,263.999992132187,8|8
