osu file format v10

[General]
AudioFilename: 13 - Automatic.mp3
AudioLeadIn: 0
PreviewTime: 61418
Countdown: 1
SampleSet: Normal
StackLeniency: 0.7
Mode: 0
LetterboxInBreaks: 0

[Editor]
DistanceSpacing: 0.8
BeatDivisor: 4
GridSize: 8
CurrentTime: 104116

[Metadata]
Title:Automatic
TitleUnicode:
Artist:Nicki Minaj
ArtistUnicode:
Creator:Lehon
Version:Insane
Source:
Tags:Lehon
BeatmapID:156298
BeatmapSetID:50929

[Difficulty]
HPDrainRate:6
CircleSize:3
OverallDifficulty:6
ApproachRate:6
SliderMultiplier:2.50000000596046
SliderTickRate:1

[Events]
//Background and Video events
0,0,"Automatic1.png"
//Break Periods
2,77907,92829
//Storyboard Layer 0 (Background)
//Storyboard Layer 1 (Fail)
//Storyboard Layer 2 (Pass)
//Storyboard Layer 3 (Foreground)
//Storyboard Sound Samples
//Background Colour Transformations
3,100,163,162,255

[TimingPoints]
833,468.75,4,1,0,75,1,0
47708,-100,4,1,0,75,0,1
62590,-100,4,1,0,75,0,0
62708,-100,4,1,0,75,0,1
77239,-200,4,1,0,75,0,1
77339,-100,4,1,0,75,0,1
77708,-100,4,1,0,75,0,0
109583,-100,4,1,0,75,0,1
124465,-100,4,1,0,75,0,0
124583,-100,4,1,0,75,0,1
139114,-200,4,1,0,75,0,1
139583,-100,4,1,0,75,0,0
143333,-200,4,1,0,75,0,0
144270,-100,4,1,0,75,0,0
162083,-100,4,2,0,30,0,0
165833,-100,4,2,0,40,0,0
169583,-100,4,2,0,50,0,0
171458,-100,4,2,0,60,0,0
173333,-100,4,2,0,75,0,0
175208,-100,4,2,0,25,0,0
176145,-100,4,1,0,50,0,0
177083,-100,4,1,0,50,0,1
192083,-100,4,2,0,25,0,0

[Colours]
Combo1 : 255,0,128
Combo2 : 0,128,255
Combo3 : 255,128,255
Combo4 : 0,255,128

[HitObjects]
128,288,17004,2,0,B|160:352|248:352,2,125.000000298023
40,232,17708,2,0,B|88:112,1,125.000000298023
176,176,18176,1,0,0:0
224,88,18411,1,0,0:0
280,168,18645,2,0,B|352:208|328:288,2,125.000000298023
440,48,19583,1,0,0:0
464,248,20051,1,0,0:0
280,336,20520,1,0,0:0
184,296,20755,1,0,0:0
184,248,20872,1,0,0:0
184,200,20989,1,0,0:0
104,136,21223,1,0,0:0
168,56,21458,6,0,B|232:16|288:64,1,125.000000298023,4|0,0:0|0:0,0:0
320,152,21926,2,0,B|371:196|435:156,2,125.000000298023
384,72,22629,1,0,0:0
284,60,22864,2,0,B|196:12|116:36|60:116|100:196,1,250.000000596046
208,152,23567,1,0,0:0
224,200,23684,1,0,0:0
88,256,24036,1,0,0:0
104,344,24270,1,0,0:0
200,328,24504,1,0,0:0
232,328,24583,1,0,0:0
264,328,24661,1,0,0:0
296,328,24739,1,0,0:0
384,280,24973,1,0,0:0
448,192,25208,6,0,B|448:112|384:88,1,125.000000298023,4|0,0:0|0:0,0:0
344,184,25676,1,0,0:0
288,104,25911,1,0,0:0
320,8,26145,2,0,B|240:-8|184:32|160:112|208:176,1,250.000000596046
152,248,26848,1,0,0:0
248,232,27083,1,0,0:0
344,272,27317,1,0,0:0
440,288,27551,2,0,B|432:352|368:416|248:368|256:288,2,250.000000596046,0|4|4,0:0|0:0|0:0,0:0
400,200,28723,1,0,0:0
456,112,28958,5,0,0:0
280,24,29426,1,0,0:0
96,96,29895,1,0,0:0
280,24,30364,1,0,0:0
240,56,30481,1,0,0:0
200,88,30598,1,0,0:0
168,192,30833,1,0,0:0
264,216,31067,1,0,0:0
272,264,31184,1,0,0:0
312,120,31536,1,0,0:0
376,48,31770,1,0,0:0
448,112,32004,1,0,0:0
448,144,32083,1,0,0:0
448,176,32161,1,0,0:0
448,208,32239,1,8,0:0
440,352,32708,5,0,0:0
352,288,32942,1,0,0:0
272,344,33176,2,0,B|208:376|144:336,1,125.000000298023,8|0,0:0|0:0,0:0
216,264,33645,1,0,0:0
120,248,33879,1,0,0:0
184,168,34114,1,8,0:0
384,168,34583,1,0,0:0
208,64,35051,1,8,0:0
408,72,35520,1,0,0:0
472,264,35989,1,8,0:0
416,344,36223,1,0,0:0
320,312,36458,6,0,B|248:352|176:296,1,125.000000298023
248,216,36926,2,0,B|184:176|128:224,2,125.000000298023,8|0|0,0:0|0:0|0:0,0:0
352,216,37629,1,0,0:0
416,136,37864,2,0,B|432:72|408:0|304:-24|248:32,1,250.000000596046,8|0,0:0|0:0,0:0
320,104,38567,1,0,0:0
272,120,38684,1,0,0:0
128,144,39036,1,0,0:0
88,232,39270,1,0,0:0
168,288,39504,1,0,0:0
200,288,39583,1,0,0:0
232,288,39661,1,0,0:0
264,288,39739,1,8,0:0
360,288,39973,1,0,0:0
440,344,40208,6,0,B|472:280|432:208,1,125.000000298023
464,128,40676,2,0,B|464:32|360:0|272:24|256:120,2,250.000000596046,8|0|8,0:0|0:0|0:0,0:0
363,135,41848,1,0,0:0
280,184,42083,1,0,0:0
192,136,42317,1,0,0:0
96,128,42551,2,0,B|96:32|200:0|288:24|304:120,2,250.000000596046,0|4|4,0:0|0:0|0:0,0:0
40,216,43723,1,0,0:0
40,216,43958,5,0,0:0
88,304,44192,1,0,0:0
136,304,44309,1,0,0:0
184,304,44426,1,8,0:0
264,240,44661,1,0,0:0
264,240,44895,1,0,0:0
336,304,45129,1,0,0:0
432,264,45364,1,8,0:0
408,168,45598,1,0,0:0
312,152,45833,1,0,0:0
264,144,45950,1,0,0:0
216,136,46067,1,0,0:0
144,208,46301,2,0,B|88:256|128:328,2,125.000000298023,8|0|0,0:0|0:0|0:0,0:0
56,152,47004,1,0,0:0
88,56,47239,1,8,0:0
184,40,47473,1,0,0:0
248,112,47708,6,0,B|384:48,2,125.000000298023,4|0|0,0:0|0:0|0:0,0:0
208,208,48411,1,0,0:0
272,288,48645,2,0,B|328:248|392:280,2,125.000000298023
176,304,49348,1,0,0:0
96,248,49583,1,0,0:0
104,96,49934,1,0,0:0
248,152,50286,1,0,0:0
376,80,50637,1,0,0:0
448,216,50989,1,0,0:0
416,256,51106,1,0,0:0
384,296,51223,1,0,0:0
288,272,51458,6,0,B|216:320|144:256,1,125.000000298023,4|0,0:0|0:0,0:0
152,176,51926,2,0,B|80:128|8:192,2,125.000000298023
248,152,52629,1,0,0:0
176,80,52864,1,0,0:0
128,64,52981,1,0,0:0
80,48,53098,1,0,0:0
48,144,53333,1,0,0:0
112,280,53684,1,0,0:0
248,208,54036,1,0,0:0
376,280,54387,1,0,0:0
448,144,54739,1,0,0:0
424,96,54856,1,0,0:0
400,48,54973,1,0,0:0
304,64,55208,5,4,0:0
208,96,55442,1,0,0:0
160,112,55559,1,0,0:0
112,128,55676,1,8,0:0
112,232,55911,2,0,B|152:296|248:304,1,125.000000298023
248,208,56379,2,0,B|328:184,2,62.5000001490115,0|0|8,0:0|0:0|0:0,0:0
312,288,56848,1,0,0:0
408,256,57083,1,0,0:0
416,160,57317,1,0,0:0
416,112,57434,1,0,0:0
416,64,57551,1,8,0:0
320,56,57786,2,0,B|264:8|192:40,2,125.000000298023
248,120,58489,2,0,B|160:152|120:80,2,125.000000298023,8|0|4,0:0|0:0|0:0,0:0
320,200,59192,5,0,0:0
416,200,59426,1,0,0:0
488,272,59661,1,0,0:0
456,368,59895,1,0,0:0
360,384,60129,1,0,0:0
280,320,60364,1,0,0:0
216,240,60598,1,0,0:0
128,288,60833,5,0,0:0
120,240,60950,1,0,0:0
112,192,61067,1,0,0:0
104,144,61184,1,0,0:0
96,96,61301,1,8,0:0
192,104,61536,1,0,0:0
216,56,61653,1,8,0:0
264,48,61770,1,0,0:0
288,144,62004,1,0,0:0
280,192,62122,1,0,0:0
272,240,62239,1,12,0:0
128,288,62708,6,0,B|144:360|216:384|280:360,2,187.500000447035,4|0|0,0:0|0:0|0:0,0:0
224,272,63645,1,0,0:0
160,200,63879,1,0,0:0
168,152,63997,1,0,0:0
176,104,64114,1,8,0:0
272,136,64348,1,0,0:0
336,56,64583,2,0,B|400:16|496:88|432:176,2,187.500000447035
272,136,65520,1,0,0:0
280,184,65637,1,0,0:0
288,232,65754,1,0,0:0
184,224,65989,1,8,0:0
136,248,66106,1,0,0:0
88,272,66223,1,0,0:0
64,176,66458,6,0,B|32:88|96:24|160:24,1,187.500000447035
135,27,66926,1,8,0:0
224,72,67161,1,0,0:0
152,128,67395,1,4,0:0
336,48,67864,1,4,0:0
464,200,68333,1,4,0:0
272,248,68801,1,8,0:0
176,280,69036,2,0,B|144:344|64:336,1,125.000000298023
88,240,69504,1,0,0:0
96,192,69622,1,0,0:0
104,144,69739,1,8,0:0
192,184,69973,1,0,0:0
264,248,70208,6,0,B|360:240|408:312|416:344,2,187.500000447035,4|0|0,0:0|0:0|0:0,0:0
280,152,71145,1,0,0:0
376,176,71379,1,0,0:0
416,152,71497,1,0,0:0
464,128,71614,1,8,0:0
392,64,71848,1,0,0:0
288,56,72083,2,0,B|208:0|128:72|160:160,2,187.500000447035
248,144,73020,2,0,B|192:264,1,125.000000298023
296,256,73489,1,8,0:0
296,256,73606,1,0,0:0
296,256,73723,1,0,0:0
240,336,73958,6,0,B|280:368|376:368|424:336,2,187.500000447035,4|0|0,0:0|0:0|0:0,0:0
152,288,74895,2,4,B|-8:312|64:392|128:376|88:264|32:224,2,250.000000596046
272,48,76536,2,0,B|216:0|128:32,2,125.000000298023
208,128,77239,2,0,B|264:176|352:144,1,125.000000298023
120,272,93879,6,0,B|64:312|-8:280,2,125.000000298023
56,192,94583,2,0,B|80:120|168:128,1,125.000000298023
208,208,95051,1,8,0:0
264,120,95286,1,0,0:0
312,208,95520,2,0,B|384:240|448:192,1,125.000000298023
360,128,95989,1,8,0:0
424,320,96458,1,0,0:0
328,304,96692,1,0,0:0
280,304,96809,1,0,0:0
232,304,96926,1,8,0:0
128,304,97161,1,0,0:0
112,256,97278,1,8,0:0
96,208,97395,1,0,0:0
80,160,97512,1,8,0:0
64,112,97629,1,0,0:0
160,104,97864,2,0,B|224:136|280:104,2,125.000000298023,8|0|0,0:0|0:0|0:0,0:0
192,200,98567,5,0,0:0
272,256,98801,1,8,0:0
368,224,99036,1,0,0:0
384,128,99270,2,0,B|352:88|368:24|432:16,2,125.000000298023,0|0|8,0:0|0:0|0:0,0:0
448,320,100208,1,0,0:0
352,336,100442,1,0,0:0
304,344,100559,1,0,0:0
152,312,100911,1,0,0:0
80,240,101145,1,0,0:0
128,152,101379,1,0,0:0
160,152,101458,1,0,0:0
192,152,101536,1,0,0:0
224,152,101614,1,8,0:0
304,88,101848,1,0,0:0
336,184,102083,6,0,B|368:248|440:240,2,125.000000298023,0|0|8,0:0|0:0|0:0,0:0
424,144,102786,1,0,0:0
512,104,103020,2,0,B|480:40|408:48,2,125.000000298023,0|0|8,0:0|0:0|0:0,0:0
504,200,103723,1,0,0:0
496,296,103958,2,0,B|464:344|368:368|288:304|296:232,2,250.000000596046,0|0|4,0:0|0:0|0:0,0:0
352,152,105364,2,0,B|280:152|232:104,1,125.000000298023,4|0,0:0|0:0,0:0
288,24,105833,6,0,B|192:-8|128:56|128:128|176:192,1,250.000000596046,0|8,0:0|0:0,0:0
248,200,106536,1,0,0:0
328,240,106770,1,0,0:0
424,296,107004,1,0,0:0
384,328,107122,1,0,0:0
344,360,107239,1,8,0:0
256,320,107473,1,0,0:0
160,328,107708,2,0,B|80:336|48:272,1,125.000000298023
40,328,108059,2,0,B|120:336|152:272,1,125.000000298023,0|0,0:0|0:0,0:0
104,248,108411,2,0,B|64:208|152:176|96:128,1,125.000000298023
176,64,108879,1,0,0:0
272,40,109114,1,8,0:0
368,64,109348,1,0,0:0
392,160,109583,6,0,B|456:192|520:160,2,125.000000298023,4|0|0,0:0|0:0|0:0,0:0
392,264,110286,1,0,0:0
376,360,110520,2,0,B|312:392|248:360,2,125.000000298023
392,264,111223,1,0,0:0
288,264,111458,1,0,0:0
160,192,111809,1,0,0:0
232,56,112161,1,0,0:0
360,128,112512,1,0,0:0
288,264,112864,1,0,0:0
192,312,113098,1,0,0:0
96,304,113333,6,0,B|32:272|56:192,1,125.000000298023,4|0,0:0|0:0,0:0
152,224,113801,2,0,B|216:192|192:112,2,125.000000298023
96,144,114504,1,0,0:0
48,56,114739,1,0,0:0
96,48,114856,1,0,0:0
144,40,114973,1,0,0:0
248,48,115208,1,0,0:0
248,200,115559,1,0,0:0
384,136,115911,1,0,0:0
384,288,116262,1,0,0:0
240,336,116614,1,0,0:0
144,304,116848,1,0,0:0
48,296,117083,5,4,0:0
104,216,117317,1,0,0:0
96,168,117434,1,0,0:0
88,120,117551,1,8,0:0
168,56,117786,2,0,B|240:32|312:72,1,125.000000298023
224,136,118254,2,0,B|264:192,2,62.5000001490115,0|0|8,0:0|0:0|0:0,0:0
192,232,118723,1,0,0:0
224,328,118958,1,0,0:0
296,256,119192,1,0,0:0
344,240,119309,1,0,0:0
392,224,119426,1,8,0:0
400,120,119661,2,0,B|464:112|504:176|488:224,2,125.000000298023
301,94,120364,2,0,B|320:24|392:24,2,125.000000298023,8|0|4,0:0|0:0|0:0,0:0
256,184,121067,5,0,0:0
160,160,121301,1,0,0:0
136,64,121536,1,0,0:0
40,48,121770,1,0,0:0
0,144,122004,1,0,0:0
72,216,122239,1,0,0:0
32,304,122473,1,0,0:0
128,296,122708,5,0,0:0
176,288,122825,1,0,0:0
224,280,122942,1,0,0:0
272,272,123059,1,0,0:0
320,264,123176,1,8,0:0
408,216,123411,1,0,0:0
400,168,123528,1,8,0:0
392,120,123645,1,0,0:0
312,64,123879,1,0,0:0
264,56,123997,1,0,0:0
216,48,124114,1,12,0:0
16,80,124583,6,0,B|-24:152|32:232|104:216,2,187.500000447035,4|0|0,0:0|0:0|0:0,0:0
104,128,125520,2,0,B|176:144|184:232,1,125.000000298023
208,256,125872,1,0,0:0
256,248,125989,1,8,0:0
320,168,126223,1,0,0:0
376,256,126458,6,0,B|440:208|440:120|376:64,1,187.500000447035
399,89,126926,1,8,0:0
304,72,127161,1,0,0:0
320,168,127395,1,0,0:0
272,160,127512,1,0,0:0
224,152,127629,1,0,0:0
160,80,127864,1,8,0:0
112,72,127981,1,0,0:0
64,96,128098,1,0,0:0
48,144,128215,1,0,0:0
56,200,128333,6,0,B|16:280|64:352|128:352,1,187.500000447035
160,344,128801,1,8,0:0
240,288,129036,1,0,0:0
144,256,129270,1,4,0:0
328,320,129739,1,4,0:0
376,128,130208,1,4,0:0
192,16,130676,1,8,0:0
96,24,130911,2,0,B|40:64|64:136,1,125.000000298023
160,104,131379,1,0,0:0
152,152,131497,1,0,0:0
144,200,131614,1,8,0:0
72,272,131848,1,0,0:0
168,296,132083,6,0,B|232:336|304:288|288:216,2,187.500000447035,4|0|0,0:0|0:0|0:0,0:0
144,200,133020,1,0,0:0
200,120,133254,1,0,0:0
248,112,133372,1,0,0:0
296,104,133489,1,8,0:0
360,184,133723,1,0,0:0
400,88,133958,2,0,B|472:80|512:160|472:224,2,187.500000447035
360,184,134895,1,0,0:0
336,232,135012,1,0,0:0
312,280,135129,1,0,0:0
216,248,135364,1,8,0:0
176,224,135481,1,0,0:0
168,176,135598,1,0,0:0
200,136,135715,1,0,0:0
224,88,135833,6,0,B|168:24|72:40|24:112,2,187.500000447035,4|0|0,0:0|0:0|0:0,0:0
320,88,136770,2,4,B|560:8|279:-33|472:152,2,250.000000596046
240,336,138411,2,0,B|296:384|384:352,2,125.000000298023
304,256,139114,2,0,B|248:208|160:240,1,125.000000298023
96,280,139817,5,0,0:0
64,136,140168,1,0,0:0
64,136,140286,1,0,0:0
136,64,140520,2,0,B|216:48|288:64|352:112,1,187.500000447035
336,336,141458,6,0,B|416:336|448:264,1,125.000000298023
448,232,141809,1,0,0:0
352,232,142043,1,0,0:0
240,336,142395,1,0,0:0
144,296,142630,1,0,0:0
144,296,142747,1,0,0:0
192,48,143333,6,4,B|272:16|336:64,2,125.000000298023
192,48,144622,1,0,0:0
96,280,145208,6,0,B|144:328|240:328,1,125.000000298023
256,304,145559,1,0,0:0
296,328,145676,2,0,B|361:329|409:281,1,125.000000298023
344,208,146145,2,0,B|240:160|144:216,1,187.500000447035
144,0,147083,6,0,B|144:64|184:88|232:88|256:56|264:24|264:24|272:56|288:88|368:96|384:48|384:-8,1,375.000000894069
344,160,148020,2,0,B|248:232|160:144,1,187.500000447035
214,358,148958,2,0,B|183:319|103:303,1,125.000000298023
296,296,149426,2,0,B|326:334|406:350,1,125.000000298023
384,248,149895,1,0,0:0
296,200,150129,1,0,0:0
296,200,150247,1,0,0:0
64,56,150833,6,0,B|16:136,1,83.3333335320153
24,192,151145,1,0,0:0
88,216,151301,1,0,0:0
232,72,151770,2,0,B|304:40|368:88,1,125.000000298023
351,77,152122,1,0,0:0
456,184,152590,6,0,B|392:248|320:160,1,125.000000298023
296,184,152942,2,0,B|216:200|208:296,1,125.000000298023
312,280,153411,1,0,0:0
408,336,153645,1,0,0:0
312,368,153879,1,0,0:0
312,368,153997,1,0,0:0
216,336,154231,1,0,0:0
216,336,154348,1,0,0:0
120,360,154583,6,0,B|40:344|48:248,1,125.000000298023
144,272,155051,1,0,0:0
144,272,155168,1,0,0:0
96,184,155403,1,0,0:0
96,184,155520,1,0,0:0
56,96,155754,2,0,B|120:64,1,62.5000001490115
304,296,156223,1,0,0:0
248,216,156457,5,0,0:0
280,176,156575,1,0,0:0
312,136,156692,1,0,0:0
400,184,156926,2,0,B|448:144|424:88|488:56,2,125.000000298023
440,272,157629,1,0,0:0
440,272,157747,1,0,0:0
304,344,158098,1,0,0:0
208,328,158333,5,0,0:0
48,200,158801,1,0,0:0
184,48,159270,1,0,0:0
280,88,159504,1,0,0:0
280,88,159622,1,0,0:0
480,72,160090,6,0,B|528:144|472:208,1,125.000000298023
440,184,160442,2,0,B|384:240|440:312,1,125.000000298023
232,280,161145,1,0,0:0
152,224,161379,1,0,0:0
152,224,161497,1,0,0:0
152,224,161614,1,0,0:0
232,168,161848,1,0,0:0
248,72,162083,5,0,0:0
336,112,162317,1,0,0:0
416,48,162551,2,0,B|496:32|520:104,2,125.000000298023
432,144,163254,1,0,0:0
496,224,163489,1,0,0:0
400,240,163723,1,0,0:0
240,320,163958,2,0,B|144:352|48:312,2,187.500000447035
56,256,165012,2,0,B|243:256,1,187.500000447035
243,256,165598,1,0,0:0
208,160,165833,5,0,0:0
112,136,166067,1,0,0:0
96,40,166301,1,0,0:0
192,64,166536,1,0,0:0
320,64,166770,1,0,0:0
416,40,167005,1,0,0:0
400,136,167239,1,0,0:0
304,160,167473,1,0,0:0
272,320,167708,2,0,B|368:352|464:320,2,187.500000447035
456,256,168762,2,0,B|268:256,1,187.500000447035
168,272,169348,1,0,0:0
80,328,169583,6,0,B|40:272|80:208,1,125.000000298023
64,160,169934,1,0,0:0
88,120,170051,1,8,0:0
168,56,170286,1,0,0:0
184,152,170520,1,0,0:0
264,96,170754,1,0,0:0
312,88,170872,1,0,0:0
360,80,170989,1,8,0:0
456,80,171223,2,0,B|496:136|480:216,1,125.000000298023
384,184,171692,6,0,B|376:264,2,62.5000001490115,0|0|8,0:0|0:0|0:0,0:0
464,304,172161,2,0,B|408:360|320:336,1,125.000000298023
264,296,172629,2,0,B|88:328,2,125.000000298023,0|8|0,0:0|0:0|0:0,0:0
200,224,173333,5,0,0:0
104,208,173567,1,0,0:0
64,112,173801,1,0,0:0
128,32,174036,1,0,0:0
224,40,174270,1,0,0:0
264,128,174504,1,0,0:0
320,208,174739,1,0,0:0
416,200,174973,1,0,0:0
448,112,175208,5,0,0:0
424,72,175325,1,0,0:0
376,48,175442,1,0,0:0
328,56,175559,1,0,0:0
288,88,175676,1,0,0:0
264,128,175793,1,0,0:0
280,176,175911,1,0,0:0
320,208,176028,1,0,0:0
368,224,176145,5,4,0:0
312,304,176379,1,0,0:0
264,320,176497,1,0,0:0
216,336,176614,1,12,0:0
56,216,177083,6,0,B|24:152|64:72|136:56,2,187.500000447035,4|0|0,0:0|0:0|0:0,0:0
144,168,178020,2,0,B|216:208|280:160,1,125.000000298023
312,152,178372,1,0,0:0
360,136,178489,1,8,0:0
344,40,178723,1,0,0:0
440,72,178958,6,0,B|496:144|448:232|360:248,1,187.500000447035,4|0,0:0|0:0,0:0
288,328,179661,1,0,0:0
392,336,179895,1,0,0:0
440,320,180012,1,0,0:0
488,296,180129,1,0,0:0
408,232,180364,2,0,B|440:160,2,62.5000001490115,8|0|0,0:0|0:0|0:0,0:0
304,224,180833,6,0,B|224:216|184:264|176:336,1,187.500000447035
176,328,181301,1,8,0:0
88,288,181536,1,0,0:0
80,192,181770,1,4,0:0
184,24,182239,1,4,0:0
360,112,182708,1,4,0:0
448,152,182942,1,0,0:0
456,200,183059,1,0,0:0
464,248,183176,1,8,0:0
368,208,183411,1,0,0:0
376,304,183645,1,0,0:0
328,304,183762,5,0,0:0
280,280,183879,1,0,0:0
264,232,183997,1,0,0:0
272,184,184114,1,8,0:0
176,184,184348,1,0,0:0
176,232,184465,1,8,0:0
176,280,184583,6,0,B|176:336|72:368|32:288,1,187.500000447035,4|0,0:0|0:0,0:0
34,292,185051,1,8,0:0
56,192,185286,2,0,B|112:64,1,125.000000298023
200,48,185754,2,0,B|296:64|336:16,2,125.000000298023,0|8|0,0:0|0:0|0:0,0:0
232,144,186458,6,0,B|336:144|416:72,1,187.500000447035,4|0,0:0|0:0,0:0
404,81,186926,1,8,0:0
456,168,187161,1,0,0:0
368,216,187395,1,0,0:0
384,264,187512,1,0,0:0
400,312,187629,1,0,0:0
304,304,187864,1,8,0:0
264,272,187981,1,0,0:0
216,264,188098,1,0,0:0
168,272,188215,1,0,0:0
128,304,188333,1,4,0:0
64,232,188567,6,0,B|40:160,1,62.5000001490115
56,120,188801,2,0,B|128:72|200:144,1,125.000000298023,8|0,0:0|0:0,0:0
256,176,189270,1,4,0:0
416,56,189739,1,4,0:0
464,248,190208,1,4,0:0
168,248,190911,5,0,0:0
168,88,191145,1,0,0:0
344,88,191379,1,0,0:0
336,248,191614,1,0,0:0
256,168,192083,21,0,0:0
