osu file format v5

[General]
AudioFilename: Spongebob walk cycle music.mp3
AudioLeadIn: 0
PreviewTime: -1
Countdown: 1
SampleSet: Normal

[Metadata]
Title:Spongebob walk cycle
Artist:Nickelodeon
Creator:wiicademan
Version:Normal

[Difficulty]
HPDrainRate:5
CircleSize:5
OverallDifficulty:5
SliderMultiplier:1.4
SliderTickRate:2

[Events]
//Background and Video events
1,24,"clip0041.avi"
//Break Periods
//Storyboard Layer 0 (Background)
//Storyboard Layer 1 (Failing)
//Storyboard Layer 2 (Passing)
//Storyboard Layer 3 (Foreground)
//Storyboard Sound Samples
//Background Colour Transformations
3,100,23,23,36

[TimingPoints]
715,592.580379517432,4,1,1,100

[HitObjects]
32,32,715,1,0
64,32,1011,1,0
96,32,1307,1,0
160,32,1752,2,0,B|288:32,1,105
320,32,2492,1,0
320,128,3085,5,0
288,128,3381,1,0
256,128,3677,1,0
192,128,4122,2,0,B|64:128,1,105
32,128,4862,1,0
32,224,5455,5,0
64,224,5751,1,0
96,224,6047,1,0
160,224,6492,2,0,B|288:224,1,105
320,224,7232,1,0
320,320,7825,5,0
288,320,8121,1,0
256,320,8417,1,0
192,320,8862,2,0,B|64:320,1,105
32,320,9602,1,0
32,224,10196,6,0,C|32:64,1,140
96,96,11233,2,0,B|224:96,1,105
256,96,11974,1,0
352,96,12566,6,0,C|352:256,1,140
352,288,13603,2,0,B|224:288,1,105
192,288,14344,1,4
96,288,14936,5,4
96,256,15233,1,0
96,224,15529,1,4
96,192,15825,1,0
96,160,16122,1,4
96,128,16418,1,4
96,96,16714,1,4
192,96,17307,5,4
192,128,17604,1,0
192,160,17900,1,4
192,192,18196,1,0
192,224,18493,1,4
192,256,18789,1,4
192,288,19085,1,4
128,320,19677,5,2
128,288,19973,1,2
128,256,20270,1,2
128,192,20714,2,0,B|128:64,1,105
128,32,21455,1,0
288,32,22640,5,0
288,64,22936,1,0
288,96,23233,1,2
288,128,23529,1,0
288,160,23825,1,0
288,192,24121,1,2
288,224,24418,1,0
288,256,24714,1,4
288,288,25010,1,4
160,288,25899,5,0
128,288,26195,1,0
128,192,26788,5,0
160,192,27084,1,0
192,192,27380,1,4
224,192,27677,1,0
256,192,27973,2,0,B|416:192,1,140
448,256,29158,6,0,B|480:64|357:-68|224:160,1,420
288,224,31529,2,0,B|256:320|128:288|128:160|192:96,2,280
288,128,34492,5,0
352,128,34936,1,0
416,128,35380,1,0
416,160,35677,1,0
416,192,35973,1,0
416,224,36269,1,0
416,320,36862,5,0
352,320,37306,1,0
288,320,37751,1,0
256,320,38047,1,0
224,320,38343,1,0
192,320,38640,2,0,B|128:256|160:128|256:96|448:224,1,420
448,128,41010,2,0,B|473:168|509:210|513:282|352:352,2,280
352,128,43973,6,0,B|224:128,1,105
192,128,44862,1,0
192,160,45158,1,0
192,192,45454,1,0
192,224,45751,1,0
192,256,46047,1,0
192,288,46343,2,0,B|320:288,1,105
480,256,48121,5,0
480,224,48417,1,0
480,192,48714,1,0
480,160,49010,1,0
480,128,49306,1,0
480,96,49602,2,0,B|416:96,3,35
384,96,50491,5,0
384,128,50788,1,0
384,160,51084,1,0
384,192,51380,1,0
384,224,51676,1,0
384,256,51973,2,0,B|448:256,3,35
256,256,53454,6,0,B|128:256,1,105
96,256,54343,1,0
96,224,54639,1,0
96,192,54936,1,0
96,160,55232,1,0
96,160,55380,1,0
96,160,55528,1,0
96,128,55824,2,0,B|96:0,1,105
288,32,57602,5,0
288,64,57899,1,0
288,96,58195,1,0
288,128,58491,1,0
288,160,58787,1,0
288,192,59084,2,0,B|224:192,3,35
256,192,59973,12,0,62343
