osu file format v9

[General]
AudioFilename: nickelback - rockstar353.mp3
AudioLeadIn: 2000
PreviewTime: 60692
Countdown: 0
SampleSet: Soft
StackLeniency: 0.7
Mode: 0
LetterboxInBreaks: 0

[Editor]
Bookmarks: 27378,54045,98003,100295,114045,127378,161317,180712,195503,209670,223420,236545
DistanceSpacing: 1
BeatDivisor: 4
GridSize: 4

[Metadata]
Title:Rockstar
Artist:Nickelback
Creator:Wiinter
Version:Collab
Source:
Tags:bd blue_dragon blue dragon doomsday doomsday93 jericho2442

[Difficulty]
HPDrainRate:6
CircleSize:4
OverallDifficulty:8
ApproachRate:8
SliderMultiplier:1.8
SliderTickRate:2

[Events]
//Background and Video events
0,0,"bgmuitogato.jpg"
//Break Periods
2,98183,99525
//Storyboard Layer 0 (Background)
//Storyboard Layer 1 (Fail)
//Storyboard Layer 2 (Pass)
//Storyboard Layer 3 (Foreground)
Sprite,Foreground,Centre,"bd.png",320,240 F,0,1108,1317,0,1 M,0,1317,,468,336 S,0,1317,,0.4640009 F,0,1317,27150,1 F,0,27150,27358,1,0 F,0,27358,53921,0 F,0,53921,54129,0,1 F,0,54129,97775,1 F,0,97775,97983,1,0 F,0,97983,223192,0 F,0,223192,223400,0,1 F,0,223400,236421,1 F,0,236421,236629,1,0
Sprite,Foreground,Centre,"jericho.png",320,240 F,0,113817,114025,0,0.92 M,0,114025,,428,227 S,0,114025,,0.4079998 F,0,114025,127150,0.92,1 F,0,127150,127378,1,0 F,0,127378,161108,0 F,0,161108,161317,0,1 F,0,161317,180483,1 F,0,180483,180712,1,0 F,0,180712,195275,0 F,0,195275,195503,0,1 F,0,195503,209442,1 F,0,209442,209670,1,0 F,0,209670,236317,0 F,0,236317,236545,0,1 F,0,236545,246525,1,0.9596774 F,0,246525,246733,0.9596774,0
Sprite,Foreground,Centre,"wiinter.png",320,240 F,0,27150,27358,0,1 M,0,27358,,179,196 S,0,27358,,0.4879999 F,0,27358,53817,1 F,0,53817,54025,1,0 F,0,54025,100067,0 F,0,100067,100295,0,1 F,0,100295,113817,1 F,0,113817,114045,1,0 F,0,114045,127150,0 F,0,127150,127358,0,1 F,0,127358,161108,1 F,0,161108,161317,1,0 F,0,161317,180692,0 F,0,180692,180900,0,1 F,0,180900,194337,1 F,0,194337,194546,1,0 F,0,194546,209442,0 F,0,209442,209670,0,1 F,0,209670,223192,1,0.8332108 F,0,223192,223400,0.8332108,0
//Storyboard Sound Samples
//Background Colour Transformations
3,100,163,162,255

[TimingPoints]
1317,416.666666666667,4,2,2,80,1,0
14650,-100,4,1,1,80,0,0
32775,-100,4,1,1,60,0,0
33608,-100,4,1,1,80,0,0
60483,-100,4,2,1,5,0,0
61317,-100,4,1,1,80,0,1
94650,-100,4,1,1,80,0,0
100275,-100,4,1,1,80,0,0
134650,-100,4,1,1,80,0,1
181317,-100,4,1,1,80,0,0
194962,-100,4,1,1,5,0,0
195483,-100,4,2,1,80,0,0
208921,-100,4,1,1,80,0,0
209650,-100,4,1,1,80,0,1
242879,-100,4,1,1,80,0,0
242983,-100,4,2,1,80,0,0

[Colours]
Combo1 : 128,128,128
Combo2 : 4,98,96
Combo3 : 0,128,192

[HitObjects]
448,56,1317,6,2,B|464:108|420:136,2,90,2|0|2
380,76,1942,2,8,B|332:104|336:180|388:216|432:204,1,180,8|0
476,160,2567,2,0,B|504:212|472:252,1,90,2|0
424,292,2983,1,8
256,104,3400,1,2
88,292,3817,1,2
160,304,4025,1,0
220,268,4233,1,8
228,196,4442,1,0
180,144,4650,6,0,B|156:96|184:56,2,90,2|0|2
128,192,5275,1,0
84,136,5483,2,8,B|40:172|32:256|92:296,1,180,8|2
136,344,6108,1,0
208,356,6317,2,0,B|256:340|256:288,1,90,2|0
232,220,6733,2,0,B|184:236|184:288,1,90,8|0
316,348,7150,2,2,B|372:352|432:312|436:236,1,180
376,200,7775,1,0
339,31,7983,6,0,B|400:28|452:96|432:156,1,180,8|2
364,128,8608,1,0
308,176,8817,2,2,B|264:148|272:92,1,90,2|0
264,28,9233,1,0
208,72,9442,2,8,B|178:164|257:236|276:233,1,180,8|0
336,244,10067,2,2,B|368:284|352:328,1,90,2|0
184,376,10483,2,0,B|152:336|168:292,1,90,8|0
256,308,10900,1,0
256,236,11108,1,2
64,24,12150,5,2
44,92,12358,1,2
64,160,12566,1,8
128,192,12775,1,0
200,192,12983,6,0,B|208:192|208:192|276:180|276:208|344:192|344:192|412:180|412:208|480:192|480:192|480:196,1,270,2|0
468,268,13816,2,4,B|416:280|376:260|376:264|376:264|320:276|285:270,1,180,2|8
232,316,14441,1,0
176,268,14650,5,4
112,100,15066,1,0
268,192,15483,1,8
352,156,15691,1,0
392,76,15900,2,2,B|436:44|436:-4,1,90,2|0
432,148,16316,2,2,B|408:208|428:280|488:304,1,180
504,216,16941,1,0
392,328,17150,1,4
212,320,17566,5,2
126,284,17775,1,0
104,192,17983,2,8,B|24:216|24:316|72:344,1,180,8|0
148,368,18608,2,8,B|104:192,1,180
160,124,19233,1,0
200,204,19442,2,2,B|228:256|300:276|356:232,2,180
240,124,20483,1,0
252,328,20692,1,0
324,156,20900,1,8
404,116,21108,1,0
432,200,21317,6,2,B|400:268|432:344|504:356,2,180,2|2|6
500,260,22358,1,0
344,292,22567,1,8
272,240,22775,1,0
284,152,22983,2,2,B|336:156|384:220|344:292,1,180,2|0
416,348,23608,2,2,B|273:240,1,180
184,264,24233,1,0
192,172,24442,1,2
152,92,24650,6,0,B|316:12|320:176|500:92,1,360,0|8
436,28,25692,1,0
408,200,25900,1,8
340,16,26108,1,0
267,160,26317,2,2,B|215:143|180:176,2,90,2|0|2
208,244,26942,1,0
220,80,27150,1,0
280,240,27358,6,2,B|336:240|392:192,1,90,0|8
296,152,27775,1,0
296,152,27983,1,0
208,120,28192,6,2,B|160:144|128:200,1,90,0|8
104,264,28608,1,0
104,264,28817,2,0,B|296:264,1,180,0|8
352,320,29442,2,2,B|440:256,1,90
348,220,29858,2,2,B|348:116,1,90
272,80,30275,1,0
192,40,30483,1,0
120,104,30692,5,0
168,176,30900,1,8
80,192,31108,2,2,B|96:232|152:288,1,90
208,312,31525,1,0
296,328,31733,1,8
384,296,31942,1,0
328,224,32150,1,0
240,224,32358,1,0
288,144,32567,1,8
288,144,32775,2,2,B|256:160|200:160|152:104|160:40,2,180
176,208,33817,6,0,B|64:152,1,90
48,248,34233,1,8
256,312,34650,1,0
176,264,34858,1,0
256,216,35067,2,0,B|344:160,1,90
256,216,35483,1,0
184,160,35692,1,0
248,104,35900,1,8
424,120,36317,5,0
428,208,36525,1,0
352,160,36733,1,8
428,208,36942,2,0,B|416:260|316:256,2,90
356,324,37567,2,0,B|376:324|472:328|496:236|496:220,1,180
180,256,38400,6,0,B|84:216|96:84,1,180,0|0
196,92,39650,1,0
308,232,40067,2,0,B|360:236|432:204,1,90
336,152,40483,1,0
168,96,40691,5,0
248,144,40900,1,8
248,56,41108,1,0
336,80,41316,2,2,B|240:80|152:160,2,180,0|8|0
396,144,42358,1,0
440,224,42566,2,0,B|396:248|320:252,1,90,8|0
264,264,42983,1,0
100,188,43400,1,8
176,136,43608,1,0
316,264,44233,5,8
388,212,44441,1,0
436,288,44650,2,6,B|372:212|264:192,2,180,0|8|0
352,320,45691,1,0
268,288,45900,1,8
192,240,46108,2,2,B|92:216|116:96,1,180
204,153,46733,2,2,B|104:208|36:148,1,180
136,64,47566,5,8
72,128,47775,2,2,B|20:196|68:308,1,180
64,299,48400,1,8
152,280,48608,2,0,B|276:256,1,90
272,184,49025,1,0
272,184,49233,2,0,B|392:156,1,90,8|0
428,104,49650,5,0
460,188,49858,2,0,B|416:280|304:296,1,180
248,244,50483,1,0
336,88,50900,1,0
268,148,51108,2,0,B|180:92|64:144,1,180,8|0
148,304,51942,5,0
224,256,52150,1,0
256,172,52358,2,0,B|292:196|348:220,1,90,0|0
424,236,52775,2,0,B|380:280|436:348,2,90
428,316,54025,5,0
476,240,54233,1,2
404,188,54442,1,0
352,264,54650,2,0,B|265:304|265:223|179:264,1,180,2|0
144,348,55275,1,0
232,340,55483,2,0,B|303:276|228:244|299:180,1,180,8|0
220,136,56108,2,2,B|246:71|186:11|121:37,1,180
136,128,56733,1,0
268,0,56942,2,2,B|312:36|324:112|300:168,1,180
228,216,57567,2,0,B|176:296,1,90
89,291,57983,1,4
256,192,58192,12,0,60483
368,168,61316,6,2,B|376:264|256:346|136:264|144:168,1,360,2|6
256,76,62566,1,0
344,344,62983,2,2,B|260:376|168:344,2,180,2|0|6
256,208,64025,1,0
168,344,64233,1,2
344,344,64441,1,0
324,184,64650,6,2,B|308:136|256:116|204:136|188:184,2,180,2|2|6
256,208,65691,1,0
256,276,65900,1,8
256,28,66316,2,2,B|256:208,1,180
256,352,67150,1,6
400,192,67775,6,0,B|448:280,1,90,0|2
448,128,68400,2,0,B|448:60|392:16|327:28,1,180,8|2
288,88,69025,1,0
356,112,69233,2,8,B|336:160|281:161,1,90,8|0
272,232,69650,2,2,B|344:236|403:194|418:144,2,180
212,272,70691,1,0
287,160,70900,1,8
152,152,71108,1,0
216,196,71316,5,2
408,52,71733,1,2
488,280,72150,1,2
432,328,72358,1,0
360,344,72566,1,8
288,332,72775,1,0
228,296,72983,2,2,B|120:264|64:340,2,180
196,360,74025,1,0
120,224,74233,1,8
128,380,74441,1,0
48,248,74650,6,4,B|-24:184|16:84,1,180,4|2
84,104,75275,1,0
144,64,75483,2,8,B|200:56|188:76|232:86|276:76|264:56|320:64,1,180
232,0,76108,1,0
232,152,76316,2,2,B|232:340,2,180
304,192,77358,5,0
160,232,77566,1,8
304,272,77775,1,0
160,308,77983,2,0,B|88:308|88:308|44:308|16:336|16:376|16:376|16:384,2,180,2|0|2
232,296,79025,5,0
236,224,79233,1,2
232,152,79442,1,0
240,80,79650,2,2,B|328:52|328:104|420:80,2,180
200,20,80692,5,0
288,144,80900,1,8
372,12,81108,1,0
240,80,81317,2,2,B|176:112|176:112|140:132|124:164|144:196|144:196|148:204,2,180
332,212,82358,1,0
348,100,82567,1,8
228,188,82775,1,0
256,272,82983,2,2,B|244:288|244:288|268:288|268:288|256:308|256:308|256:332|256:332|244:348|244:348|268:348|268:348|256:368|256:368|256:388,2,180
172,244,84025,1,0
104,300,84233,2,8,B|68:272|76:212,1,90,8|0
96,8,84650,6,2,B|152:36|168:116|136:168,2,180
68,96,85692,1,0
212,20,85900,1,8
136,164,86108,1,0
228,172,86317,6,2,B|256:228|336:244|388:212,2,180
176,92,87358,1,0
268,88,87567,1,8
140,176,87775,1,0
96,256,87983,6,2,B|148:320|256:312|256:264|256:215|364:208|416:272,2,360
180,220,89858,1,0
332,312,90067,1,8
300,152,90275,1,0
212,384,90483,1,2
256,264,90692,1,0
256,68,90900,1,8
256,68,91317,1,12
256,192,91421,12,2,94650
100,192,95067,5,0
168,24,95483,1,8
344,24,95900,1,0
412,192,96317,1,2
348,256,96525,2,0,B|348:312|396:328,2,90,0|8|0
328,168,97150,2,0,B|236:200,1,90,2|0
256,288,97567,1,8
256,288,97983,1,8
176,224,100275,5,0
260,252,100483,2,2,B|312:248|348:216,1,90
348,132,100900,1,8
428,92,101108,1,2
360,32,101317,5,4
316,64,101733,1,8
276,100,102150,1,0
200,140,102567,6,2,B|192:184|136:224,1,90,8|0
72,256,102983,2,0,B|144:316|252:264,1,180,0|8
328,244,103608,1,0
408,200,103817,1,0
440,116,104025,1,0
440,116,104233,6,2,B|348:152|252:80,1,180,8|4
180,100,104858,2,0,B|108:156,1,90,0|8
64,64,105275,1,0
288,56,105483,1,0
156,236,105692,2,0,B|244:164,1,90
416,152,106108,2,0,B|346:208,1,90
304,304,106525,2,0,B|240:288|200:352|100:328,1,180
108,244,107150,6,0,B|44:164,2,90,0|0|8
192,208,107775,1,0
228,128,107983,1,4
148,88,108192,2,0,B|116:124|100:168,1,90,0|8
100,164,108608,2,0,B|144:200|146:250,1,90
64,280,109025,2,0,B|92:324|156:332,2,90,0|8|0
144,240,109650,2,2,B|200:176|324:180,1,180,0|8
372,240,110275,1,0
396,328,110483,2,0,B|472:268,1,90
448,184,110900,1,8
448,184,111108,2,4,B|412:108|260:100,1,180
212,132,111733,5,8
136,180,111942,1,0
56,216,112150,2,0,B|88:248|148:272,1,90
208,220,112567,2,0,B|312:188|396:224,1,180,8|0
252,100,113400,5,0
252,100,113608,1,0
88,32,114025,5,2
48,112,114233,1,0
56,200,114442,1,0
120,264,114650,2,0,B|160:296|152:352,1,90,8|0
232,304,115067,2,0,B|336:280|416:352,2,180,2|8|2
232,216,116108,5,0
320,208,116317,1,8
392,152,116525,1,0
384,64,116733,1,2
304,104,116942,2,0,B|224:120|184:48|184:48|120:48,1,180,8|0
56,48,117567,1,2
8,128,117775,1,0
72,192,117983,5,8
32,304,118192,1,0
136,232,118400,1,2
8,232,118608,1,0
112,304,118817,2,0,B|160:328|200:304|200:304|240:328|288:304,1,180,8|2
344,232,119442,1,0
424,192,119650,5,8
464,80,119859,1,0
360,152,120067,1,2
488,152,120275,2,0,B|504:200|488:256|440:272|392:256,1,180,8|0
328,320,120900,1,2
264,256,121108,1,0
176,256,121317,6,0,B|128:264|112:320,1,90,8|0
56,240,121733,2,0,B|24:288|24:344,1,90,2|0
56,152,122150,2,0,B|40:104|56:48|112:24|168:48,1,180,8|2
320,152,122775,2,0,B|336:104|320:48|264:24|208:48,1,180,8|2
176,120,123400,1,0
192,208,123608,1,0
240,288,123817,2,0,B|296:304|336:280,2,90,8|0|2
152,280,124442,1,4
256,192,124650,12,2,126317
312,336,126733,5,8
152,248,127150,1,4
266,178,127358,6,2,B|220:188|180:160,1,90,0|8
352,156,127775,2,2,B|352:208|288:256,1,90,0|4
152,312,128400,2,0,B|80:252|84:128,1,180,8|0
236,52,129233,1,8
324,68,129442,1,0
412,56,129650,2,2,B|432:96|460:88|480:112,1,90
440,192,130067,1,8
440,192,130275,2,0,B|228:192,1,180
176,224,130900,6,2,B|176:272|116:308,2,90,8|0|0
76,76,131733,2,0,B|160:124|272:76,1,180,8|0
388,196,132567,1,8
316,140,132775,1,0
180,256,133192,1,0
316,140,133608,1,0
310,317,134233,6,0,B|268:320|236:272,1,90
348,236,134650,2,2,B|432:216|464:80,1,180,6|2
368,96,135275,1,0
296,148,135483,1,0
208,168,135692,1,0
152,240,135900,1,8
28,108,136317,2,2,B|132:124|184:28,2,180
148,226,137358,6,2,B|120:188|72:184,1,90,0|8
176,140,137775,2,0,B|288:140,1,90,0|4
356,296,138400,2,0,B|468:300|480:156,1,180,8|0
400,140,139025,1,0
336,80,139233,6,2,B|296:88|216:80,1,90,8|0
156,92,139650,1,4
232,188,139858,1,0
152,272,140067,1,8
308,324,140483,2,2,B|404:264|492:328,1,180
405,128,141108,6,0,B|396:176|440:208,1,90,0|0
280,116,141733,2,0,B|248:148|172:156,1,90,8|0
132,92,142150,1,0
68,152,142358,1,0
108,232,142567,2,0,B|108:336,2,90,8|0|0
192,268,143192,1,0
192,268,143400,2,2,B|288:324|392:252,1,180
248,140,144442,5,0
248,52,144650,1,4
404,144,145067,2,0,B|380:248|492:308,1,180,8|0
384,324,145692,1,0
284,240,145901,1,8
176,300,146108,2,0,B|156:347|113:360,1,90,0|0
76,152,146733,2,2,B|112:64|200:172|256:68,1,180,0|2
376,208,147567,5,8
316,140,147775,1,0
144,60,148400,6,2,B|196:172|88:244,1,180
268,316,149233,2,0,B|144:316,2,90,8|0|0
340,260,149858,1,0
404,196,150067,1,8
492,216,150275,2,2,B|492:272|416:312,1,90
464,144,150692,6,0,B|376:96,1,90,0|8
296,116,151108,1,0
228,172,151317,1,4
144,200,151525,1,0
108,116,151733,2,0,B|24:164|72:280,1,180,8|4
192,156,152358,5,0
272,200,152567,1,8
336,144,152775,1,0
344,232,152983,2,0,B|456:232|472:128,1,180,4|8
408,72,153608,1,0
136,64,154233,6,0,B|108:108|32:104,1,90,8|0
120,168,154650,1,0
256,288,155067,1,8
256,112,155483,1,0
256,112,155692,1,0
392,156,155900,2,0,B|364:189|304:176,1,90,8|0
244,76,156317,2,2,B|344:116|416:32,2,180
344,220,157358,5,0
440,152,157567,1,0
348,312,157775,1,0
272,152,157983,2,0,B|236:232|112:280,1,180
120,184,158608,2,0,B|65:169|58:125,1,90
148,104,159025,1,0
208,220,159233,1,8
276,104,159442,1,0
276,104,159650,2,2,B|354:40|440:107,2,180
96,76,160900,5,0
160,140,161108,1,0
116,220,161317,1,4
136,308,161525,1,0
224,328,161733,6,0,B|288:352|320:296|400:336,2,180,2|4|0
136,296,162775,1,0
56,328,162983,2,0,B|40:272|64:224|120:208|120:208|120:160,1,180,2|0
40,136,163608,2,0,B|72:88|120:72|176:96|192:128,1,180,4|0
280,128,164233,5,0
352,72,164442,1,0
424,128,164650,2,0,B|512:80,1,90,2|0
496,176,165067,2,0,B|528:272,1,90
440,240,165483,2,0,B|384:320,1,90,4|0
352,232,165900,2,0,B|272:192,1,90
264,280,166317,2,0,B|176:320|88:280,2,180,2|8|4
40,40,167775,5,0
120,72,167983,1,2
168,152,168192,1,0
192,240,168400,1,0
272,280,168608,1,0
360,248,168817,2,0,B|448:192|432:80,1,180,4|0
344,120,169442,1,0
264,168,169650,2,0,B|152:168|128:56,2,180,2|8|4
264,256,170692,5,0
176,248,170900,1,0
104,200,171108,1,0
56,128,171317,5,2
120,64,171525,1,0
192,120,171733,1,0
264,64,171942,1,0
328,120,172150,2,0,B|424:128|456:240,1,180,4|0
448,320,172775,1,0
360,320,172983,2,0,B|312:336|272:320|272:320|224:296|168:320,2,180,2|8|4
312,232,174025,5,0
256,112,174233,1,2
192,232,174442,1,0
192,232,174650,1,4
0,56,175067,6,0,B|56:56|80:112,1,90,2|0
56,184,175483,1,4
136,344,175900,1,0
200,280,176108,1,0
264,344,176317,1,2
272,256,176525,5,0
200,200,176733,1,8
128,256,176942,1,0
128,168,177150,1,2
200,112,177358,1,0
272,168,177567,2,0,B|384:160|424:64,2,180,8|4|2
200,112,178608,5,8
128,56,178817,2,0,B|104:96|112:152|112:152|64:216,1,180,4|0
16,296,179442,2,0,B|64:320|112:296|112:296|184:344,1,180,8|0
272,336,180067,1,8
424,240,180483,1,4
472,168,180692,1,0
384,172,180900,1,4
58,70,181317,6,2,B|144:24|232:72,1,180,6|10
384,160,182150,2,2,B|297:207|212:160,1,180,2|10
136,200,182775,1,0
88,272,182983,1,4
272,272,183400,1,8
216,200,183608,1,0
176,280,183817,2,2,B|176:88,1,180,2|10
312,104,184442,6,2,B|328:160|400:152,1,90,2|6
224,64,185067,1,8
160,128,185275,1,0
72,136,185483,1,0
120,312,185900,6,0,B|232:264,1,90,8|0
128,224,186317,2,0,B|224:184,1,90,4|0
280,248,186733,2,0,B|309:277|352:320|411:298|456:280,1,180,8|0
264,328,187567,6,2,B|392:192,1,180,10|6
224,128,188400,1,8
400,104,188817,1,0
352,184,189025,1,0
312,104,189233,1,8
476,269,189442,2,0,B|448:184,1,90,0|4
280,256,190067,2,2,B|208:320|96:280,1,180,10|2
88,104,190900,1,8
264,136,191317,5,4
320,64,191525,1,0
392,144,191733,1,8
240,136,191942,1,0
320,32,192150,1,0
424,144,192358,1,0
320,192,192567,2,0,B|320:288,1,90,8|0
232,288,192983,1,4
160,232,193192,1,0
248,200,193400,1,8
160,232,193608,1,0
256,192,193712,12,0,195067
32,88,195900,6,0,B|40:32|104:24,1,90,0|0
120,112,196317,2,0,B|176:112|176:232|256:224,2,180,2|0|2
80,192,197358,2,0,B|96:240|136:272,1,90
288,344,197983,6,0,B|384:320|472:352,2,180,2|0|2
200,344,199025,1,0
128,296,199233,1,0
120,208,199442,1,2
192,160,199650,6,0,B|240:96|304:152|352:64,2,180,2|0|2
264,208,200692,2,0,B|360:240,1,90
392,312,201108,1,2
312,352,201317,2,0,B|224:320|224:320|144:352,2,180,2|0|2
96,192,202775,5,0
8,192,202983,2,0,B|8:136|48:96|104:96|136:112,2,180,2|0|2
56,272,204025,1,0
136,320,204233,1,0
224,320,204442,1,2
296,272,204650,2,0,B|296:216|336:176|392:176|424:192,2,180,2|0|2
464,64,206108,5,0
392,120,206317,2,0,B|432:168|360:232|296:168|336:120,2,180,2|0|2
360,32,207358,1,0
280,72,207567,1,0
200,32,207775,1,2
168,120,207983,2,0,B|208:168|136:232|72:168|112:120,2,180,2|0|2
256,144,209025,5,0
312,208,209233,1,8
256,280,209442,1,8
320,344,209650,1,4
396,300,209858,6,0,B|452:188,2,90,0|8|0
464,132,210483,2,2,B|368:156|288:60,1,180,2|10
220,108,211108,1,0
136,140,211317,1,4
108,224,211525,1,0
164,296,211733,1,8
248,332,211942,2,2,B|436:332,1,180
412,156,212567,5,8
436,244,212775,1,0
411,156,212983,2,2,B|332:200|237:160,2,180,2|10|2
172,96,214025,2,2,B|180:144|116:200,1,90,0|8
52,196,214442,1,0
80,280,214650,2,2,B|164:332|216:256|272:284,1,180,10|2
272,196,215275,1,0
192,152,215483,6,0,B|240:72|348:56,1,180,0|8
312,184,216108,1,0
436,208,216317,2,2,B|388:288|280:304,2,180,2|10|2
312,184,217358,2,2,B|192:184,2,90,0|8|0
348,100,217983,1,4
424,148,218192,1,0
376,224,218400,2,2,B|360:256|376:336|464:352|500:340,1,180
376,224,219025,5,0
304,172,219233,1,8
216,184,219442,1,0
216,184,219650,2,2,B|156:256|48:260,2,180,2|2|2
256,104,220692,1,0
296,184,220900,2,2,B|356:256|464:260,2,180,2|2|2
256,104,221942,1,0
220,184,222150,1,8
260,264,222358,1,0
352,268,222567,6,0,B|404:180,2,90
316,184,223192,1,0
342,80,223400,6,0,B|256:123|256:36|170:80,1,180,2|4
212,160,224025,1,0
300,184,224233,2,0,B|300:276,1,90,2|0
344,352,224650,2,2,B|256:384|167:352,2,180,2|2|4
396,276,225692,5,0
256,192,225900,1,2
116,276,226108,1,0
195,234,226317,6,2,B|165:192|195:150,1,90,2|0
256,84,226733,1,8
317,150,226942,2,0,B|346:192|317:234,1,90,0|2
256,300,227358,1,0
168,324,227567,5,0
256,384,227775,1,0
344,324,227983,1,2
92,96,228400,1,0
420,96,228817,1,4
332,120,229025,5,0
256,76,229233,1,2
180,120,229442,1,0
92,96,229650,6,2,B|64:180,1,90,2|0
63,271,230067,2,0,B|104:241|146:271,1,90,8|0
172,356,230483,2,0,B|256:412|340:356,1,180,8|0
365,271,231108,2,0,B|407:241|449:271,1,90,0|2
256,28,231733,5,0
62,270,232150,1,4
136,108,232567,5,0
180,184,232775,2,0,B|209:225|180:267,2,90,0|2|0
256,136,233400,1,8
332,184,233608,2,0,B|302:225|331:267,2,90,0|2|0
376,108,234233,1,0
300,60,234442,1,0
212,60,234650,1,8
392,224,235067,5,2
120,224,235483,1,4
300,248,235900,5,8
212,248,236108,1,0
136,296,236317,2,0,B|88:312|80:368,1,90
24,288,236733,6,0,B|24:96,1,180,2|4
112,104,237358,1,0
152,24,237567,2,0,B|344:24,1,180,2|0
384,96,238192,1,0
472,96,238400,5,8
432,176,238608,1,0
344,176,238817,1,0
384,256,239025,1,0
472,256,239233,2,0,B|472:304|448:344|392:360|336:336,1,180,8|4
256,344,239858,6,0,B|152:344,1,90,0|2
192,256,240275,2,0,B|96:200,1,90,0|8
184,48,240900,1,8
184,48,241108,1,4
336,144,241525,1,4
336,144,241733,1,8
424,144,241942,1,8
384,224,242150,2,0,B|328:248|280:232|248:192|248:152,1,180,4|2
160,144,242775,1,0
72,144,242983,1,8
112,320,243400,6,0,B|288:384|472:320,1,360,0|2
488,56,244858,1,2
400,56,245067,1,0
320,96,245275,1,0
296,184,245483,1,2
224,232,245692,1,0
152,184,245900,2,0,B|48:160|48:56,1,180,2|2
136,88,246525,1,0
