osu file format v5

[General]
AudioFilename: Nickelback - If Everyone Cared.mp3
AudioLeadIn: 0
PreviewTime: -1
Countdown: 1
SampleSet: Normal
StackLeniency: 0.7
Mode: 0
LetterboxInBreaks: 1

[Metadata]
Title:If Everyone Cared
Artist:Nickelback
Creator:Stonned
Version:Normal
Source:
Tags:

[Difficulty]
HPDrainRate:6
CircleSize:6
OverallDifficulty:6
SliderMultiplier:1.4
SliderTickRate:1

[Events]
//Background and Video events
//Break Periods
//Storyboard Layer 0 (Background)
//Storyboard Layer 1 (Failing)
//Storyboard Layer 2 (Passing)
//Storyboard Layer 3 (Foreground)
//Storyboard Sound Samples
//Background Colour Transformations
3,100,163,162,255

[TimingPoints]
6606,878,4,1,0,100,1

[HitObjects]
71,82,13849,1,0
65,147,14508,1,0
66,204,14727,1,0
73,74,15605,1,0
71,124,15825,1,0
67,192,16264,1,0
121,70,17361,1,0
185,75,17800,1,0
176,149,18239,1,0
60,95,19117,5,0
56,167,19337,1,0
150,147,19776,1,0
151,83,19995,1,0
139,211,20873,1,0
196,143,21312,1,0
124,102,21751,1,0
64,177,22629,5,0
65,104,22849,1,0
140,104,23288,1,0
139,175,23507,1,0
205,174,24605,5,0
200,95,24824,1,0
276,95,25263,1,0
278,168,25483,1,0
216,172,26361,5,0
121,180,26580,1,0
123,98,27019,1,0
209,96,27239,1,0
215,176,28336,5,0
215,176,28995,1,0
215,176,29434,1,0
215,176,30312,1,0
215,176,30970,5,0
215,176,32068,1,0
152,185,32507,1,0
152,185,32726,1,0
128,119,33824,5,0
198,117,34263,1,0
198,117,34482,1,0
130,198,35580,5,0
140,121,36019,1,0
77,124,36458,1,0
64,204,37116,1,0
121,193,37555,1,0
121,193,37994,1,0
128,117,39092,5,0
195,121,39750,1,0
195,121,39970,1,0
132,188,42604,5,0
132,144,42823,1,0
132,144,43043,1,0
132,144,43262,1,0
174,145,43701,1,0
169,196,44799,5,0
153,239,45018,1,0
153,239,45238,1,0
153,239,45457,1,0
215,232,46335,5,0
220,191,46555,1,0
232,135,46994,1,0
232,135,47213,1,0
232,135,47433,1,0
132,127,48311,5,0
132,177,48530,1,0
48,173,48969,1,0
48,117,49189,1,0
194,117,50067,5,0
196,201,50286,1,0
196,201,50506,1,0
196,201,50725,1,0
108,201,50945,1,0
187,105,51823,5,0
187,105,52042,1,0
187,105,52262,1,0
261,103,52701,1,0
86,188,53579,5,0
86,128,53798,1,0
175,132,54237,1,0
172,200,54676,1,0
94,194,57310,1,0
95,125,57530,1,0
95,125,57749,1,0
95,125,57969,1,0
139,128,58188,1,0
144,196,58847,1,0
84,197,59286,1,0
98,132,59725,1,0
141,130,60164,1,0
118,191,60822,5,0
64,195,61042,1,0
60,107,61700,1,0
128,104,62578,5,0
116,197,62798,1,0
51,207,63456,1,0
66,106,64554,5,0
109,97,64773,1,0
112,182,65212,1,0
112,182,65432,1,0
173,176,66310,5,0
173,107,66529,1,0
245,104,67188,1,0
244,170,68066,5,0
180,180,68285,1,0
112,179,68944,1,0
116,94,69822,5,0
187,95,70261,1,0
254,96,70700,1,0
91,190,72017,5,0
168,165,72456,1,0
168,165,72675,1,0
122,104,73553,1,0
61,80,73992,1,0
65,156,74431,1,0
65,156,74651,1,0
160,178,75529,5,0
156,137,75748,1,0
160,60,76407,5,0
99,141,77285,5,0
100,203,77504,1,0
184,221,77943,1,0
185,142,78163,1,0
115,193,79260,5,0
108,88,79699,1,0
176,62,79919,1,0
180,142,80797,5,0
105,184,81016,1,0
108,89,81455,1,0
156,86,81675,1,0
188,142,82772,5,0
216,96,83211,1,0
252,75,83650,1,0
183,193,84528,5,0
183,193,85187,1,0
183,193,85406,1,0
98,131,86504,5,0
29,132,86943,1,0
29,132,87162,1,0
116,202,88260,5,0
172,194,88918,1,0
171,151,89357,1,0
109,152,89796,1,0
112,200,90235,1,0
157,200,90674,1,0
162,161,91113,1,0
164,111,91552,1,0
166,68,91991,1,0
163,39,92430,1,0
116,45,92869,1,0
116,80,93308,5,0
119,106,93747,1,0
122,135,94186,1,0
124,162,94625,1,0
192,152,95064,1,0
249,148,95503,1,0
296,147,95942,5,0
368,148,96381,1,0
430,149,96820,1,0
425,206,97479,5,0
362,216,97918,1,0
291,216,98357,1,0
232,219,99235,5,0
181,223,99893,1,0
135,224,100113,1,0
132,180,102308,5,0
132,128,102747,1,0
132,128,102966,1,0
132,128,103186,1,0
180,128,103625,5,0
183,69,104503,1,0
132,72,104942,1,0
122,137,105161,1,0
122,137,105381,1,0
122,137,105600,1,0
175,139,106478,5,0
176,71,106698,1,0
113,76,106917,1,0
116,163,107356,1,0
200,179,108015,5,0
201,123,108454,1,0
114,129,108673,1,0
114,129,108893,1,0
114,129,109332,1,0
100,180,109990,5,0
39,180,110210,1,0
60,105,110429,1,0
60,105,110649,1,0
60,105,110868,1,0
153,123,111746,5,0
144,179,111966,1,0
213,172,112185,1,0
213,172,112405,1,0
213,172,112624,1,0
189,118,113502,5,0
138,131,113722,1,0
137,189,113941,1,0
216,183,114380,1,0
216,183,114600,1,0
258,177,115478,5,0
245,116,115697,1,0
245,116,115917,1,0
245,116,116136,1,0
178,138,116356,1,0
124,187,117234,5,0
124,187,117453,1,0
112,121,117892,1,0
172,88,118112,1,0
316,255,119209,1,0
316,255,119648,1,0
200,256,119868,1,0
268,201,120965,5,0
351,201,121185,1,0
351,201,121404,1,0
351,201,121624,1,0
351,146,121843,1,0
187,208,122941,5,0
187,208,123160,1,0
187,208,123380,1,0
188,242,123599,1,0
269,200,124477,5,0
263,145,124916,1,0
195,151,125136,1,0
193,216,125355,1,0
31,316,126672,5,0
29,242,126892,1,0
29,242,127111,1,0
29,242,127331,1,0
30,183,127989,5,0
31,133,128428,1,0
31,133,128648,1,0
31,133,128867,1,0
31,133,129087,1,0
32,83,129745,5,0
35,150,130184,1,0
35,150,130404,1,0
35,150,130623,1,0
35,150,130843,1,0
68,218,131501,5,0
68,256,131940,1,0
141,272,132379,1,0
183,256,132818,1,0
228,257,133257,1,0
255,258,133696,5,0
294,256,134355,1,0
328,256,134794,1,0
356,256,135233,1,0
383,257,135672,1,0
413,251,136111,1,0
410,227,136550,5,0
408,200,136989,1,0
408,171,137428,1,0
410,138,137867,1,0
408,110,138306,1,0
408,110,138745,1,0
408,110,139184,5,0
343,105,139623,1,0
352,163,140062,1,0
293,172,140501,5,0
230,179,140940,1,0
180,179,141379,1,0
119,180,141818,1,0
55,179,142257,1,0
61,122,142696,1,0
105,116,143135,1,0
165,119,143574,1,0
210,124,146427,5,0
210,124,146647,1,0
210,124,147086,1,0
210,124,147305,1,0
157,128,148183,5,0
113,128,148403,1,0
78,133,148842,1,0
60,158,149061,1,0
98,176,149939,5,0
131,170,150159,1,0
172,171,150817,1,0
172,220,151915,5,0
136,223,152134,1,0
95,225,152573,1,0
91,184,152793,1,0
112,140,153671,5,0
110,95,153890,1,0
115,67,154329,1,0
115,67,154549,1,0
152,67,155427,1,0
150,115,155646,1,0
150,148,156085,1,0
150,148,156305,1,0
197,156,157183,5,0
197,101,157402,1,0
128,107,157841,1,0
128,156,158280,1,0
218,174,159158,5,0
218,174,159378,1,0
218,174,159817,1,0
178,153,160036,1,0
168,223,160914,5,0
168,223,161134,1,0
168,223,161353,1,0
168,223,161573,1,0
135,224,161792,1,0
119,176,162012,1,0
144,177,162890,5,0
144,133,163109,1,0
94,140,163329,1,0
94,140,163548,1,0
95,192,164426,5,0
148,192,164646,1,0
148,192,164865,1,0
148,192,165085,1,0
217,191,165304,1,0
211,251,166182,5,0
165,256,166621,1,0
99,258,166841,1,0
99,258,167060,1,0
48,259,167280,1,0
60,233,168158,5,0
104,236,168377,1,0
144,235,168597,1,0
144,235,168816,1,0
192,231,169036,1,0
180,181,169914,5,0
128,184,170133,1,0
132,144,170353,1,0
132,144,170572,1,0
174,143,170792,1,0
129,136,171889,5,0
129,136,172109,1,0
129,136,172328,1,0
82,155,172548,1,0
72,188,172767,1,0
75,214,173645,5,0
75,214,173865,1,0
75,214,174084,1,0
137,215,174304,1,0
167,176,174523,1,0
144,129,174962,1,0
99,130,175621,1,0
87,192,175840,1,0
87,192,176060,1,0
148,194,176279,1,0
148,194,177157,5,0
98,207,177377,1,0
98,207,177596,1,0
98,207,177816,1,0
93,147,178035,1,0
96,210,179133,5,0
96,210,179352,1,0
96,210,179572,1,0
96,210,179791,1,0
133,208,180011,1,0
135,156,180230,1,0
114,135,181108,5,0
104,192,181328,1,0
104,192,181547,1,0
164,196,181767,1,0
303,191,182645,5,0
278,136,183084,1,0
200,157,183303,1,0
201,208,183523,1,0
274,212,183742,1,0
100,194,184620,5,0
101,155,184840,1,0
101,155,185059,1,0
101,155,185279,1,0
101,120,185498,1,0
155,202,186376,5,0
152,156,186596,1,0
152,156,186815,1,0
152,156,187035,1,0
153,118,187254,1,0
216,200,188352,5,0
216,160,188571,1,0
216,160,188791,1,0
216,123,189230,1,0
178,180,189669,5,0
128,188,190108,1,0
96,181,190547,1,0
93,141,191205,1,0
138,135,191644,1,0
192,137,192083,1,0
240,137,192522,1,0
280,136,192961,1,0
282,180,193400,1,0
246,185,193839,1,0
188,185,194278,1,0
150,186,194717,1,0
150,186,195156,1,0
107,187,195595,5,0
68,185,196034,1,0
70,149,196473,1,0
100,148,196912,1,0
128,148,197571,5,0
160,148,197790,1,0
190,149,198229,1,0
217,150,198888,1,0
255,151,199327,1,0
256,189,199766,1,0
219,192,200205,1,0
185,192,200644,1,0
156,192,201083,1,0
119,192,201522,1,0
90,192,201961,1,0
90,192,202619,5,0
105,155,203058,1,0
105,155,203278,1,0
160,156,203717,1,0
185,156,204156,1,0
221,162,204595,1,0
248,160,205034,1,0
248,160,205473,1,0
266,186,206131,5,0
221,198,206570,1,0
168,191,207009,1,0
112,185,207229,1,0
106,155,207668,5,0
141,137,208326,1,0
179,142,208765,1,0
215,144,208985,1,0
250,143,209424,1,0
