osu file format v5

[General]
AudioFilename: Nickelback - If Everyone Cared.mp3
AudioLeadIn: 0
PreviewTime: -1
Countdown: 1
SampleSet: Normal
StackLeniency: 0.7
Mode: 0
LetterboxInBreaks: 1

[Metadata]
Title:If Everyone Cared
Artist:Nickelback
Creator:Stonned
Version:Hard
Source:
Tags:

[Difficulty]
HPDrainRate:6
CircleSize:7
OverallDifficulty:7
SliderMultiplier:1.4
SliderTickRate:1

[Events]
//Background and Video events
//Break Periods
//Storyboard Layer 0 (Background)
//Storyboard Layer 1 (Failing)
//Storyboard Layer 2 (Passing)
//Storyboard Layer 3 (Foreground)
//Storyboard Sound Samples
//Background Colour Transformations
3,100,163,162,255

[TimingPoints]
6600,920.832,4,1,0,100,1

[HitObjects]
55,49,13736,1,0
55,49,13966,1,0
55,49,14427,1,0
112,48,15347,5,0
156,48,15578,1,0
127,32,16038,1,0
112,48,16268,1,0
147,88,17189,5,0
139,44,17419,1,0
97,68,17880,1,0
100,100,18110,1,0
177,85,19031,5,0
112,76,19261,1,0
112,42,19721,1,0
161,43,19952,1,0
136,104,20872,5,0
59,105,21103,1,0
67,35,21563,1,0
113,36,21793,1,0
164,108,22714,5,0
216,72,22944,1,0
233,137,23405,1,0
146,186,23635,1,0
293,200,24556,5,0
288,136,24786,1,0
220,186,25246,1,0
199,207,25477,1,0
184,149,26397,5,0
240,156,26628,1,0
222,105,27088,1,0
140,124,27318,1,0
176,206,28469,5,0
176,206,28930,1,0
176,206,29390,1,0
101,164,30081,5,0
104,208,31002,1,0
168,160,31922,5,0
168,160,32383,1,0
86,144,32613,1,0
176,226,33534,5,0
176,226,34224,1,0
171,168,34455,1,0
238,218,35606,5,0
235,172,36296,1,0
167,173,36527,1,0
170,224,36987,1,0
88,192,37447,1,0
89,140,37908,1,0
166,140,38138,1,0
160,189,39059,1,0
96,190,39749,1,0
84,140,39980,1,0
138,157,42512,5,0
138,157,42742,1,0
138,157,42972,1,0
138,157,43203,1,0
138,157,43433,1,0
138,157,43663,1,0
190,160,44584,5,0
180,132,44814,1,0
121,129,45044,1,0
121,129,45274,1,0
95,176,45505,1,0
139,170,46425,1,0
117,186,46886,1,0
107,207,47116,1,0
107,207,47346,1,0
183,187,48267,5,0
168,136,48497,1,0
118,147,48728,1,0
118,147,48958,1,0
113,205,49188,1,0
236,188,49879,5,0
230,150,50109,1,0
172,184,50339,1,0
180,209,50569,1,0
180,209,50799,1,0
104,210,51030,1,0
172,149,51720,5,0
244,154,51950,1,0
244,154,52181,1,0
244,154,52411,1,0
309,216,52641,1,0
201,216,53562,5,0
202,165,53792,1,0
140,192,54022,1,0
144,210,54253,1,0
168,248,54483,1,0
235,207,57245,5,0
227,176,57475,1,0
227,176,57706,1,0
227,176,57936,1,0
158,203,58166,1,0
187,244,58857,5,0
130,240,59317,1,0
120,176,59778,1,0
214,178,60238,1,0
160,229,60929,5,0
160,168,61159,1,0
149,118,61619,1,0
93,238,62540,5,0
94,183,62770,1,0
100,115,63461,1,0
168,222,64382,5,0
160,172,64612,1,0
163,114,65303,1,0
163,114,65533,1,0
111,100,66454,5,0
121,152,66684,1,0
121,152,67144,1,0
204,166,68065,5,0
204,93,68295,1,0
204,93,68986,1,0
137,97,69907,5,0
151,187,70137,1,0
208,184,70828,1,0
206,94,71979,5,0
210,195,72439,1,0
210,195,72669,1,0
155,189,73590,5,0
148,124,73820,1,0
84,136,74281,1,0
96,185,74511,1,0
210,156,75432,5,0
201,119,75662,1,0
159,119,76122,1,0
160,160,76353,1,0
112,137,77273,5,0
113,186,77504,1,0
168,190,77964,1,0
165,132,78194,1,0
121,191,79115,5,0
116,126,79345,1,0
174,133,79806,1,0
171,188,80036,1,0
112,175,80957,5,0
114,117,81187,1,0
74,130,81647,1,0
73,173,81878,1,0
194,167,82798,5,0
176,106,83029,1,0
224,114,83259,1,0
241,176,83719,1,0
351,147,84410,5,0
356,88,84640,1,0
268,91,85100,1,0
276,144,85331,1,0
96,160,86251,5,0
226,216,86482,1,0
219,149,86942,1,0
177,188,87172,1,0
120,146,88323,5,0
236,152,88784,1,0
342,156,89244,1,0
433,157,89705,1,0
167,166,90395,5,0
263,166,90625,1,0
362,166,91086,1,0
458,167,91546,1,0
158,164,92007,5,0
278,160,92467,1,0
360,162,92697,1,0
435,158,93158,1,0
164,164,93848,5,0
288,165,94079,1,0
363,166,94539,1,0
449,166,94999,1,0
268,80,95460,5,0
284,148,95920,1,0
187,156,96611,1,0
196,75,97071,1,0
264,83,97532,5,0
268,153,97992,1,0
192,156,99143,5,0
191,82,99834,1,0
191,82,100064,1,0
133,86,102366,5,0
128,130,102826,1,0
128,130,103057,1,0
128,130,103287,1,0
128,130,103517,1,0
128,130,103747,1,0
131,191,104438,5,0
180,187,104668,1,0
176,145,104898,1,0
109,147,105129,1,0
118,189,105589,1,0
116,108,106280,5,0
162,116,106510,1,0
162,116,106740,1,0
162,116,106970,1,0
162,116,107200,1,0
92,120,108121,5,0
95,167,108351,1,0
188,181,108812,1,0
181,104,109042,1,0
115,168,109963,5,0
116,107,110193,1,0
116,107,110423,1,0
116,107,110654,1,0
40,107,110884,1,0
59,175,111805,5,0
50,106,112035,1,0
96,112,112265,1,0
106,186,112495,1,0
165,155,113646,5,0
162,116,113876,1,0
211,125,114107,1,0
217,163,114337,1,0
181,169,114567,1,0
94,140,115718,5,0
96,90,115948,1,0
141,93,116179,1,0
132,135,116409,1,0
95,92,117330,5,0
142,95,117560,1,0
143,51,117790,1,0
90,53,118020,1,0
94,90,118250,1,0
163,188,119171,5,0
162,137,119401,1,0
158,89,119632,1,0
160,39,119862,1,0
109,187,120783,5,0
111,136,121013,1,0
109,74,121473,1,0
112,30,121703,1,0
183,26,122624,5,0
182,73,122855,1,0
184,119,123085,1,0
185,165,123315,1,0
236,173,124466,5,0
230,108,124696,1,0
160,120,124926,1,0
168,172,125157,1,0
214,176,125387,1,0
152,121,126308,5,0
129,79,126538,1,0
87,104,126768,1,0
89,136,126998,1,0
147,151,127228,1,0
219,137,128149,5,0
207,89,128380,1,0
265,100,128610,1,0
268,142,128840,1,0
235,148,129070,1,0
156,149,130221,5,0
154,73,130451,1,0
92,99,130682,1,0
101,140,130912,1,0
209,151,131372,1,0
225,92,131833,1,0
168,91,132293,1,0
167,148,132984,1,0
93,137,133444,1,0
96,82,133905,1,0
167,87,134365,1,0
168,151,134825,5,0
96,150,135286,1,0
92,89,135746,1,0
166,86,136207,1,0
167,148,136437,1,0
97,152,136897,1,0
94,94,137358,1,0
162,88,137818,1,0
162,141,138278,5,0
111,147,138739,1,0
88,90,139199,1,0
164,86,139660,1,0
246,94,140120,1,0
241,52,140350,1,0
162,53,141041,5,0
84,54,141501,1,0
92,121,141962,1,0
163,113,142422,1,0
213,113,142883,1,0
209,152,143343,5,0
148,164,143803,1,0
93,167,144264,1,0
95,219,144955,5,0
153,220,145415,1,0
204,221,145875,1,0
200,176,146336,1,0
140,184,146796,5,0
79,189,147026,1,0
119,118,147257,1,0
208,119,148177,5,0
189,84,148408,1,0
116,110,148638,1,0
115,164,148868,1,0
99,160,150019,5,0
108,118,150249,1,0
162,120,150710,1,0
193,172,150940,1,0
121,201,151861,5,0
124,141,152091,1,0
126,86,152551,1,0
128,51,152782,1,0
175,204,153472,5,0
112,160,154163,1,0
116,212,154393,1,0
180,202,155314,5,0
181,158,155544,1,0
174,122,156004,1,0
111,148,156235,1,0
113,93,157156,5,0
168,92,157386,1,0
167,44,157846,1,0
113,50,158076,1,0
183,194,158997,5,0
197,136,159227,1,0
304,164,159688,1,0
299,239,159918,1,0
184,212,160839,5,0
181,156,161299,5,0
257,227,161529,1,0
185,137,162681,1,0
120,167,162911,1,0
141,215,163141,1,0
205,215,163371,1,0
244,142,163601,1,0
132,164,164522,5,0
132,120,164752,1,0
132,120,164983,1,0
132,120,165213,1,0
185,124,165443,1,0
174,201,166364,5,0
172,132,166594,1,0
100,126,166824,1,0
105,189,167054,1,0
129,200,167285,1,0
215,200,168206,5,0
200,124,168436,1,0
132,122,168666,1,0
132,122,168896,1,0
140,188,169126,1,0
84,196,170047,5,0
84,196,170277,1,0
84,196,170508,1,0
80,169,170738,1,0
136,169,170968,1,0
178,220,171889,5,0
180,176,172119,1,0
121,168,172349,1,0
123,215,172579,1,0
178,220,172810,1,0
177,178,173961,5,0
169,136,174191,1,0
129,144,174421,1,0
129,144,174651,1,0
87,157,175342,5,0
80,115,175572,1,0
129,108,176033,1,0
143,140,176263,1,0
86,160,176493,1,0
77,121,177414,5,0
113,112,177644,1,0
132,152,177874,1,0
112,161,178104,1,0
174,152,178795,5,0
167,113,179025,1,0
199,121,179486,1,0
207,153,179716,1,0
126,161,180867,5,0
126,161,181097,1,0
126,161,181327,1,0
126,161,181558,1,0
114,112,181788,1,0
56,192,182709,5,0
52,154,182939,1,0
125,174,183169,1,0
126,208,183399,1,0
92,214,183629,1,0
83,185,184550,5,0
83,146,184780,1,0
83,146,185011,1,0
134,164,185241,1,0
195,160,186392,5,0
195,160,186622,1,0
184,108,186852,1,0
129,152,187083,1,0
89,152,188464,1,0
89,152,188694,1,0
137,158,189154,1,0
131,118,189615,5,0
84,102,190075,1,0
57,150,190536,1,0
110,182,190996,5,0
148,140,191457,1,0
103,93,191917,1,0
46,136,192377,1,0
94,176,192838,5,0
145,148,193298,1,0
95,104,193759,1,0
49,139,194219,1,0
92,168,194679,1,0
130,148,195140,1,0
99,110,195600,1,0
53,136,196061,1,0
98,160,196521,5,0
120,148,196751,1,0
95,114,197212,1,0
52,126,197672,1,0
94,155,198133,1,0
120,149,198593,1,0
96,116,199053,1,0
72,151,199514,1,0
101,157,200204,1,0
124,151,200435,1,0
150,102,201355,5,0
95,48,201586,1,0
103,171,202507,5,0
169,166,202737,1,0
130,109,203427,5,0
60,132,204118,1,0
76,76,204578,1,0
140,64,205039,1,0
184,128,205499,5,0
156,188,205960,1,0
83,163,206420,1,0
116,102,206880,1,0
164,83,207111,1,0
260,103,207571,5,0
242,157,208031,1,0
178,175,208492,1,0
133,169,208952,1,0
117,110,209413,1,0
