osu file format v7

[General]
AudioFilename: the message - cut.mp3
AudioLeadIn: 0
PreviewTime: 30696
Countdown: 1
SampleSet: Normal
StackLeniency: 0.7
Mode: 0
LetterboxInBreaks: 1

[Editor]
Bookmarks: 21418,66786
DistanceSpacing: 0.800000011920929
BeatDivisor: 4
GridSize: 8

[Metadata]
Title:The Message
Artist:NiNi
Creator:Skyripper
Version:Expert
Source:In The Groove 2
Tags:

[Difficulty]
HPDrainRate:7
CircleSize:6
OverallDifficulty:7
SliderMultiplier:1.7
SliderTickRate:2

[Events]
//Background and Video events
0,0,"TheMessage-BG.jpg"
//Break Periods
2,58868,65888
//Storyboard Layer 0 (Background)
//Storyboard Layer 1 (Fail)
//Storyboard Layer 2 (Pass)
//Storyboard Layer 3 (Foreground)
//Storyboard Sound Samples
//Background Colour Transformations
3,100,163,162,255

[TimingPoints]
22,451.127819548872,4,2,0,100,1,0
6756,-200,4,2,0,100,0,0
7659,-200,4,2,0,0,0,0
7771,-200,4,2,0,100,0,0
8899,-100,4,1,0,71,0,0
30688,-100,4,1,0,71,0,1
44222,-100,4,1,0,71,0,0
66335,-100,4,1,0,36,0,0
68478,-100,4,1,0,51,0,0
70283,-100,4,1,0,65,0,0

[Colours]
Combo1 : 115,252,112
Combo2 : 255,153,91
Combo3 : 255,164,170

[HitObjects]
256,56,7240,2,0,B|256:168,1,85
256,248,8367,1,2
256,248,8593,1,4
256,248,8706,1,0
256,248,8818,1,0
192,248,9044,5,2
192,248,9270,1,0
128,248,9495,1,0
128,248,9721,1,0
152,192,9946,1,2
152,192,10172,1,2
216,192,10397,1,0
216,192,10623,1,0
288,192,10849,6,0,B|288:64,1,85
356,107,11300,2,0,B|356:204,1,85
424,192,11751,2,0,B|424:96,1,85
424,107,12089,1,0
355,107,12315,1,0
355,107,12428,1,0
287,107,12653,5,2
287,107,12879,1,2
288,176,13104,1,0
288,176,13330,1,0
288,240,13555,1,2
288,240,13781,1,2
288,304,14006,1,0
216,304,14232,6,0,B|148:234,1,85,0|4
145,131,14683,2,0,B|204:194,1,85
194,82,15134,2,0,B|133:22,1,85,4|0
352,240,15811,5,0
352,104,16262,5,0
280,104,16488,1,0
280,104,16600,1,0
280,104,16713,1,0
280,104,16939,1,0
176,192,17390,1,0
176,192,17503,1,0
176,192,17615,1,0
176,192,17841,1,0
280,280,18292,6,0,B|280:328,2,42.5
280,280,18743,1,0
384,192,19194,2,0,B|440:192,2,42.5
384,192,19646,1,0
328,152,19871,5,0
280,104,20097,1,0
232,152,20322,1,0
280,200,20548,1,0
232,248,20773,1,0
208,224,20886,1,0
184,200,20999,2,0,B|144:152|96:160|64:232|152:264,1,170
184,296,21676,5,0
232,248,21901,1,0
280,200,22127,1,0
328,152,22352,1,0
376,200,22578,1,0
376,336,22916,5,0
376,336,23029,1,0
376,200,23255,1,0
376,48,23480,1,0
272,48,23818,5,0
272,48,23931,2,0,B|168:48,1,85
136,96,24382,1,0
288,192,24721,5,0
288,192,24834,2,0,B|184:192,1,85
136,192,25285,1,0
272,336,25623,5,0
272,336,25736,2,0,B|168:336,1,85
136,288,26187,1,0
136,192,26412,5,0
136,192,26525,1,0
136,192,26638,1,0
208,192,26864,1,0
275,192,27089,5,0
328,144,27315,1,0
376,192,27540,1,0
328,240,27766,1,0
240,192,27991,5,0
328,104,28217,1,0
416,192,28443,1,0
328,280,28668,1,2
275,191,28894,5,2
328,144,29119,1,2
376,192,29345,1,2
328,240,29570,1,2
328,240,29796,1,6
232,144,30247,1,4
128,232,30698,5,2
128,232,30811,1,0
128,232,30924,1,0
128,176,31149,5,0
184,232,31375,1,0
128,288,31600,1,2
72,232,31826,1,2
128,112,32277,5,0
168,72,32503,1,0
208,112,32728,1,0
248,152,32954,1,0
288,112,33179,1,0
328,72,33405,1,0
328,72,33856,1,0
384,232,34307,5,2
384,232,34420,1,0
384,232,34533,1,0
384,176,34758,5,0
328,232,34984,1,0
384,288,35209,1,2
440,232,35435,1,2
128,272,35886,5,0
168,312,36112,1,0
208,272,36337,1,0
248,232,36563,1,0
288,272,36788,1,0
328,312,37014,1,0
328,312,37465,1,0
208,192,37916,5,2
232,168,38029,1,0
256,144,38142,1,0
304,96,38367,1,0
352,48,38593,1,0
304,96,38818,1,2
352,48,39044,2,0,L|432:80|368:144,1,170,2|0
320,184,39721,5,0
272,232,39946,1,0
224,280,40172,1,0
272,232,40397,1,0
224,280,40623,1,0
320,184,41074,1,0
432,192,41525,5,2
408,168,41638,1,0
384,144,41751,1,0
336,96,41976,1,0
288,48,42202,1,0
336,96,42427,1,2
288,48,42653,2,0,L|208:80|272:144,1,170,2|0
320,184,43330,5,0
368,232,43555,1,0
416,280,43781,1,0
368,232,44006,1,0
416,280,44232,1,4
320,184,44683,1,4
232,216,45134,5,0
232,216,45247,1,0
232,216,45360,1,0
168,192,45585,1,0
208,136,45811,1,0
144,120,46037,1,2
144,120,46149,1,0
144,120,46262,1,2
328,304,46713,5,0
360,248,46939,2,0,L|448:224,1,85
448,160,47390,2,0,L|336:184,1,85
352,104,47841,1,0
360,248,48292,1,0
136,248,48743,6,0,L|88:232,2,42.5
160,184,49194,1,0
224,192,49420,1,0
200,256,49646,1,2
200,256,49871,1,2
352,104,50322,5,0
282,128,50548,2,0,L|336:208,1,85,4|0
392,176,50999,1,0
458,153,51225,2,0,L|416:80,1,85
256,272,52352,5,0
256,272,52465,1,0
256,272,52578,1,0
320,248,52803,1,0
280,192,53029,1,0
344,168,53255,1,2
344,168,53367,1,0
344,168,53480,1,2
160,360,53931,5,0
128,304,54157,2,0,L|40:280,1,85
40,216,54608,2,0,L|152:248,1,85
136,160,55059,1,0
128,304,55510,1,0
352,304,55961,6,0,L|400:288,2,42.5
328,240,56412,1,0
264,248,56638,1,0
288,312,56864,1,2
288,312,57089,1,2
136,160,57540,5,0
72,136,57766,2,0,L|16:232,1,85,4|0
96,232,58217,1,0
160,256,58443,2,0,L|216:168,1,85,4|4
256,264,66788,5,0
256,192,67014,1,0
256,120,67240,1,0
288,120,67353,1,0
320,120,67466,1,0
320,56,67691,1,0
320,56,67804,1,0
320,56,67917,1,0
384,56,68142,1,0
416,56,68255,1,0
448,56,68368,1,0
448,120,68593,5,0
448,120,68706,1,0
448,120,68819,1,0
400,168,69044,2,0,L|360:136,2,42.5
344,208,69495,1,0
400,248,69721,1,0
400,248,69834,1,0
352,296,70059,1,0
352,296,70172,1,0
296,256,70397,5,0
248,304,70623,1,0
200,256,70849,1,0
200,256,70961,1,0
200,256,71074,1,0
248,208,71300,1,0
248,208,71412,1,0
248,208,71525,1,0
248,136,71751,5,0
200,88,71976,1,0
248,40,72202,1,0
296,88,72428,1,0
248,136,72653,1,0
248,136,72766,1,0
200,88,72991,1,0
200,88,73104,1,0
128,88,73330,5,0
88,144,73555,1,0
88,144,73668,1,0
128,200,73894,1,0
128,200,74006,1,0
424,200,74345,5,0
424,200,74458,1,0
352,272,74796,1,0
352,272,74909,1,0
288,272,75134,5,0
256,208,75360,1,0
320,176,75585,1,0
384,144,75811,1,0
320,112,76037,1,0
256,88,76262,1,0
192,112,76488,1,0
136,144,76713,5,0
192,176,76939,1,8
192,240,77164,1,8
136,280,77390,1,0
192,320,77615,1,0
448,320,77954,5,0
448,320,78067,1,0
448,216,78405,1,0
448,216,78518,1,0
392,176,78743,1,0
328,152,78969,1,0
264,152,79194,5,0
200,160,79420,1,0
136,152,79646,1,0
72,128,79871,1,0
112,72,80097,1,0
176,96,80322,1,0
176,96,80548,1,0
176,96,80773,6,0,B|264:80,1,85
328,72,81225,1,0
296,128,81450,1,0
360,144,81676,1,8
320,200,81901,1,0
384,224,82127,1,0
336,272,82352,1,0
336,272,82578,5,8
384,224,82803,1,0
320,200,83029,1,0
360,144,83255,1,0
296,128,83480,1,8
328,72,83706,1,0
328,72,83931,1,0
328,72,84157,2,0,L|288:48|216:72,1,85,0|8
192,88,84608,6,0,L|88:144,2,85
254,60,85285,1,8
254,127,85510,2,0,L|254:239,1,85
254,280,85961,2,0,L|352:280,1,85,0|8
339,211,86412,1,0
339,142,86638,5,0
104,184,87089,1,8
320,88,87540,5,0
384,64,87766,1,12
448,40,87991,1,12
448,176,88443,5,2
448,208,88555,1,0
448,240,88668,1,0
379,240,88894,1,0
379,172,89119,1,0
310,239,89345,5,2
310,172,89570,1,2
216,72,90021,5,0
160,104,90247,1,0
216,72,90473,1,0
216,136,90698,1,0
216,72,90924,1,0
272,104,91149,1,0
216,224,91600,1,0
96,288,92052,5,2
96,320,92164,1,0
96,352,92277,1,0
165,352,92503,1,0
165,289,92728,1,0
234,351,92954,5,2
234,284,93179,1,2
328,184,93630,5,0
384,216,93856,1,4
328,184,94082,1,0
328,248,94307,1,0
328,184,94533,1,0
272,216,94758,1,4
328,336,95209,1,0
272,216,95661,6,0,L|232:176,2,42.5,2|0|0
328,248,96112,1,0
384,216,96337,1,0
328,184,96563,1,2
328,184,96788,1,2
136,104,97240,5,0
108,166,97465,2,0,L|108:262,1,85
164,166,97916,6,0,L|164:254,1,85
136,312,98367,1,0
136,312,98818,1,0
256,248,99270,6,0,L|256:304,2,42.5,2|0|0
256,184,99721,1,0
256,120,99946,1,0
256,48,100172,1,2
256,48,100397,1,2
432,296,100849,5,0
384,248,101074,1,0
335,199,101300,1,0
287,246,101525,1,0
238,294,101751,1,0
239,295,101976,1,4
