osu file format v14

[General]
AudioFilename: Shukusai no Elementalia.mp3
AudioLeadIn: 1000
PreviewTime: 65560
Countdown: 0
SampleSet: Soft
StackLeniency: 0.3
Mode: 0
LetterboxInBreaks: 1
WidescreenStoryboard: 0

[Editor]
DistanceSpacing: 1.5
BeatDivisor: 4
GridSize: 8
TimelineZoom: 2.6

[Metadata]
Title:Shukusai no Elementalia
TitleUnicode:祝祭のエルメンタルア
Artist:Ni-Sokkususu
ArtistUnicode:にーそっくすす
Creator:salinqi
Version:Dance
Source:精霊使いの剣舞
Tags:
BeatmapID:704929
BeatmapSetID:316357

[Difficulty]
HPDrainRate:7
CircleSize:4
OverallDifficulty:8
ApproachRate:9
SliderMultiplier:1.7
SliderTickRate:1

[Events]
//Background and Video events
0,0,"55073 (1).jpg",0,0
//Break Periods
2,130360,135960
2,155560,159413
//Storyboard Layer 0 (Background)
//Storyboard Layer 1 (Fail)
//Storyboard Layer 2 (Pass)
//Storyboard Layer 3 (Foreground)
//Storyboard Sound Samples

[TimingPoints]
2160.95172531016,400,4,2,0,30,1,0
38960,-100,4,2,0,60,0,0
40560,-100,4,2,0,30,0,0
58160,-100,4,2,0,30,0,0
58660,-100,4,2,0,30,0,0
66160,-83.3333333333333,4,2,1,92,0,1
68560,-125,4,2,1,70,0,1
68860,-100,4,2,1,70,0,1
71760,-125,4,2,1,70,0,1
72060,-100,4,2,1,70,0,1
74960,-125,4,2,1,70,0,1
75260,-100,4,2,1,70,0,1
78160,-125,4,2,1,70,0,1
78460,-100,4,2,1,70,0,1
78760,-83.3333333333333,4,2,1,30,0,1
78960,-83.3333333333333,4,2,0,90,0,0
85360,-83.3333333333333,4,2,0,90,0,0
91760,-100,4,2,0,90,0,0
117360,-83.3333333333333,4,2,1,90,0,1
120060,-83.3333333333333,4,2,1,90,0,1
120360,-71.4285714285714,4,2,1,90,0,1
120760,-83.3333333333333,4,2,1,90,0,1
122960,-100,4,2,1,90,0,1
123260,-83.3333333333333,4,2,1,90,0,1
123560,-71.4285714285714,4,2,1,90,0,1
123960,-83.3333333333333,4,2,1,90,0,1
129360,-100,4,2,1,90,0,1
129660,-83.3333333333333,4,2,1,90,0,1
129960,-71.4285714285714,4,2,1,90,0,1
130160,-83.3333333333333,4,2,0,90,0,0
157190,352.941176470588,4,2,0,30,1,0
160013,-83.3333333333333,4,2,1,90,0,1
171219,-83.3333333333333,4,2,0,30,0,0
171307,-71.4285714285714,4,2,1,90,0,1
182601,-83.3333333333333,4,2,0,30,0,0

[Colours]
Combo1 : 255,192,0
Combo2 : 239,37,129
Combo3 : 0,75,168
Combo4 : 242,24,57

[HitObjects]
251,190,2160,5,0,0:0:0:0:
251,190,2560,1,0,0:0:0:0:
107,280,2960,2,0,P|88:211|94:186,1,85
272,280,3360,2,0,P|288:328|283:373,1,85
208,336,3760,5,0,0:0:0:0:
208,336,4160,1,0,0:0:0:0:
456,336,4560,2,0,L|367:351,1,85
378,209,4960,2,0,L|461:194,1,85
432,119,5360,5,0,0:0:0:0:
280,42,5760,1,0,0:0:0:0:
448,23,6160,1,0,0:0:0:0:
432,119,6360,1,0,0:0:0:0:
339,146,6560,1,0,0:0:0:0:
243,132,6760,1,0,0:0:0:0:
368,56,6960,5,0,0:0:0:0:
282,332,7360,1,0,0:0:0:0:
102,279,7760,1,0,0:0:0:0:
288,293,7960,1,0,0:0:0:0:
102,313,8160,1,0,0:0:0:0:
281,259,8360,1,0,0:0:0:0:
9,248,8560,6,0,P|72:180|142:186,1,170
329,169,9360,2,0,B|222:185|222:185|199:113,1,170
344,249,10160,2,0,P|424:281|461:205,1,170
466,35,10960,2,0,B|488:123|488:123|414:162,1,170
66,211,11760,5,4,0:0:0:0:
456,266,12160,1,4,0:0:0:0:
70,320,12560,1,4,0:0:0:0:
452,155,12960,1,4,0:0:0:0:
256,192,13360,12,0,14560,0:0:0:0:
198,211,14960,6,0,L|170:269,1,42.5
291,180,15160,2,0,L|315:131,1,42.5
166,193,15360,2,0,L|132:225,1,42.5
323,193,15560,2,0,L|360:162,1,42.5
267,288,15760,2,0,L|285:334,1,42.5
221,113,15960,2,0,L|194:57,1,42.5
173,302,16160,2,0,L|149:344,1,42.5
364,263,16360,2,0,L|414:282,1,42.5
447,98,16560,6,0,P|407:45|362:37,1,85
375,109,16860,1,0,0:0:0:0:
375,109,16960,1,0,0:0:0:0:
274,39,17160,1,0,0:0:0:0:
225,208,17360,5,0,0:0:0:0:
43,239,17560,1,0,0:0:0:0:
43,239,17660,1,0,0:0:0:0:
43,239,17760,1,0,0:0:0:0:
232,208,17960,1,0,0:0:0:0:
232,208,18160,6,0,L|284:235,1,42.5
400,328,18360,2,0,L|352:300,1,42.5
203,245,18560,2,0,L|255:272,1,42.5
395,168,18760,2,0,L|395:224,1,42.5
440,88,18960,2,0,L|488:56,1,42.5
176,112,19160,2,0,L|136:136,1,42.5
336,80,19360,2,0,L|384:48,1,42.5
267,40,19560,2,0,L|227:64,1,42.5
56,56,19760,6,0,B|80:104|80:104|72:144,1,85
24,192,20060,1,0,0:0:0:0:
24,192,20160,2,0,P|64:216|88:256,1,85
64,320,20460,1,0,0:0:0:0:
112,336,20560,2,0,L|160:352,1,42.5
266,323,20760,2,0,L|224:328,1,42.5
288,240,20960,2,0,P|320:256|348:306,1,85
392,88,21360,5,0,0:0:0:0:
357,63,21460,1,0,0:0:0:0:
317,50,21560,1,0,0:0:0:0:
275,49,21660,1,0,0:0:0:0:
234,60,21760,1,0,0:0:0:0:
198,83,21860,1,0,0:0:0:0:
171,115,21960,1,0,0:0:0:0:
154,154,22060,1,0,0:0:0:0:
168,200,22160,5,0,0:0:0:0:
202,175,22260,1,0,0:0:0:0:
221,137,22360,1,0,0:0:0:0:
223,95,22460,1,0,0:0:0:0:
206,57,22560,1,0,0:0:0:0:
174,29,22660,1,0,0:0:0:0:
133,19,22760,1,0,0:0:0:0:
92,27,22860,1,0,0:0:0:0:
56,48,22960,6,0,P|40:96|48:160,1,85
72,200,23260,1,0,0:0:0:0:
72,200,23360,2,0,L|88:248,2,42.5
176,296,23660,1,0,0:0:0:0:
176,296,23760,6,0,P|120:312|88:344,1,85
288,344,24160,2,0,P|344:328|376:296,1,85
360,40,24560,5,0,0:0:0:0:
387,72,24660,1,0,0:0:0:0:
401,112,24760,1,0,0:0:0:0:
399,154,24860,1,0,0:0:0:0:
382,193,24960,1,0,0:0:0:0:
352,222,25060,1,0,0:0:0:0:
313,239,25160,1,0,0:0:0:0:
271,241,25260,1,0,0:0:0:0:
240,216,25360,5,0,0:0:0:0:
272,188,25460,1,0,0:0:0:0:
312,176,25560,1,0,0:0:0:0:
354,179,25660,1,0,0:0:0:0:
392,199,25760,1,0,0:0:0:0:
419,231,25860,1,0,0:0:0:0:
432,271,25960,1,0,0:0:0:0:
429,313,26060,1,0,0:0:0:0:
416,352,26160,6,0,B|360:376|360:376|312:376,1,85
272,352,26460,1,0,0:0:0:0:
272,352,26560,2,0,L|168:352,1,85
128,304,26860,1,0,0:0:0:0:
128,304,26960,6,0,L|112:360,1,42.5
112,168,27160,6,0,L|96:224,1,42.5
96,44,27360,6,0,L|80:100,1,42.5
208,112,27760,6,0,L|296:128,1,85
291,127,28060,1,0,0:0:0:0:
291,127,28160,1,0,0:0:0:0:
376,224,28360,1,0,0:0:0:0:
272,272,28560,2,0,B|224:256|224:256|176:272,1,85
352,344,28960,2,0,B|400:360|400:360|448:344,1,85
464,288,29260,1,0,0:0:0:0:
464,288,29360,6,0,L|488:184,1,85
424,128,29760,1,0,0:0:0:0:
312,200,29960,1,0,0:0:0:0:
416,96,30160,1,0,0:0:0:0:
288,72,30360,1,0,0:0:0:0:
176,152,30560,2,0,P|112:152|80:128,1,85
80,120,30860,1,0,0:0:0:0:
56,104,30960,6,0,L|48:208,1,85
160,336,31360,2,0,L|166:251,1,85
240,208,31660,1,0,0:0:0:0:
240,208,31760,2,0,L|236:256,2,42.5
352,96,32160,1,0,0:0:0:0:
400,336,32360,1,0,0:0:0:0:
488,240,32560,6,0,P|496:184|480:136,1,85
352,96,32960,2,0,P|320:48|280:32,1,85
128,144,33360,1,0,0:0:0:0:
336,240,33560,1,0,0:0:0:0:
208,88,33760,1,0,0:0:0:0:
80,232,33960,1,0,0:0:0:0:
80,232,34060,1,0,0:0:0:0:
80,232,34160,6,0,P|88:296|112:320,1,85
144,328,34460,1,0,0:0:0:0:
144,328,34560,2,0,B|184:312|184:312|248:336,1,85
304,328,34960,1,0,0:0:0:0:
371,160,35160,1,0,0:0:0:0:
254,210,35360,1,0,0:0:0:0:
421,278,35560,1,0,0:0:0:0:
176,152,35760,6,0,P|160:208|168:240,1,85
336,56,36160,2,0,P|272:56|240:80,1,85
104,40,36560,1,0,0:0:0:0:
104,40,36760,1,0,0:0:0:0:
304,136,36960,1,0,0:0:0:0:
184,304,37160,2,0,L|192:360,2,42.5
264,248,37560,1,0,0:0:0:0:
264,248,37660,1,0,0:0:0:0:
264,248,37760,6,0,L|280:352,1,85
360,216,38160,2,0,P|400:248|448:256,1,85
384,104,38560,2,0,P|440:80|464:48,1,85
384,24,38860,1,0,0:0:0:0:
384,24,38960,6,0,L|272:32,2,85,4|0|0,0:0|0:0|0:0,0:0:0:0:
216,56,39560,1,0,0:0:0:0:
136,120,39760,2,0,L|24:128,2,85,4|0|4,0:0|0:0|0:0,0:0:0:0:
296,128,40360,1,0,0:0:0:0:
296,128,40560,6,0,B|304:176|304:176|328:216,1,85
336,240,40860,1,0,0:0:0:0:
336,240,40960,2,0,L|368:328,1,85
248,360,41360,2,0,P|192:368|136:352,1,85
48,272,41760,2,0,P|104:264|160:280,1,85
219,237,42160,6,0,P|227:181|219:141,1,85
115,37,42560,2,0,P|110:79|118:120,1,85
315,133,42960,2,0,P|379:125|411:141,1,85
219,237,43360,2,0,P|155:245|123:229,1,85
392,352,43760,6,0,B|344:344|344:344|280:368,1,85
284,341,44060,1,0,0:0:0:0:
257,328,44160,2,0,P|206:337|159:352,1,85
0,210,44560,1,0,0:0:0:0:
140,59,44760,1,0,0:0:0:0:
15,83,44960,1,0,0:0:0:0:
202,170,45160,1,0,0:0:0:0:
115,263,45360,6,0,P|64:297|44:331,1,85
257,328,45760,2,0,P|308:294|328:260,1,85
215,86,46160,1,0,0:0:0:0:
195,269,46360,1,0,0:0:0:0:
37,154,46560,1,0,0:0:0:0:
270,209,46760,2,0,L|326:215,1,42.5
423,174,46960,6,0,L|321:164,1,85
295,107,47260,1,0,0:0:0:0:
295,107,47360,2,0,P|331:77|374:79,1,85
421,346,47760,1,0,0:0:0:0:
426,259,47960,1,0,0:0:0:0:
336,298,48160,1,0,0:0:0:0:
510,310,48360,1,0,0:0:0:0:
276,367,48560,6,0,P|253:326|252:286,1,85
262,266,48860,1,0,0:0:0:0:
274,249,48960,1,0,0:0:0:0:
86,315,49160,1,0,0:0:0:0:
173,186,49360,2,0,L|64:200,1,85
290,113,49760,1,0,0:0:0:0:
331,107,49860,1,0,0:0:0:0:
368,127,49960,1,0,0:0:0:0:
388,163,50060,1,0,0:0:0:0:
384,205,50160,6,0,L|439:301,2,85
477,37,50760,1,0,0:0:0:0:
505,199,50960,2,0,P|505:300|479:328,1,127.5
414,316,51360,2,0,L|402:365,2,42.5
246,322,51760,6,0,L|149:327,1,85
63,222,52160,2,0,L|148:218,1,85
293,37,52560,1,0,0:0:0:0:
430,37,52760,1,0,0:0:0:0:
145,109,52960,5,0,0:0:0:0:
8,109,53160,1,0,0:0:0:0:
294,201,53360,6,0,P|357:188|388:150,1,85
313,117,53660,1,0,0:0:0:0:
234,142,53760,2,0,P|212:188|223:237,1,85
348,339,54160,2,0,P|408:335|451:351,1,85
142,255,54560,2,0,P|79:246|44:262,1,85
100,337,54960,6,0,P|145:349|198:329,1,85
217,270,55260,1,0,0:0:0:0:
261,336,55360,2,0,B|263:351|256:378,2,42.5
270,202,55760,2,0,P|271:142|265:102,1,85
118,39,56160,2,0,P|114:81|115:123,1,85
37,254,56560,6,0,P|87:235|110:200,1,85
35,175,56860,1,0,0:0:0:0:
105,211,56960,2,0,L|190:236,1,85
246,122,57360,1,0,0:0:0:0:
159,315,57560,1,0,0:0:0:0:
337,242,57760,2,0,P|389:240|422:258,1,85
438,278,58060,1,0,0:0:0:0:
459,300,58160,6,0,L|450:228,2,42.5,8|0|0,0:0|0:0|0:0,0:0:0:0:
360,112,58560,2,0,L|351:46,1,42.5,12|0,0:0|0:0,0:0:0:0:
273,24,58760,2,0,P|280:104|304:128,1,85
337,242,59160,1,0,0:0:0:0:
212,164,59360,2,0,P|166:141|122:137,1,85
64,167,59660,1,0,0:0:0:0:
64,167,59760,6,0,P|61:112|83:80,1,85
170,235,60160,2,0,P|173:290|151:322,1,85
15,356,60560,2,0,P|63:342|123:369,1,85
232,340,60960,2,0,P|265:307|279:255,1,85
331,18,61360,6,0,L|342:109,1,85
455,91,61760,2,0,L|418:190,1,85
230,145,62160,2,0,L|241:236,1,85
453,355,62560,2,0,L|483:276,1,85
256,192,62960,12,0,64160,0:0:0:0:
256,192,64560,12,0,65760,0:0:0:0:
114,159,66160,6,0,P|192:112|216:120,1,101.999996887207
192,200,66460,1,0,0:0:0:0:
192,200,66560,1,8,0:0:0:0:
351,268,66760,1,0,0:0:0:0:
216,61,66960,1,0,0:0:0:0:
409,155,67160,1,0,0:0:0:0:
216,61,67360,1,8,0:0:0:0:
456,59,67560,1,0,0:0:0:0:
283,217,67760,6,0,P|248:269|214:289,1,101.999996887207
30,341,68160,2,0,L|137:323,1,101.999996887207,8|0,0:0|0:0,0:0:0:0:
80,256,68460,1,0,0:0:0:0:
80,256,68560,6,0,L|56:158,1,68,8|0,0:0|0:0,0:0:0:0:
48,118,68860,6,0,P|88:94|128:102,1,85,8|0,0:0|0:0,0:0:0:0:
192,128,69160,1,8,0:0:0:0:
384,352,69360,6,0,L|272:368,1,85
292,293,69660,1,0,0:0:0:0:
292,293,69760,2,0,L|208:304,1,85,8|0,0:0|0:0,0:0:0:0:
360,80,70160,1,0,0:0:0:0:
480,200,70360,1,0,0:0:0:0:
256,208,70560,1,8,0:0:0:0:
472,120,70760,1,0,0:0:0:0:
152,216,70960,2,0,P|168:160|200:120,1,85
376,296,71360,2,0,P|352:344|312:376,1,85,8|0,0:0|0:0,0:0:0:0:
56,344,71760,6,0,L|152:336,1,68,4|0,0:0|0:0,0:0:0:0:
256,336,72060,6,0,P|200:320|192:272,1,85,4|0,0:0|0:0,0:0:0:0:
256,264,72360,1,4,0:0:0:0:
370,181,72560,6,0,P|377:222|368:264,1,85,4|0,0:0|0:0,0:0:0:0:
296,216,72860,1,0,0:0:0:0:
296,216,72960,2,0,L|288:120,1,85,8|0,0:0|0:0,0:0:0:0:
449,92,73360,1,0,0:0:0:0:
208,280,73560,1,0,0:0:0:0:
470,243,73760,1,8,0:0:0:0:
186,129,73960,1,0,0:0:0:0:
307,34,74160,6,0,L|320:136,1,85
350,338,74560,2,0,P|368:288|408:280,1,85,8|0,0:0|0:0,0:0:0:0:
424,352,74860,1,0,0:0:0:0:
350,338,74960,6,0,L|256:352,1,68,8|0,0:0|0:0,0:0:0:0:
128,336,75260,6,0,L|224:320,1,85,8|0,0:0|0:0,0:0:0:0:
272,224,75560,1,8,0:0:0:0:
104,152,75760,6,0,L|48:160,2,42.5
176,40,76060,1,0,0:0:0:0:
176,40,76160,2,0,L|64:56,1,85,8|0,0:0|0:0,0:0:0:0:
288,152,76560,2,0,P|320:192|360:200,1,85
360,128,76860,1,0,0:0:0:0:
360,128,76960,1,8,0:0:0:0:
400,352,77160,5,0,0:0:0:0:
184,272,77360,1,0,0:0:0:0:
384,208,77560,1,0,0:0:0:0:
128,208,77760,1,8,0:0:0:0:
432,272,77960,1,0,0:0:0:0:
171,111,78160,6,0,P|184:81|213:63,1,68,4|0,0:0|0:0,0:0:0:0:
329,127,78460,6,0,L|245:135,1,85,4|0,0:0|0:0,0:0:0:0:
282,214,78760,6,0,L|402:206,1,101.999996887207,2|4,0:0|0:0,0:0:0:0:
352,288,79760,1,0,0:0:0:0:
88,336,80560,1,0,0:0:0:0:
104,168,81360,5,0,0:0:0:0:
104,168,81560,1,0,0:0:0:0:
104,168,81760,1,0,0:0:0:0:
440,312,82160,5,0,0:0:0:0:
88,264,82960,1,0,0:0:0:0:
176,40,83760,5,0,0:0:0:0:
352,176,84560,5,0,0:0:0:0:
352,176,84760,1,0,0:0:0:0:
352,176,84960,1,0,0:0:0:0:
112,288,85360,6,0,B|136:304|176:296,1,50.9999984436036
240,232,85560,2,0,B|256:208|248:168,1,50.9999984436036
184,120,85760,2,0,B|160:104|120:112,1,50.9999984436036
64,168,85960,2,0,B|48:192|56:232,1,50.9999984436036
120,280,86160,6,0,P|160:328|160:336,1,50.9999984436036
232,360,86360,2,0,B|240:336|272:320,1,50.9999984436036
372,229,86560,2,0,L|344:272,1,50.9999984436036
432,288,86760,2,0,L|403:330,1,50.9999984436036
447,183,86960,6,0,P|390:137|318:155,1,152.999995330811
240,208,87360,1,0,0:0:0:0:
227,185,87460,1,0,0:0:0:0:
223,160,87560,1,0,0:0:0:0:
227,135,87660,1,0,0:0:0:0:
239,112,87760,2,0,P|240:64|128:48,1,152.999995330811
96,56,88160,2,0,L|32:48,2,50.9999984436036
40,216,88560,6,0,L|48:272,1,50.9999984436036
120,248,88760,2,0,L|128:304,1,50.9999984436036
200,280,88960,2,0,L|208:336,1,50.9999984436036
280,312,89160,2,0,L|288:368,1,50.9999984436036
384,224,89360,6,0,L|376:168,1,50.9999984436036
304,192,89560,2,0,L|296:136,1,50.9999984436036
224,160,89760,2,0,L|216:104,1,50.9999984436036
144,128,89960,2,0,L|136:72,1,50.9999984436036
54,25,90160,6,0,L|75:146,1,101.999996887207
146,128,90460,1,0,0:0:0:0:
142,128,90560,2,0,P|184:88|239:82,1,101.999996887207
313,113,90860,1,0,0:0:0:0:
408,86,90960,6,0,L|463:82,1,50.9999984436036
449,158,91160,2,0,L|501:157,1,50.9999984436036
498,234,91360,1,0,0:0:0:0:
498,234,91760,6,0,P|470:309|440:315,1,85
404,280,92060,1,0,0:0:0:0:
404,280,92160,2,0,P|402:339|441:377,1,85
279,286,92560,2,0,L|241:187,1,85
77,88,92960,2,0,L|114:174,1,85
74,214,93260,2,0,L|93:261,1,42.5
162,343,93560,1,0,0:0:0:0:
214,69,93760,5,0,0:0:0:0:
180,168,93960,1,0,0:0:0:0:
408,136,94160,1,0,0:0:0:0:
298,133,94360,1,0,0:0:0:0:
392,282,94560,2,0,P|317:283|299:272,1,85
207,250,94860,2,0,L|265:250,1,42.5
456,221,95160,1,0,0:0:0:0:
456,221,95260,1,0,0:0:0:0:
456,221,95360,6,0,P|476:275|466:313,1,85
207,250,95760,2,0,L|302:249,1,85
94,324,96160,1,0,0:0:0:0:
334,144,96360,1,0,0:0:0:0:
334,144,97960,2,0,L|358:93,2,42.5
237,80,98360,6,0,P|198:118|181:153,1,85
255,333,98760,1,0,0:0:0:0:
143,271,98960,1,0,0:0:0:0:
369,271,99160,2,0,L|400:320,1,42.5
336,360,99360,1,0,0:0:0:0:
345,180,99560,1,0,0:0:0:0:
461,42,99760,6,0,P|481:97|476:147,1,85
456,157,100060,1,0,0:0:0:0:
456,157,100160,1,0,0:0:0:0:
314,67,100360,1,0,0:0:0:0:
213,197,100560,1,0,0:0:0:0:
73,129,100760,2,0,L|117:122,2,42.5
128,320,101160,2,0,L|172:313,2,42.5
40,328,101560,6,0,L|144:320,1,85
304,368,101960,1,0,0:0:0:0:
192,216,102160,1,0,0:0:0:0:
304,336,102360,1,0,0:0:0:0:
408,208,102560,1,0,0:0:0:0:
192,344,102760,1,0,0:0:0:0:
88,64,104560,6,0,P|104:128|96:168,1,85
56,200,104860,1,0,0:0:0:0:
56,200,104960,2,0,L|72:296,1,85
240,344,105360,1,0,0:0:0:0:
272,176,105560,1,0,0:0:0:0:
416,272,105760,1,0,0:0:0:0:
448,56,105960,2,0,L|440:112,1,42.5
352,176,106160,6,0,P|328:120|240:104,1,127.5
176,32,106560,2,0,L|200:128,1,85
104,304,106960,1,0,0:0:0:0:
248,200,107160,1,0,0:0:0:0:
40,248,107360,1,0,0:0:0:0:
216,280,107560,1,0,0:0:0:0:
216,280,107660,1,0,0:0:0:0:
216,280,107760,6,0,P|280:280|304:256,1,85
272,112,108160,2,0,P|208:112|184:136,1,85
48,168,108560,2,0,L|32:72,1,85
80,24,108860,1,0,0:0:0:0:
136,72,108960,2,0,P|120:104|88:128,2,42.5
288,24,109360,6,0,L|400:32,1,85
464,152,109760,2,0,P|472:208|456:248,1,85
360,336,110160,2,0,L|256:328,1,85
112,240,110560,1,0,0:0:0:0:
144,266,110660,1,0,0:0:0:0:
151,306,110760,1,0,0:0:0:0:
129,342,110860,1,0,0:0:0:0:
89,353,110960,6,0,L|32:352,2,42.5
256,224,111360,2,0,L|313:222,2,42.5
48,152,111760,6,0,L|-9:150,2,42.5
214,22,112160,2,0,L|271:20,2,42.5
424,72,112560,6,0,P|368:112|352:152,1,85
120,112,112960,2,0,P|176:152|192:192,1,85
200,312,113360,2,0,L|88:312,1,85
352,248,113760,2,0,L|456:248,1,85
256,192,114160,12,0,115560,0:0:0:0:
256,192,115760,12,0,116960,0:0:0:0:
120,120,117360,6,0,L|144:232,1,101.999996887207
160,288,117660,1,0,0:0:0:0:
160,288,117760,1,8,0:0:0:0:
248,40,117960,1,0,0:0:0:0:
120,120,118160,1,0,0:0:0:0:
305,139,118360,1,0,0:0:0:0:
120,120,118560,1,8,0:0:0:0:
409,62,118760,1,0,0:0:0:0:
232,232,118960,6,0,P|272:264|336:264,1,101.999996887207
368,208,119260,1,0,0:0:0:0:
320,272,119360,2,0,P|304:328|328:376,1,101.999996887207,8|0,0:0|0:0,0:0:0:0:
152,344,119760,6,0,L|56:328,1,85,4|0,0:0|0:0,0:0:0:0:
40,256,120060,6,0,P|104:200|104:168,1,101.999996887207,4|0,0:0|0:0,0:0:0:0:
168,128,120360,6,0,B|200:160|192:208|192:208|264:176,1,118.999996368408,4|0,0:0|0:0,0:0:0:0:
320,72,120760,5,0,0:0:0:0:
299,57,120860,1,0,0:0:0:0:
275,49,120960,1,8,0:0:0:0:
416,168,121160,1,0,0:0:0:0:
221,195,121360,1,0,0:0:0:0:
429,86,121560,1,0,0:0:0:0:
196,220,121760,1,8,0:0:0:0:
452,67,121960,1,0,0:0:0:0:
361,255,122160,6,0,P|363:311|341:356,1,101.999996887207
224,336,122460,2,0,L|220:278,1,50.9999984436036,0|8,0:0|0:0,0:0:0:0:
142,138,122760,1,0,0:0:0:0:
221,195,122960,6,0,P|243:136|233:101,1,85,8|0,0:0|0:0,0:0:0:0:
131,36,123260,6,0,L|143:149,1,101.999996887207,8|0,0:0|0:0,0:0:0:0:
70,215,123560,6,0,L|58:91,1,118.999996368408,8|4,0:0|0:0,0:0:0:0:
305,97,123960,1,0,0:0:0:0:
432,271,124160,1,8,0:0:0:0:
432,56,124360,1,0,0:0:0:0:
305,230,124560,1,0,0:0:0:0:
305,230,124660,1,0,0:0:0:0:
305,230,124760,1,0,0:0:0:0:
509,163,124960,1,8,0:0:0:0:
305,97,125160,5,0,0:0:0:0:
432,271,125360,2,0,L|448:328,1,50.9999984436036
384,368,125560,2,0,B|328:368|328:368|288:328,1,101.999996887207,0|8,0:0|0:0,0:0:0:0:
171,231,125960,1,0,0:0:0:0:
56,288,126160,2,0,L|32:336,2,50.9999984436036
90,91,126560,2,0,L|130:54,2,50.9999984436036,8|0|0,0:0|0:0|0:0,0:0:0:0:
151,147,126960,2,0,P|190:105|239:89,1,101.999996887207
279,152,127260,1,0,0:0:0:0:
306,77,127360,6,0,P|281:28|230:13,1,101.999996887207,8|0,0:0|0:0,0:0:0:0:
188,244,127760,2,0,L|174:304,1,50.9999984436036
261,337,127960,1,0,0:0:0:0:
401,202,128160,1,8,0:0:0:0:
149,258,128360,1,0,0:0:0:0:
434,188,128560,5,0,0:0:0:0:
434,188,128760,1,0,0:0:0:0:
194,161,128960,1,8,0:0:0:0:
194,161,129160,1,0,0:0:0:0:
35,20,129360,6,0,P|66:78|68:117,1,85,4|0,0:0|0:0,0:0:0:0:
137,30,129660,6,0,P|196:53|241:93,1,101.999996887207,4|0,0:0|0:0,0:0:0:0:
281,29,129960,6,0,L|420:40,1,118.999996368408,12|4,0:0|0:0,0:0:0:0:
107,228,136560,6,0,L|94:175,3,50.9999984436036
96,127,136960,1,0,0:0:0:0:
131,91,137060,1,0,0:0:0:0:
180,81,137160,1,0,0:0:0:0:
227,100,137260,1,0,0:0:0:0:
268,130,137360,6,0,L|335:130,3,50.9999984436036
369,126,137760,1,0,0:0:0:0:
418,137,137860,1,0,0:0:0:0:
461,164,137960,1,0,0:0:0:0:
493,203,138060,1,0,0:0:0:0:
457,328,138160,6,0,P|434:273|383:250,1,101.999996887207
348,253,138460,1,0,0:0:0:0:
341,303,138560,2,0,L|279:309,1,50.9999984436036
178,354,138760,2,0,L|228:349,1,50.9999984436036
222,267,138960,6,0,L|19:286,1,203.999993774414
364,0,139760,6,0,L|419:26,1,50.9999984436036
424,96,139960,2,0,L|444:153,1,50.9999984436036
408,216,140160,2,0,L|382:271,1,50.9999984436036
328,312,140360,2,0,L|270:332,1,50.9999984436036
104,312,140560,6,0,L|152:294,1,50.9999984436036
222,267,140760,2,0,L|258:176,1,50.9999984436036
272,144,140960,2,0,L|254:95,1,50.9999984436036
208,32,141160,2,0,L|161:10,1,50.9999984436036
22,11,141360,6,0,L|50:134,1,101.999996887207
140,148,141660,1,0,0:0:0:0:
140,148,141760,2,0,L|162:251,1,101.999996887207
256,247,142060,1,0,0:0:0:0:
256,247,142160,2,0,L|238:177,1,50.9999984436036
278,149,142360,2,0,L|260:79,1,50.9999984436036
300,50,142560,2,0,L|282:-20,2,50.9999984436036
448,152,142960,6,0,P|480:192|480:200,1,50.9999984436036
488,240,143160,2,0,P|482:290|476:296,1,50.9999984436036
456,328,143360,2,0,P|416:360|408:359,1,50.9999984436036
368,360,143560,2,0,P|317:354|311:348,1,50.9999984436036
144,352,143760,6,0,P|112:312|112:304,1,50.9999984436036
104,264,143960,2,0,P|109:213|115:207,1,50.9999984436036
136,176,144160,2,0,P|176:144|184:144,1,50.9999984436036
224,144,144360,2,0,P|274:149|280:155,1,50.9999984436036
368,232,144560,6,0,L|384:184,2,50.9999984436036
336,104,144960,2,0,L|352:56,2,50.9999984436036
176,32,145360,2,0,L|64:64,1,101.999996887207
32,216,145760,1,0,0:0:0:0:
184,296,145960,1,0,0:0:0:0:
304,320,146160,6,0,P|303:294|295:270,3,50.9999984436036
288,224,146560,1,0,0:0:0:0:
248,192,146660,1,0,0:0:0:0:
199,180,146760,1,0,0:0:0:0:
149,192,146860,1,0,0:0:0:0:
112,232,146960,6,0,P|96:272|96:296,3,50.9999984436036
118,324,147360,1,0,0:0:0:0:
153,359,147460,1,0,0:0:0:0:
203,361,147560,1,0,0:0:0:0:
422,282,147760,6,0,L|463:163,1,101.999996887207,4|0,0:0|0:0,0:0:0:0:
302,45,148160,2,0,L|337:167,1,101.999996887207,4|0,0:0|0:0,0:0:0:0:
213,248,148560,2,0,L|185:150,1,101.999996887207,4|0,0:0|0:0,0:0:0:0:
80,29,148960,2,0,L|39:148,1,101.999996887207,4|0,0:0|0:0,0:0:0:0:
52,295,149360,6,0,P|76:247|77:274,1,152.999995330811
143,332,149760,2,0,P|157:303|166:332,1,50.9999984436036,4|0,0:0|0:0,0:0:0:0:
245,343,149960,2,0,P|264:317|267:347,1,50.9999984436036
373,192,150160,6,0,P|349:144|348:171,1,152.999995330811
282,229,150560,2,0,P|268:200|259:229,1,50.9999984436036,4|0,0:0|0:0,0:0:0:0:
180,240,150760,2,0,P|160:214|157:244,1,50.9999984436036
71,201,150960,6,0,L|60:139,2,50.9999984436036,4|0|0,0:0|0:0|0:0,0:0:0:0:
159,113,151360,2,0,L|173:55,2,50.9999984436036,4|0|0,0:0|0:0|0:0,0:0:0:0:
327,58,151760,2,0,L|259:73,2,50.9999984436036,4|0|0,0:0|0:0|0:0,0:0:0:0:
451,116,152160,2,0,L|500:105,2,50.9999984436036,4|0|0,0:0|0:0|0:0,0:0:0:0:
454,202,152560,5,4,0:0:0:0:
426,244,152660,1,0,0:0:0:0:
389,279,152760,1,0,0:0:0:0:
345,304,152860,1,0,0:0:0:0:
296,318,152960,1,0,0:0:0:0:
245,319,153060,1,0,0:0:0:0:
195,307,153160,1,0,0:0:0:0:
150,284,153260,1,0,0:0:0:0:
112,251,153360,5,4,0:0:0:0:
162,244,153460,1,0,0:0:0:0:
200,212,153560,1,0,0:0:0:0:
217,164,153660,1,0,0:0:0:0:
206,115,153760,1,0,0:0:0:0:
171,79,153860,1,0,0:0:0:0:
122,67,153960,1,0,0:0:0:0:
74,82,154060,1,0,0:0:0:0:
41,121,154160,5,4,0:0:0:0:
89,134,154260,1,0,0:0:0:0:
140,139,154360,1,0,0:0:0:0:
191,138,154460,1,0,0:0:0:0:
242,137,154560,1,4,0:0:0:0:
293,135,154660,1,0,0:0:0:0:
344,134,154760,1,0,0:0:0:0:
395,138,154860,1,0,0:0:0:0:
445,149,154960,5,4,0:0:0:0:
93,218,155160,5,4,0:0:0:0:
472,56,155360,5,4,0:0:0:0:
141,82,160013,6,0,L|164:204,1,101.999996887207
363,177,160366,2,0,L|313:285,1,101.999996887207,8|0,0:0|0:0,0:0:0:0:
108,237,160719,1,0,0:0:0:0:
239,69,160895,1,0,0:0:0:0:
244,273,161072,1,8,0:0:0:0:
56,152,161248,1,0,0:0:0:0:
350,75,161425,6,0,L|478:43,1,101.999996887207
204,194,161778,2,0,L|332:162,1,101.999996887207,8|0,0:0|0:0,0:0:0:0:
386,247,162131,2,0,L|514:215,1,101.999996887207
415,159,162395,1,0,0:0:0:0:
386,247,162484,2,0,P|378:301|418:331,1,101.999996887207,8|0,0:0|0:0,0:0:0:0:
243,346,162837,6,0,P|221:291|176:258,1,101.999996887207
56,152,163190,2,0,P|78:207|123:240,1,101.999996887207,8|0,0:0|0:0,0:0:0:0:
170,126,163542,2,0,P|182:68|222:33,1,101.999996887207
383,79,163895,2,0,L|268:95,1,101.999996887207,8|0,0:0|0:0,0:0:0:0:
179,282,164248,1,0,0:0:0:0:
271,41,164425,1,0,0:0:0:0:
439,209,164601,1,8,0:0:0:0:
271,85,164778,1,0,0:0:0:0:
106,204,164954,6,0,P|81:255|89:304,1,101.999996887207,4|0,0:0|0:0,0:0:0:0:
152,376,165219,2,0,P|208:372|247:340,1,101.999996887207,4|0,0:0|0:0,0:0:0:0:
278,251,165484,2,0,P|246:203|199:186,1,101.999996887207,4|0,0:0|0:0,0:0:0:0:
74,78,165837,5,0,0:0:0:0:
271,41,166013,2,0,P|339:40|379:58,1,101.999996887207,8|0,0:0|0:0,0:0:0:0:
372,222,166366,2,0,L|479:202,2,101.999996887207,0|0|8,0:0|0:0|0:0,0:0:0:0:
193,188,166895,1,0,0:0:0:0:
126,348,167072,2,0,P|113:286|72:247,1,101.999996887207
280,202,167425,2,0,P|273:261|294:311,1,101.999996887207,8|0,0:0|0:0,0:0:0:0:
363,61,167778,2,0,L|344:177,1,101.999996887207,0|0,0:0|0:0,0:0:0:0:
280,200,168042,1,0,0:0:0:0:
280,202,168131,2,0,P|273:261|294:311,1,101.999996887207,8|0,0:0|0:0,0:0:0:0:
120,352,168484,6,0,L|8:336,1,101.999996887207
296,352,168837,2,0,L|396:366,1,101.999996887207,8|0,0:0|0:0,0:0:0:0:
80,216,169190,2,0,L|192:232,1,101.999996887207
240,88,169542,2,0,L|352:104,1,101.999996887207,8|0,0:0|0:0,0:0:0:0:
432,256,169895,2,0,L|464:208,2,50.9999984436036
464,352,170248,2,0,L|496:304,2,50.9999984436036,8|0|0,0:0|0:0|0:0,0:0:0:0:
336,176,170601,2,0,P|328:232|280:272,1,101.999996887207,4|0,0:0|0:0,0:0:0:0:
248,200,170866,2,0,P|192:232|144:232,1,101.999996887207,4|0,0:0|0:0,0:0:0:0:
168,152,171131,2,0,L|64:152,1,101.999996887207,4|0,0:0|0:0,0:0:0:0:
56,312,171484,1,0,0:0:0:0:
112,64,171660,5,8,0:0:0:0:
248,200,171837,1,0,0:0:0:0:
56,312,172013,2,0,B|24:248|24:248|40:192,2,118.999996368408,0|0|8,0:0|0:0|0:0,0:0:0:0:
264,48,172542,1,0,0:0:0:0:
360,128,172719,6,0,L|480:104,2,118.999996368408,0|0|8,0:0|0:0|0:0,0:0:0:0:
200,176,173248,1,0,0:0:0:0:
376,304,173425,2,0,P|304:304|272:272,1,118.999996368408
384,224,173690,1,0,0:0:0:0:
384,224,173778,2,0,P|448:264|456:304,1,118.999996368408,8|0,0:0|0:0,0:0:0:0:
272,273,174131,1,0,0:0:0:0:
384,224,174307,1,0,0:0:0:0:
256,360,174484,5,8,0:0:0:0:
400,128,174660,1,0,0:0:0:0:
240,192,174837,1,0,0:0:0:0:
384,312,175013,1,0,0:0:0:0:
160,240,175190,1,8,0:0:0:0:
472,280,175366,1,0,0:0:0:0:
480,80,175542,5,0,0:0:0:0:
480,80,175719,1,0,0:0:0:0:
280,72,175895,1,8,0:0:0:0:
280,72,176072,1,0,0:0:0:0:
144,136,176248,2,0,B|96:136|80:200|80:200|40:160|0:160,2,178.499994552612,4|0|0,0:0|0:0|0:0,0:0:0:0:
176,296,176954,5,0,0:0:0:0:
312,360,177131,2,0,P|288:296|296:240,2,118.999996368408,0|8|0,0:0|0:0|0:0,0:0:0:0:
432,264,177660,2,0,P|456:200|432:120,1,118.999996368408
352,16,178013,2,0,L|328:152,1,118.999996368408,8|0,0:0|0:0,0:0:0:0:
200,64,178366,2,0,L|224:192,1,118.999996368408
64,168,178719,2,0,L|128:280,1,118.999996368408,8|0,0:0|0:0,0:0:0:0:
216,344,179072,2,0,P|272:368|328:336,1,118.999996368408
320,183,179337,1,0,0:0:0:0:
320,183,179425,2,0,P|284:230|272:288,1,118.999996368408,8|0,0:0|0:0,0:0:0:0:
200,149,179778,5,0,0:0:0:0:
200,149,179954,1,0,0:0:0:0:
271,288,180131,1,8,0:0:0:0:
271,288,180307,1,0,0:0:0:0:
408,217,180484,1,0,0:0:0:0:
408,217,180660,1,0,0:0:0:0:
338,79,180837,1,8,0:0:0:0:
338,79,181013,1,0,0:0:0:0:
160,48,181190,6,0,L|96:64,3,59.4999981842042
80,88,181542,1,8,0:0:0:0:
76,117,181630,1,0,0:0:0:0:
77,147,181718,1,0,0:0:0:0:
82,176,181806,1,0,0:0:0:0:
90,205,181894,5,4,0:0:0:0:
272,368,182160,1,4,0:0:0:0:
416,32,182425,1,4,0:0:0:0:
