osu file format v14

[General]
AudioFilename: 12.mp3
AudioLeadIn: 0
PreviewTime: 65563
Countdown: 0
SampleSet: Normal
StackLeniency: 0.7
Mode: 0
LetterboxInBreaks: 1
WidescreenStoryboard: 0

[Editor]
Bookmarks: 51063,56863,72164
DistanceSpacing: 1
BeatDivisor: 2
GridSize: 4
TimelineZoom: 1.7

[Metadata]
Title:Shukusai no Elementalia
TitleUnicode:祝祭のエレメンタリア
Artist:Ni-Sokkususu
ArtistUnicode:にーそっくすす
Creator:koreapenguin
Version:xxnanodesux
Source:精霊使いの剣舞
Tags:ブレイドダンス seirei tsukai no blade dance of elementalers kneesocks claire rouge rinslet laurenfrost ellis fahrengart fianna oredesia est ibuki kido kana yuuki shizuka ishigami saori oonishi ai kakuma kawaiwkyik kantokun xxdeathx guineaq
BeatmapID:701963
BeatmapSetID:312409

[Difficulty]
HPDrainRate:4
CircleSize:3.5
OverallDifficulty:4
ApproachRate:5
SliderMultiplier:1.12
SliderTickRate:1

[Events]
//Background and Video events
0,0,"NOTICEMESENPAI.png",0,0
//Break Periods
2,91664,97064
//Storyboard Layer 0 (Background)
//Storyboard Layer 1 (Fail)
//Storyboard Layer 2 (Pass)
//Storyboard Layer 3 (Foreground)
//Storyboard Sound Samples

[TimingPoints]
664,400,4,1,1,60,1,0
66264,-100,4,1,1,60,0,1
79064,-100,4,1,1,60,0,0
117464,-100,4,1,1,60,0,1
130264,-100,4,1,1,60,0,0
157265,352.941176470588,4,1,1,60,1,0
160088,-100,4,1,1,60,0,1
182676,-100,4,1,1,60,0,0

[HitObjects]
112,172,2264,6,0,P|164:160|228:184,1,112
284,268,3064,2,0,L|408:276,1,112
444,172,3864,2,0,L|456:112,2,56
348,112,4664,2,0,L|340:52,2,56
372,220,5464,6,0,P|384:272|356:336,1,112
252,324,6264,2,0,L|136:308,1,112
100,204,7064,2,0,B|180:212|180:212|224:184,1,112
152,96,7864,2,0,P|168:52|240:24,1,112
332,48,8664,6,0,L|400:40,2,56
360,156,9464,2,0,L|440:168,2,56
328,264,10264,2,0,L|388:308,2,56
232,320,11064,2,0,L|252:384,2,56
160,236,11864,6,0,B|148:200|164:156|164:156|208:160,1,112
284,224,12664,1,0,0:0:0:0:
232,320,13064,1,0,0:0:0:0:
340,348,13464,2,0,B|428:384|456:296|456:296|408:292|384:268,1,224
456,184,14664,1,0,0:0:0:0:
360,128,15064,6,0,P|304:120|256:144,1,112
228,192,15664,1,0,0:0:0:0:
256,240,15864,2,0,L|272:360,1,112
164,324,16664,2,0,B|156:248|156:248|128:216,1,112
88,188,17264,1,0,0:0:0:0:
56,236,17464,2,0,P|24:248|-16:248,2,56
168,220,18264,6,0,B|188:188|188:188|192:108,1,112
232,76,18864,1,0,0:0:0:0:
200,32,19064,2,0,P|128:56|108:112,1,112
200,152,19864,2,0,L|328:156,1,112
356,188,20464,1,0,0:0:0:0:
320,232,20664,2,0,P|312:268|316:304,2,56
428,256,21464,6,0,B|500:268|500:268|516:212,1,112
508,176,22064,1,0,0:0:0:0:
452,172,22264,2,0,L|440:52,1,112
336,20,23064,2,0,L|347:131,1,112
316,180,23664,1,0,0:0:0:0:
340,228,23864,2,0,P|376:236|400:228,2,56
236,188,24664,6,0,P|180:176|120:216,1,112
96,244,25264,1,0,0:0:0:0:
128,292,25464,2,0,B|156:316|156:316|240:312,1,112
336,356,26264,2,0,P|344:296|304:224,1,112
288,208,26864,1,0,0:0:0:0:
236,228,27064,2,0,L|180:232,2,56
276,124,27864,5,0,0:0:0:0:
372,64,28264,2,0,P|420:48|496:76,2,112
352,116,29264,1,0,0:0:0:0:
376,168,29464,2,0,B|384:224|384:224|376:264|336:276,1,112
252,316,30264,2,0,L|244:376,2,56
232,204,31064,5,0,0:0:0:0:
144,272,31464,2,0,B|136:316|136:316|144:348|144:348|132:396,2,112
160,216,32464,1,0,0:0:0:0:
104,204,32664,2,0,P|52:168|32:108,1,112
144,96,33464,2,0,L|200:84,2,56
64,16,34264,5,0,0:0:0:0:
33,124,34664,2,0,B|20:184|20:184|37:260,2,112
80,96,35664,1,0,0:0:0:0:
116,136,35864,2,0,P|176:144|232:112,1,112
312,60,36664,2,0,L|320:4,2,56
396,136,37464,6,0,L|388:252,1,112
280,280,38264,2,0,L|288:164,1,112
312,60,39064,1,0,0:0:0:0:
424,72,39464,1,0,0:0:0:0:
484,168,39864,1,0,0:0:0:0:
448,272,40264,1,0,0:0:0:0:
336,288,40664,6,0,P|280:268|216:296,1,112
136,344,41464,2,0,B|52:336|52:336|28:292,1,112
36,256,42064,1,0,0:0:0:0:
92,256,42264,2,0,P|112:196|96:144,1,112
16,76,43064,2,0,L|8:16,2,56
99,150,43864,6,0,P|156:152|208:120,1,112
264,32,44664,2,0,L|336:152,1,112
360,168,45264,1,0,0:0:0:0:
404,136,45464,2,0,P|464:164|488:232,1,112
464,312,46264,2,0,L|476:384,2,56
400,220,47064,5,0,0:0:0:0:
336,312,47464,2,0,B|280:328|280:328|212:316,2,112
388,336,48464,1,0,0:0:0:0:
416,288,48664,2,0,P|392:248|316:232,1,112
220,240,49464,2,0,L|148:248,2,56
280,144,50264,6,0,B|269:105|269:105|250:81|250:81|239:38,1,112
352,24,51064,2,0,B|362:64|362:64|381:88|381:88|391:126,1,112
400,240,51864,1,0,0:0:0:0:
324,324,52264,1,0,0:0:0:0:
212,332,52664,1,0,0:0:0:0:
120,268,53064,1,0,0:0:0:0:
200,188,53464,6,0,B|248:152|256:104|220:76|164:88|172:136,2,168
120,268,55064,2,0,B|136:192|72:160|96:96,2,168
232,268,56664,6,0,P|304:200|320:112,2,168
312,344,58264,2,0,B|372:388|424:340|424:340|416:280,2,168
264,240,59864,6,0,P|204:304|208:392,2,168
364,188,61464,2,0,L|364:8,2,168
436,272,63064,5,0,0:0:0:0:
256,192,63264,12,0,64664,0:0:0:0:
256,108,65864,5,0,0:0:0:0:
364,136,66264,6,0,B|356:212|356:212|316:256,1,112
252,316,67064,2,0,L|248:372,2,56
212,276,67664,1,0,0:0:0:0:
168,312,67864,2,0,P|116:328|56:304,1,112
32,204,68664,2,0,B|28:132|28:132|52:80,1,112
72,48,69264,1,0,0:0:0:0:
120,80,69464,6,0,B|164:100|196:64|236:84,1,112
320,148,70264,2,0,L|392:152,2,56
284,104,70864,1,0,0:0:0:0:
236,132,71064,2,0,P|248:192|300:232,1,112
384,272,71864,2,0,L|372:356,2,84
428,236,72664,6,0,P|448:188|424:116,1,112
344,68,73464,2,0,L|332:0,2,56
272,152,74264,2,0,L|264:228,2,56
240,108,74864,1,0,0:0:0:0:
196,144,75064,2,0,P|140:160|84:132,1,112
56,96,75664,1,0,0:0:0:0:
16,132,75864,6,0,L|20:260,1,112
132,244,76664,2,0,L|200:236,2,56
72,340,77464,1,0,0:0:0:0:
19,243,77864,1,0,0:0:0:0:
84,152,78264,2,0,P|124:140|168:148,2,84
96,208,79064,6,0,L|112:340,1,112
216,284,79864,2,0,L|236:172,1,112
260,64,80664,1,0,0:0:0:0:
352,268,81464,2,0,P|384:272|416:260,1,56
456,236,81864,1,0,0:0:0:0:
372,160,82264,6,0,L|252:168,1,112
236,60,83064,2,0,L|368:64,1,112
460,68,83864,1,0,0:0:0:0:
260,167,84664,2,0,L|192:171,1,56
148,172,85064,1,0,0:0:0:0:
68,252,85464,6,0,P|56:312|92:364,1,112
132,372,86064,1,0,0:0:0:0:
172,332,86264,2,0,B|248:324|248:324|296:336,1,112
384,376,87064,2,0,B|408:328|408:328|412:268,1,112
380,224,87664,1,0,0:0:0:0:
340,264,87864,2,0,P|312:260|276:244,2,56
452,268,88664,6,0,P|464:232|436:160,1,112
392,136,89264,1,0,0:0:0:0:
344,164,89464,2,0,B|284:168|284:168|224:144,1,112
160,68,90264,2,0,P|128:120|132:192,1,112
140,224,90864,1,0,0:0:0:0:
196,220,91064,2,0,L|248:244,2,56
32,264,98264,6,0,L|156:252,1,112
240,308,99064,2,0,L|248:380,2,56
272,260,99664,1,0,0:0:0:0:
320,288,99864,2,0,P|388:296|428:268,1,112
456,168,100664,2,0,L|532:156,2,56
404,68,101464,6,0,B|348:48|348:48|288:56,1,112
348,152,102264,2,0,P|360:184|348:232,2,56
296,136,102864,2,0,B|183:148|183:148|144:92,1,168
40,104,103864,2,0,L|108:212,1,112
156,296,104664,6,0,B|192:272|204:232|204:232|304:220,2,168
99,198,106264,2,0,B|68:188|36:196|36:196|12:152|32:96,2,168
208,180,107864,6,0,P|276:132|264:20,2,168
124,108,109464,2,0,P|184:48|196:104,2,168
208,180,111064,6,0,L|352:280,2,168
292,104,112664,2,0,P|368:84|444:132,2,168
356,196,114264,5,0,0:0:0:0:
256,192,114464,12,0,115864,0:0:0:0:
104,128,117064,5,0,0:0:0:0:
192,60,117464,6,0,L|308:56,1,112
364,152,118264,2,0,P|388:152|424:144,2,56
312,136,118864,1,0,0:0:0:0:
284,184,119064,2,0,B|276:236|276:236|296:304,1,112
220,376,119864,2,0,B|196:296|196:296|172:280,1,112
116,292,120464,1,0,0:0:0:0:
96,240,120664,6,0,P|136:204|200:200,1,112
304,216,121464,2,0,L|320:148,2,56
352,316,122264,2,0,L|368:380,2,56
376,264,122864,1,0,0:0:0:0:
428,284,123064,2,0,P|472:288|516:272,2,84
376,264,123864,6,0,B|396:184|396:184|432:144,1,112
508,96,124664,2,0,L|496:24,2,56
400,64,125464,2,0,L|376:8,2,56
320,144,126264,2,0,P|264:160|204:132,1,112
180,96,126864,1,0,0:0:0:0:
128,116,127064,6,0,B|96:160|96:160|88:220,1,112
144,316,127864,2,0,P|152:344|152:376,2,56
88,217,128664,2,0,P|56:220|12:212,2,56
140,196,129264,1,0,0:0:0:0:
184,228,129464,2,0,L|240:304,2,84
140,196,130264,6,0,P|124:128|144:84,1,112
236,36,131064,2,0,L|368:24,1,112
420,112,131864,2,0,B|340:120|340:120|316:148,1,112
244,228,132664,2,0,P|292:252|372:236,1,112
456,212,133464,6,0,L|436:344,1,112
332,358,134264,2,0,L|352:226,1,112
368,136,135064,1,0,0:0:0:0:
276,72,135464,1,0,0:0:0:0:
184,136,135864,1,0,0:0:0:0:
224,240,136264,1,0,0:0:0:0:
