osu file format v14

[General]
AudioFilename: 12.mp3
AudioLeadIn: 0
PreviewTime: 65563
Countdown: 1
SampleSet: Normal
StackLeniency: 0.7
Mode: 0
LetterboxInBreaks: 1
WidescreenStoryboard: 0

[Editor]
Bookmarks: 51063,56863,72164,110659,113264
DistanceSpacing: 1
BeatDivisor: 4
GridSize: 4
TimelineZoom: 1.7

[Metadata]
Title:Shukusai no Elementalia
TitleUnicode:祝祭のエレメンタリア
Artist:Ni-Sokkususu
ArtistUnicode:にーそっくすす
Creator:koreapenguin
Version:Blade Dance
Source:精霊使いの剣舞
Tags:ブレイドダンス seirei tsukai no blade dance of elementalers kneesocks claire rouge rinslet laurenfrost ellis fahrengart fianna oredesia est ibuki kido kana yuuki shizuka ishigami saori oonishi ai kakuma kawaiwkyik kantokun xxdeathx guineaq
BeatmapID:697392
BeatmapSetID:312409

[Difficulty]
HPDrainRate:7
CircleSize:4
OverallDifficulty:7
ApproachRate:9
SliderMultiplier:2.4
SliderTickRate:1

[Events]
//Background and Video events
0,0,"NOTICEMESENPAI.png",0,0
//Break Periods
//Storyboard Layer 0 (Background)
//Storyboard Layer 1 (Fail)
//Storyboard Layer 2 (Pass)
//Storyboard Layer 3 (Foreground)
//Storyboard Sound Samples

[TimingPoints]
664,400,4,1,1,60,1,0
2264,-133.333333333333,4,1,1,60,0,0
13464,-133.333333333333,4,1,1,40,0,0
13864,-133.333333333333,4,1,1,60,0,0
14264,-200,4,1,1,60,0,0
14664,-66.6666666666667,4,1,1,60,0,0
15064,-100,4,1,1,60,0,0
27864,-117.647058823529,4,1,1,60,0,0
53464,-100,4,1,1,60,0,0
64664,-133.333333333333,4,1,1,60,0,0
65464,-200,4,1,1,60,0,0
65864,-66.6666666666667,4,1,1,60,0,0
66264,-83.3333333333333,4,1,1,60,0,1
79064,-100,4,1,1,60,0,0
91864,-117.647058823529,4,1,1,60,0,0
104664,-100,4,1,1,60,0,0
115864,-133.333333333333,4,1,1,60,0,0
116664,-200,4,1,1,60,0,0
117064,-66.6666666666667,4,1,1,60,0,0
117464,-83.3333333333333,4,1,1,60,0,1
130264,-100,4,1,1,60,0,0
143064,-83.3333333333333,4,1,1,60,0,1
155464,-83.3333333333333,4,1,1,60,0,0
157265,352.941176470588,4,1,1,60,1,0

[HitObjects]
420,344,2264,5,0,0:0:0:0:
384,160,2464,1,0,0:0:0:0:
480,256,2664,2,0,L|364:248,1,90.0000034332277
268,312,3064,1,0,0:0:0:0:
224,186,3264,2,0,P|300:140|385:161,1,180.000006866455
500,64,3864,6,0,L|400:68,1,90.0000034332277
292,24,4264,2,0,P|304:64|292:140,1,90.0000034332277
224,186,4664,2,0,L|68:176,2,135.000005149841
332,256,5464,6,0,L|452:248,1,90.0000034332277
504,144,5864,2,0,L|415:139,1,90.0000034332277
324,244,6264,1,0,0:0:0:0:
267,111,6464,2,0,B|339:67|411:111|411:111|419:163,1,180.000006866455
340,268,7064,6,0,P|336:312|352:364,1,90.0000034332277
165,356,7464,2,0,P|176:313|172:268,1,90.0000034332277
132,148,7864,2,0,P|70:172|3:166,2,135.000005149841
276,36,8664,6,0,L|376:44,1,90.0000034332277
432,128,9064,1,0,0:0:0:0:
428,140,9264,1,0,0:0:0:0:
344,208,9464,2,0,L|244:216,1,90.0000034332277
188,300,9864,1,0,0:0:0:0:
192,312,10064,1,0,0:0:0:0:
377,372,10264,6,0,P|392:331|390:286,1,90.0000034332277
272,188,10664,2,0,L|389:182,1,90.0000034332277
488,100,11064,2,0,B|512:192|512:192|500:230,2,135.000005149841
360,54,11864,5,0,0:0:0:0:
293,171,12064,1,0,0:0:0:0:
410,238,12264,1,0,0:0:0:0:
477,122,12464,1,0,0:0:0:0:
288,84,12664,5,0,0:0:0:0:
444,43,12864,1,0,0:0:0:0:
488,204,13064,1,0,0:0:0:0:
326,248,13264,1,0,0:0:0:0:
288,84,13464,6,0,L|300:52,15,22.5000008583069
304,44,14264,6,0,L|212:52,1,90
120,36,14664,6,0,P|192:130|92:111,1,270.000010299683
88,112,15064,6,0,L|84:176,1,60
0,264,15264,2,0,L|60:252,1,60
68,260,15464,1,0,0:0:0:0:
76,268,15564,1,0,0:0:0:0:
84,276,15664,1,0,0:0:0:0:
92,284,15764,1,0,0:0:0:0:
168,336,15864,6,0,L|172:256,1,60
228,216,16064,1,0,0:0:0:0:
224,192,16164,1,0,0:0:0:0:
220,168,16264,2,0,L|296:164,1,60
336,104,16464,1,0,0:0:0:0:
360,108,16564,1,0,0:0:0:0:
384,112,16664,6,0,P|372:168|404:240,1,120
480,252,16964,1,0,0:0:0:0:
512,160,17064,2,0,L|440:164,1,60
384,240,17264,2,0,L|324:236,1,60
248,308,17464,6,0,P|260:248|220:164,1,120
172,148,17764,1,0,0:0:0:0:
88,136,17864,2,0,L|164:124,1,60
204,32,18064,2,0,L|263:41,1,60
372,16,18264,5,0,0:0:0:0:
368,75,18364,1,0,0:0:0:0:
364,135,18464,1,0,0:0:0:0:
360,195,18564,1,0,0:0:0:0:
460,168,18664,5,0,0:0:0:0:
458,132,18764,1,0,0:0:0:0:
456,96,18864,1,0,0:0:0:0:
454,60,18964,1,0,0:0:0:0:
356,16,19064,5,0,0:0:0:0:
357,75,19164,1,0,0:0:0:0:
358,135,19264,1,0,0:0:0:0:
360,195,19364,1,0,0:0:0:0:
456,159,19464,5,0,0:0:0:0:
451,124,19564,1,0,0:0:0:0:
446,88,19664,1,0,0:0:0:0:
441,52,19764,1,0,0:0:0:0:
340,16,19864,6,0,L|200:24,1,120
128,8,20164,1,0,0:0:0:0:
116,24,20264,2,0,L|120:88,1,60
208,164,20464,2,0,L|205:223,1,60
127,313,20664,5,0,0:0:0:0:
60,274,20764,1,0,0:0:0:0:
37,200,20864,1,0,0:0:0:0:
55,124,20964,1,0,0:0:0:0:
121,83,21064,2,0,P|179:95|237:85,1,120
432,8,21464,6,0,L|428:76,1,60
356,120,21664,2,0,L|360:188,1,60
472,248,21864,1,0,0:0:0:0:
443,250,21964,1,0,0:0:0:0:
413,253,22064,1,0,0:0:0:0:
383,255,22164,1,0,0:0:0:0:
316,308,22264,6,0,L|248:300,1,60
180,348,22464,2,0,L|112:340,1,60
32,364,22664,1,0,0:0:0:0:
50,325,22764,1,0,0:0:0:0:
57,284,22864,1,0,0:0:0:0:
51,243,22964,1,0,0:0:0:0:
35,204,23064,6,0,L|168:196,1,120
224,144,23364,1,0,0:0:0:0:
236,152,23464,2,0,L|240:80,1,60
140,80,23664,2,0,L|136:8,1,60
32,89,23864,6,0,P|19:146|35:204,1,120,0|0,0:0|0:0,0:0:0:0:
112,252,24164,1,0,0:0:0:0:
104,264,24264,2,0,L|164:260,1,60
180,272,24464,1,0,0:0:0:0:
196,284,24564,1,0,0:0:0:0:
272,336,24664,6,0,L|276:260,1,60
360,212,24864,1,0,0:0:0:0:
352,192,24964,1,0,0:0:0:0:
344,172,25064,2,0,L|272:180,1,60
164,84,25264,2,0,L|236:92,1,60
312,24,25464,5,0,0:0:0:0:
372,29,25564,1,0,0:0:0:0:
432,34,25664,1,0,0:0:0:0:
492,39,25764,1,0,0:0:0:0:
468,120,25864,5,0,0:0:0:0:
433,123,25964,1,0,0:0:0:0:
397,126,26064,1,0,0:0:0:0:
361,129,26164,1,0,0:0:0:0:
288,184,26264,6,0,L|292:304,1,120
364,352,26564,1,0,0:0:0:0:
444,320,26664,2,0,L|356:304,1,60
296,168,26864,2,0,L|237:178,1,60
52,208,27064,5,0,0:0:0:0:
92,196,27164,1,0,0:0:0:0:
152,256,27264,5,0,0:0:0:0:
200,260,27364,1,0,0:0:0:0:
280,200,27464,5,0,0:0:0:0:
280,200,27864,5,0,0:0:0:0:
364,352,28064,1,0,0:0:0:0:
364,352,28164,1,0,0:0:0:0:
364,352,28264,2,0,L|244:336,1,102.000001945496
136,368,28664,1,0,0:0:0:0:
108,184,28864,1,0,0:0:0:0:
240,260,29064,1,0,0:0:0:0:
37,268,29264,6,0,P|5:173|50:85,1,204.000003890991
196,16,29864,2,0,L|184:136,1,102.000001945496
264,244,30264,1,0,0:0:0:0:
112,140,30464,1,0,0:0:0:0:
268,80,30664,1,0,0:0:0:0:
160,260,30864,2,0,L|156:220,1,34.0000006484985
160,260,31064,5,0,0:0:0:0:
268,80,31264,1,0,0:0:0:0:
268,80,31364,1,0,0:0:0:0:
269,79,31464,2,0,P|219:88|170:73,1,102.000001945496
14,146,31864,2,0,P|63:131|113:139,1,102.000001945496
140,328,32264,1,0,0:0:0:0:
72,216,32464,1,0,0:0:0:0:
200,92,32664,6,0,B|208:148|208:148|188:216,1,102.000001945496
272,356,33064,2,0,B|260:312|260:312|268:256,1,102.000001945496
408,164,33464,1,0,0:0:0:0:
456,288,33664,1,0,0:0:0:0:
460,300,33764,1,0,0:0:0:0:
464,312,33864,2,0,L|356:304,1,102.000001945496
196,191,34264,5,0,0:0:0:0:
116,352,34464,1,0,0:0:0:0:
116,352,34564,1,0,0:0:0:0:
116,351,34664,2,0,P|166:363|215:353,1,102.000001945496
363,304,35064,1,0,0:0:0:0:
200,208,35264,1,0,0:0:0:0:
215,353,35464,1,0,0:0:0:0:
284,132,35664,6,0,B|200:72|112:136|112:136|108:168,1,204.000003890991
199,305,36264,2,0,P|213:256|200:208,1,102.000001945496
16,180,36664,1,0,0:0:0:0:
124,256,36864,1,0,0:0:0:0:
120,52,37064,2,0,L|110:153,1,102.000001945496
216,344,37464,5,0,0:0:0:0:
300,224,37664,1,0,0:0:0:0:
304,212,37764,1,0,0:0:0:0:
309,199,37864,2,0,P|259:211|209:204,1,102.000001945496
120,52,38264,1,0,0:0:0:0:
124,256,38464,1,0,0:0:0:0:
256,124,38664,1,0,0:0:0:0:
72,172,38864,1,0,0:0:0:0:
216,344,39064,5,0,0:0:0:0:
232,216,39264,1,0,0:0:0:0:
348,112,39464,1,0,0:0:0:0:
364,288,39664,1,0,0:0:0:0:
500,364,39864,1,0,0:0:0:0:
512,144,40064,1,0,0:0:0:0:
308,36,40264,1,0,0:0:0:0:
320,300,40464,1,0,0:0:0:0:
392,128,40664,5,0,0:0:0:0:
232,192,40864,1,0,0:0:0:0:
232,192,40964,1,0,0:0:0:0:
233,191,41064,2,0,P|222:240|231:289,1,102.000001945496
400,372,41464,2,0,L|408:252,1,102.000001945496
512,144,41864,1,0,0:0:0:0:
324,48,42064,6,0,B|269:118|317:210|317:210|365:206,1,204.000003890991
512,144,42664,2,0,P|466:123|416:127,1,102.000001945496
316,208,43064,1,0,0:0:0:0:
380,308,43264,1,0,0:0:0:0:
192,360,43464,2,0,L|188:256,1,102.000001945496
176,64,43864,5,0,0:0:0:0:
16,188,44064,1,0,0:0:0:0:
67,194,44164,1,0,0:0:0:0:
118,201,44264,1,0,0:0:0:0:
192,360,44464,1,0,0:0:0:0:
316,208,44664,2,0,P|269:192|216:199,1,102.000001945496
95,351,45064,2,0,P|143:366|196:359,1,102.000001945496
260,280,45464,5,0,0:0:0:0:
118,201,45664,1,0,0:0:0:0:
193,359,45864,1,0,0:0:0:0:
216,168,46064,1,0,0:0:0:0:
72,280,46264,1,0,0:0:0:0:
272,268,46464,1,0,0:0:0:0:
64,174,46664,5,0,0:0:0:0:
114,172,46764,1,0,0:0:0:0:
165,170,46864,1,0,0:0:0:0:
216,168,46964,1,0,0:0:0:0:
267,166,47064,5,0,0:0:0:0:
372,292,47264,1,0,0:0:0:0:
388,296,47364,1,0,0:0:0:0:
404,300,47464,2,0,P|396:244|412:188,1,102.000001945496
512,136,47864,1,0,0:0:0:0:
336,152,48064,1,0,0:0:0:0:
476,252,48264,1,0,0:0:0:0:
372,44,48464,6,0,B|290:51|290:51|256:82|256:82|181:88,1,204.000003890991
44,24,49064,2,0,P|61:71|53:121,1,102.000001945496
120,248,49464,1,0,0:0:0:0:
181,88,49664,1,0,0:0:0:0:
212,268,49864,2,0,L|111:258,1,102.000001945496
8,144,50264,5,0,0:0:0:0:
178,37,50464,2,0,L|182:101,1,51.0000009727478
256,160,50664,2,0,P|304:144|358:151,1,102.000001945496
484,52,51064,2,0,P|434:58|386:42,1,102.000001945496
244,144,51464,1,0,0:0:0:0:
406,224,51664,6,0,P|434:128|387:40,1,204.000003890991
228,128,52264,1,0,0:0:0:0:
348,144,52464,1,0,0:0:0:0:
268,16,52664,1,0,0:0:0:0:
144,184,52864,1,0,0:0:0:0:
124,40,53064,1,0,0:0:0:0:
336,140,53264,1,0,0:0:0:0:
152,200,53464,5,0,0:0:0:0:
144,184,53564,1,0,0:0:0:0:
136,168,53664,1,0,0:0:0:0:
128,152,53764,1,0,0:0:0:0:
120,136,53864,2,0,L|188:128,1,60
232,48,54064,2,0,L|300:40,1,60
368,100,54264,5,0,0:0:0:0:
396,112,54364,1,0,0:0:0:0:
426,116,54464,1,0,0:0:0:0:
455,111,54564,1,0,0:0:0:0:
482,99,54664,2,0,L|476:172,1,60
400,220,54864,2,0,L|405:279,1,60
488,368,55064,5,0,0:0:0:0:
441,363,55164,1,0,0:0:0:0:
393,359,55264,1,0,0:0:0:0:
345,355,55364,1,0,0:0:0:0:
280,292,55464,5,0,0:0:0:0:
232,296,55564,1,0,0:0:0:0:
184,300,55664,1,0,0:0:0:0:
137,305,55764,1,0,0:0:0:0:
64,352,55864,6,0,L|60:272,1,60
0,188,56064,2,0,L|80:192,1,60
164,132,56264,2,0,L|160:212,1,60
176,216,56464,1,0,0:0:0:0:
192,240,56564,1,0,0:0:0:0:
280,292,56664,6,0,L|276:216,1,60
340,148,56864,2,0,L|416:144,1,60
484,208,57064,2,0,L|488:284,1,60
424,352,57264,2,0,L|348:356,1,60
279,291,57464,5,0,0:0:0:0:
243,271,57564,1,0,0:0:0:0:
202,264,57664,1,0,0:0:0:0:
161,271,57764,1,0,0:0:0:0:
125,291,57864,2,0,L|132:208,1,60
24,96,58064,2,0,L|28:155,1,60
120,220,58264,5,0,0:0:0:0:
122,190,58364,1,0,0:0:0:0:
124,160,58464,1,0,0:0:0:0:
126,130,58564,1,0,0:0:0:0:
128,100,58664,2,0,P|187:112|246:102,1,120
308,164,58964,1,0,0:0:0:0:
300,176,59064,2,0,P|358:164|417:173,1,120
496,228,59364,2,0,L|504:100,1,120
440,36,59664,1,0,0:0:0:0:
292,192,59864,5,0,0:0:0:0:
296,204,59964,1,0,0:0:0:0:
300,216,60064,1,0,0:0:0:0:
464,356,60264,5,0,0:0:0:0:
429,347,60364,1,0,0:0:0:0:
394,338,60464,1,0,0:0:0:0:
212,348,60664,5,0,0:0:0:0:
176,350,60764,1,0,0:0:0:0:
140,352,60864,1,0,0:0:0:0:
104,355,60964,1,0,0:0:0:0:
32,300,61064,5,0,0:0:0:0:
53,244,61164,1,0,0:0:0:0:
56,184,61264,1,0,0:0:0:0:
38,127,61364,1,0,0:0:0:0:
0,80,61464,6,0,L|88:72,1,60
224,19,61664,2,0,L|186:99,1,60
163,244,61864,2,0,L|112:171,3,60
13,61,62264,6,0,L|101:68,1,60
244,39,62464,2,0,L|193:111,1,60
145,250,62664,2,0,L|107:170,3,60
80,116,63064,5,0,0:0:0:0:
80,116,64664,6,0,L|216:100,1,135.000005149841
220,88,65064,2,0,L|284:96,3,45.0000017166138
344,48,65464,6,0,L|336:156,1,90
348,152,65864,6,0,P|244:184|356:236,1,270.000010299683
359,167,66264,6,0,L|371:-9,1,143.999995605469
512,212,66664,2,0,P|480:224|420:216,1,71.9999978027344
314,291,66864,2,0,P|350:291|384:304,1,71.9999978027344
504,355,67064,2,0,L|512:199,1,143.999995605469
369,20,67464,1,0,0:0:0:0:
300,288,67664,1,0,0:0:0:0:
480,120,67864,5,0,0:0:0:0:
248,56,68064,1,0,0:0:0:0:
212,128,68164,1,0,0:0:0:0:
176,198,68264,2,0,P|188:128|165:61,1,143.999995605469
12,279,68664,2,0,P|82:268|148:294,1,143.999995605469
268,368,68964,2,0,P|255:297|278:230,1,143.999995605469
380,184,69264,1,0,0:0:0:0:
504,368,69464,5,0,0:0:0:0:
278,230,69664,1,0,0:0:0:0:
278,230,69764,1,0,0:0:0:0:
278,230,69864,1,0,0:0:0:0:
480,120,70064,1,0,0:0:0:0:
244,16,70264,2,0,P|257:87|234:154,1,143.999995605469
151,183,70564,1,0,0:0:0:0:
68,212,70664,2,0,P|55:283|78:350,1,143.999995605469
256,268,71064,5,0,0:0:0:0:
144,172,71264,1,0,0:0:0:0:
368,172,71464,1,0,0:0:0:0:
172,312,71664,1,0,0:0:0:0:
340,312,71864,2,0,P|367:246|353:176,1,143.999995605469
158,176,72164,2,0,P|144:246|172:312,1,143.999995605469
256,236,72464,1,0,0:0:0:0:
40,252,72664,5,0,0:0:0:0:
80,44,72864,2,0,L|168:60,1,71.9999978027344
224,116,73064,2,0,B|336:108|336:108|368:84,1,143.999995605469
428,20,73364,1,0,0:0:0:0:
416,12,73464,2,0,P|392:88|424:164,1,143.999995605469
512,296,73864,1,0,0:0:0:0:
440,291,73964,1,0,0:0:0:0:
368,286,74064,1,0,0:0:0:0:
296,281,74164,1,0,0:0:0:0:
224,276,74264,6,0,L|384:264,1,143.999995605469
496,68,74664,1,0,0:0:0:0:
280,100,74864,1,0,0:0:0:0:
392,272,75064,2,0,P|416:204|405:134,1,143.999995605469
344,52,75364,2,0,P|276:72|204:55,1,143.999995605469
124,0,75664,1,0,0:0:0:0:
0,228,75864,6,0,P|68:208|140:225,1,143.999995605469
158,317,76164,1,0,0:0:0:0:
76,372,76264,2,0,L|72:284,1,71.9999978027344
248,256,76464,2,0,L|245:327,1,71.9999978027344
138,223,76664,2,0,B|124:120|124:120|142:84,1,143.999995605469
276,252,77064,1,0,0:0:0:0:
76,372,77264,1,0,0:0:0:0:
37,300,77364,1,0,0:0:0:0:
0,229,77464,6,0,P|69:245|136:223,1,143.999995605469
256,44,77864,1,0,0:0:0:0:
64,152,78064,1,0,0:0:0:0:
236,304,78264,2,0,B|232:192|232:192|216:164,1,143.999995605469
117,46,78564,2,0,P|184:72|260:60,1,143.999995605469
356,8,78864,1,0,0:0:0:0:
448,164,79064,5,0,0:0:0:0:
444,184,79164,1,0,0:0:0:0:
440,204,79264,1,0,0:0:0:0:
436,224,79364,1,0,0:0:0:0:
432,244,79464,2,0,L|360:232,3,60
284,280,79864,5,0,0:0:0:0:
230,306,79964,1,0,0:0:0:0:
171,300,80064,1,0,0:0:0:0:
124,265,80164,1,0,0:0:0:0:
128,252,80264,2,0,L|64:260,3,60
0,188,80664,6,0,L|20:60,1,120
128,36,80964,1,0,0:0:0:0:
8,56,81064,1,0,0:0:0:0:
140,60,81164,2,0,L|158:179,1,120
112,280,81464,6,0,L|248:288,1,120
312,344,81764,1,0,0:0:0:0:
248,272,81864,2,0,L|256:208,1,60
404,300,82064,2,0,L|412:364,1,60
332,156,82264,5,0,0:0:0:0:
391,163,82364,1,0,0:0:0:0:
451,169,82464,1,0,0:0:0:0:
511,175,82564,1,0,0:0:0:0:
480,252,82664,5,0,0:0:0:0:
444,256,82764,1,0,0:0:0:0:
408,259,82864,1,0,0:0:0:0:
372,263,82964,1,0,0:0:0:0:
312,324,83064,6,0,L|252:319,1,60
128,248,83264,2,0,L|187:243,1,60
292,178,83464,1,0,0:0:0:0:
284,145,83564,1,0,0:0:0:0:
292,178,83664,1,0,0:0:0:0:
284,145,83764,1,0,0:0:0:0:
288,161,83864,6,0,P|352:180|408:160,1,120
444,72,84164,1,0,0:0:0:0:
350,29,84264,2,0,L|348:88,1,60
276,148,84464,2,0,L|278:208,1,60
340,340,84664,5,0,0:0:0:0:
264,292,84764,1,0,0:0:0:0:
177,274,84864,1,0,0:0:0:0:
88,288,84964,1,0,0:0:0:0:
11,334,85064,2,0,P|40:244|24:200,1,120
0,28,85464,6,0,L|68:36,1,60
112,100,85664,1,0,0:0:0:0:
156,97,85764,1,0,0:0:0:0:
240,60,85864,2,0,L|244:124,1,60
350,29,86064,2,0,L|346:93,1,60
460,68,86264,5,0,0:0:0:0:
461,128,86364,1,0,0:0:0:0:
462,188,86464,1,0,0:0:0:0:
463,248,86564,1,0,0:0:0:0:
424,328,86664,5,0,0:0:0:0:
422,293,86764,1,0,0:0:0:0:
421,257,86864,1,0,0:0:0:0:
420,221,86964,1,0,0:0:0:0:
360,152,87064,6,0,P|301:145|245:166,1,120
212,248,87364,1,0,0:0:0:0:
132,206,87464,2,0,L|136:134,1,60
52,164,87664,2,0,L|56:92,1,60
1,32,87864,6,0,P|54:56|114:52,1,120
184,8,88164,1,0,0:0:0:0:
252,52,88264,1,0,0:0:0:0:
264,64,88364,2,0,L|256:144,2,60
360,12,88664,6,0,L|444:8,1,60
488,52,88864,1,0,0:0:0:0:
484,68,88964,1,0,0:0:0:0:
428,132,89064,6,0,L|344:128,1,60
300,172,89264,1,0,0:0:0:0:
304,188,89364,1,0,0:0:0:0:
324,260,89464,5,0,0:0:0:0:
384,255,89564,1,0,0:0:0:0:
444,250,89664,1,0,0:0:0:0:
504,245,89764,1,0,0:0:0:0:
478,320,89864,5,0,0:0:0:0:
443,323,89964,1,0,0:0:0:0:
407,326,90064,1,0,0:0:0:0:
371,329,90164,1,0,0:0:0:0:
305,372,90264,6,0,P|331:318|325:259,1,120
256,192,90564,1,0,0:0:0:0:
240,184,90664,2,0,L|160:192,1,60
336,104,90864,2,0,L|416:112,1,60
504,245,91064,5,0,0:0:0:0:
464,233,91164,1,0,0:0:0:0:
404,293,91264,5,0,0:0:0:0:
356,297,91364,1,0,0:0:0:0:
276,237,91464,5,0,0:0:0:0:
276,224,91864,5,0,0:0:0:0:
476,312,92064,1,0,0:0:0:0:
484,304,92164,1,0,0:0:0:0:
492,296,92264,2,0,L|496:180,1,102.000001945496
336,104,92664,1,0,0:0:0:0:
404,240,92864,1,0,0:0:0:0:
448,88,93064,1,0,0:0:0:0:
240,68,93264,6,0,B|246:147|246:147|282:184|282:184|288:257,1,204.000003890991
228,360,93864,1,0,0:0:0:0:
96,240,94064,2,0,L|204:228,1,102.000001945496
304,264,94464,1,0,0:0:0:0:
252,152,94664,1,0,0:0:0:0:
104,252,94864,1,0,0:0:0:0:
104,252,94964,1,0,0:0:0:0:
104,252,95064,5,0,0:0:0:0:
220,368,95264,2,0,L|224:300,1,51.0000009727478
304,264,95464,2,0,P|312:213|301:164,1,102.000001945496
176,112,95864,1,0,0:0:0:0:
344,48,96064,1,0,0:0:0:0:
301,164,96264,1,0,0:0:0:0:
156,96,96464,6,0,B|116:180|168:258|168:258|116:248,1,204.000003890991
57,98,97064,2,0,P|106:86|155:95,1,102.000001945496
252,171,97464,1,0,0:0:0:0:
164,256,97664,1,0,0:0:0:0:
348,308,97864,1,0,0:0:0:0:
397,250,97964,1,0,0:0:0:0:
417,177,98064,1,0,0:0:0:0:
402,103,98164,1,0,0:0:0:0:
356,43,98264,5,0,0:0:0:0:
192,152,98464,2,0,L|248:160,1,51.0000009727478
302,223,98664,2,0,L|403:215,1,102.000001945496
480,108,99064,1,0,0:0:0:0:
448,288,99264,1,0,0:0:0:0:
360,120,99464,1,0,0:0:0:0:
296,240,99664,6,0,P|236:156|252:52,1,204.000003890991
450,87,100264,2,0,P|410:117|360:120,1,102.000001945496
247,60,100664,1,0,0:0:0:0:
380,36,100864,1,0,0:0:0:0:
312,196,101064,1,0,0:0:0:0:
304,4,101264,1,0,0:0:0:0:
212,180,101464,5,0,0:0:0:0:
384,136,101664,1,0,0:0:0:0:
392,140,101764,1,0,0:0:0:0:
400,143,101864,2,0,P|408:94|396:44,1,102.000001945496
296,188,102264,1,0,0:0:0:0:
488,208,102464,1,0,0:0:0:0:
320,96,102664,1,0,0:0:0:0:
228,292,102864,6,0,B|299:298|299:298|342:269|342:269|422:276,1,204.000003890991,0|0,0:0|0:0,0:3:0:0:
422,276,103464,1,0,0:0:0:0:
364,372,103664,1,0,0:0:0:0:
268,204,103864,1,0,0:0:0:0:
220,308,104064,1,0,0:0:0:0:
372,176,104264,1,0,0:0:0:0:
380,356,104464,1,0,0:0:0:0:
260,232,104664,5,0,0:0:0:0:
261,202,104764,1,0,0:0:0:0:
262,172,104864,1,0,0:0:0:0:
264,142,104964,1,0,0:0:0:0:
265,112,105064,5,0,0:0:0:0:
254,115,105164,1,0,0:0:0:0:
242,118,105264,1,0,0:0:0:0:
231,121,105364,1,0,0:0:0:0:
220,124,105464,2,0,L|156:120,3,60
28,200,105864,2,0,L|92:196,3,60
168,252,106264,5,0,0:0:0:0:
164,281,106364,1,0,0:0:0:0:
160,311,106464,1,0,0:0:0:0:
156,341,106564,1,0,0:0:0:0:
152,370,106664,2,0,L|220:364,1,60
308,264,106864,2,0,L|367:269,1,60
468,368,107064,5,0,0:0:0:0:
430,322,107164,1,0,0:0:0:0:
416,264,107264,1,0,0:0:0:0:
430,206,107364,1,0,0:0:0:0:
484,128,107464,5,0,0:0:0:0:
412,124,107564,1,0,0:0:0:0:
340,120,107664,1,0,0:0:0:0:
268,116,107764,1,0,0:0:0:0:
196,113,107864,5,0,0:0:0:0:
8,164,108064,1,0,0:0:0:0:
96,20,108264,1,0,0:0:0:0:
98,61,108364,1,0,0:0:0:0:
101,103,108464,1,0,0:0:0:0:
104,145,108564,1,0,0:0:0:0:
107,187,108664,6,0,L|40:180,1,60
232,244,108864,2,0,L|172:250,1,60
352,176,109064,2,0,L|285:169,1,60
477,233,109264,2,0,L|417:239,1,60
360,164,109464,6,0,L|366:104,3,60
376,88,109864,2,0,P|318:104|260:92,1,120
191,36,110164,1,0,0:0:0:0:
104,58,110264,2,0,B|92:86|92:86|95:175,1,120
192,272,110564,2,0,P|135:252|72:264,1,120
4,344,110864,1,0,0:0:0:0:
272,352,111064,5,0,0:0:0:0:
274,310,111164,1,0,0:0:0:0:
277,268,111264,1,0,0:0:0:0:
477,233,111464,5,0,0:0:0:0:
475,191,111564,1,0,0:0:0:0:
472,149,111664,1,0,0:0:0:0:
470,107,111764,1,0,0:0:0:0:
467,65,111864,5,0,0:0:0:0:
436,93,111964,1,0,0:0:0:0:
397,107,112064,1,0,0:0:0:0:
355,106,112164,1,0,0:0:0:0:
316,90,112264,5,0,0:0:0:0:
268,54,112364,1,0,0:0:0:0:
211,39,112464,1,0,0:0:0:0:
152,44,112564,1,0,0:0:0:0:
98,71,112664,6,0,L|168:64,1,60
32,176,112864,2,0,L|102:169,1,60
87,186,113064,1,0,0:0:0:0:
83,202,113164,1,0,0:0:0:0:
79,218,113264,1,0,0:0:0:0:
75,234,113364,1,0,0:0:0:0:
112,304,113464,6,0,L|171:309,1,60
400,304,113662,2,0,L|340:309,1,60
256,316,113864,5,0,0:0:0:0:
256,274,113964,1,0,0:0:0:0:
256,232,114064,1,0,0:0:0:0:
256,190,114164,1,0,0:0:0:0:
256,100,114264,5,0,0:0:0:0:
264,76,115864,6,0,L|106:103,1,135.000005149841
124,112,116264,2,0,L|107:70,3,45.0000017166138
28,28,116664,6,0,L|24:124,1,90
61,207,117064,6,0,P|132:124|24:117,1,270.000010299683
52,200,117464,6,0,B|47:317|47:317|8:280,1,143.999995605469
20,304,117864,2,0,L|100:296,1,71.9999978027344
168,356,118064,2,0,L|239:363,1,71.9999978027344
160,232,118264,2,0,P|135:298|154:366,1,143.999995605469
357,366,118664,2,0,P|376:298|351:231,1,143.999995605469
256,192,118964,1,0,0:0:0:0:
256,192,119064,6,0,L|400:172,1,143.999995605469
484,184,119364,1,0,0:0:0:0:
476,196,119464,2,0,L|480:120,1,71.9999978027344
444,36,119664,1,0,0:0:0:0:
256,64,119864,2,0,P|269:133|244:200,1,143.999995605469
92,188,120164,2,0,P|78:118|103:51,1,143.999995605469
184,16,120464,1,0,0:0:0:0:
488,116,120664,5,0,0:0:0:0:
388,295,120864,1,0,0:0:0:0:
370,219,120964,1,0,0:0:0:0:
352,142,121064,2,0,P|415:111|496:119,1,143.999995605469
372,316,121464,1,0,0:0:0:0:
184,180,121664,1,0,0:0:0:0:
344,12,121864,1,0,0:0:0:0:
364,280,122064,2,0,L|444:236,1,71.9999978027344
