osu file format v14

[General]
AudioFilename: zettairyouiki.mp3
AudioLeadIn: 0
PreviewTime: 66160
Countdown: 0
SampleSet: Normal
StackLeniency: 0.6
Mode: 0
LetterboxInBreaks: 1
WidescreenStoryboard: 1

[Editor]
DistanceSpacing: 1
BeatDivisor: 4
GridSize: 8
TimelineZoom: 2.699998

[Metadata]
Title:Shukusai no Elementalia
TitleUnicode:祝祭のエルメンタルア
Artist:Ni-Sokkususu
ArtistUnicode:にーそっくすす
Creator:Silynn
Version:Expert
Source:精霊使いの剣舞
Tags:kneesocks claire rouge seirei tsukai no blade dance of the elementalers
BeatmapID:485109
BeatmapSetID:203309

[Difficulty]
HPDrainRate:6
CircleSize:4
OverallDifficulty:9
ApproachRate:9
SliderMultiplier:2.2
SliderTickRate:1

[Events]
//Background and Video events
0,0,"claire2.png",0,0
//Break Periods
2,155575,156574
//Storyboard Layer 0 (Background)
//Storyboard Layer 1 (Fail)
//Storyboard Layer 2 (Pass)
//Storyboard Layer 3 (Foreground)
//Storyboard Sound Samples

[TimingPoints]
571,400,4,1,0,70,1,0
39371,-75.187969924812,4,1,0,70,0,0
39771,-59.8802395209581,4,1,0,70,0,0
40171,-50,4,1,0,70,0,0
40571,-100,4,1,0,70,0,0
46971,-92.5925925925926,4,1,0,70,0,0
47371,-100,4,1,0,70,0,0
66171,-100,4,1,0,70,0,1
78971,-100,4,1,0,70,0,0
82171,-100,4,1,0,70,0,0
117371,-100,4,1,0,70,0,1
130171,-100,4,1,0,70,0,0
142971,-66.6666666666667,4,1,0,70,0,0
157174,352.941176470588,4,1,0,70,1,0
157174,-133.333333333333,4,1,0,70,0,0
159997,-100,4,1,0,70,0,1
171115,-100,4,1,0,70,0,0
171291,-80,4,1,0,70,0,1
182585,-66.6666666666667,4,1,0,70,0,0

[HitObjects]
256,192,571,12,0,2171,0:0:0:0:
82,337,2371,5,0,0:0:0:0:
72,227,2571,2,0,L|63:117,1,110
255,299,2971,2,0,P|213:271|124:301,1,110
326,252,3371,1,0,0:0:0:0:
192,349,3571,1,0,0:0:0:0:
163,70,3771,6,0,L|171:179,1,110
57,38,4171,1,0,0:0:0:0:
270,103,4371,1,0,0:0:0:0:
81,181,4571,6,0,P|156:142|158:61,1,165
87,100,4971,1,0,0:0:0:0:
199,343,5171,2,0,L|152:235,1,110
329,335,5571,5,0,0:0:0:0:
63,283,5771,1,0,0:0:0:0:
455,289,5971,1,0,0:0:0:0:
205,117,6171,2,0,L|252:225,1,110
284,235,6771,5,0,0:0:0:0:
120,75,6971,1,0,0:0:0:0:
150,338,7171,1,0,0:0:0:0:
418,148,7371,2,0,P|331:145|310:104,1,110
377,331,7771,6,0,P|436:233|499:251,1,165
450,308,8171,1,0,0:0:0:0:
256,224,8371,1,0,0:0:0:0:
36,306,8571,6,0,P|81:262|147:243,2,110,0|0|0,0:0|0:0|0:0,0:0:0:0:
256,56,9171,1,0,0:0:0:0:
476,306,9371,6,0,P|431:262|365:243,2,110,0|0|0,0:0|0:0|0:0,0:0:0:0:
256,56,9971,1,0,0:0:0:0:
36,306,10171,5,0,0:0:0:0:
173,181,10371,1,0,0:0:0:0:
252,348,10571,1,0,0:0:0:0:
37,178,10771,1,0,0:0:0:0:
476,78,10971,5,0,0:0:0:0:
339,203,11171,1,0,0:0:0:0:
260,36,11371,1,0,0:0:0:0:
475,206,11571,1,0,0:0:0:0:
24,64,11771,5,0,0:0:0:0:
488,320,12171,5,0,0:0:0:0:
110,29,12571,5,0,0:0:0:0:
402,355,12971,5,0,0:0:0:0:
256,192,13371,6,0,L|256:240,7,27.5,0|0|0|0|0|0|0|0,0:0|0:0|0:0|0:0|0:0|0:0|0:0|0:0,0:0:0:0:
207,186,13771,6,0,L|171:160,1,27.5
236,160,13871,6,0,L|222:120,1,27.5
276,160,13971,6,0,L|290:120,1,27.5
305,186,14071,6,0,L|341:160,1,27.5
256,192,14171,6,0,L|256:272,1,55
256,247,14571,5,0,0:0:0:0:
409,89,14971,5,0,0:0:0:0:
388,140,15071,1,0,0:0:0:0:
414,188,15171,1,0,0:0:0:0:
468,185,15271,1,0,0:0:0:0:
494,137,15371,5,0,0:0:0:0:
439,139,15471,1,0,0:0:0:0:
414,188,15571,1,0,0:0:0:0:
438,237,15671,1,0,0:0:0:0:
493,237,15771,5,0,0:0:0:0:
468,185,15871,1,0,0:0:0:0:
414,188,15971,1,0,0:0:0:0:
381,232,16071,1,0,0:0:0:0:
396,284,16171,1,0,0:0:0:0:
376,335,16271,1,0,0:0:0:0:
321,340,16371,1,0,0:0:0:0:
282,300,16471,1,0,0:0:0:0:
285,245,16571,6,0,P|275:159|230:137,1,110
138,152,16871,2,0,P|193:210|253:186,2,110,0|0|0,0:0|0:0|0:0,0:0:0:0:
115,273,17371,6,0,P|93:319|19:342,1,110
37,264,17671,1,0,0:0:0:0:
37,264,17771,2,0,L|52:195,1,55
63,57,17971,2,0,L|48:139,1,55
205,38,18171,5,0,0:0:0:0:
234,84,18271,1,0,0:0:0:0:
266,128,18371,1,0,0:0:0:0:
299,172,18471,1,0,0:0:0:0:
333,214,18571,2,0,L|374:269,1,55
327,70,18771,2,0,L|368:125,1,55
144,96,18971,5,0,0:0:0:0:
173,142,19071,1,0,0:0:0:0:
205,186,19171,1,0,0:0:0:0:
238,230,19271,1,0,0:0:0:0:
272,272,19371,2,0,L|313:327,1,55
266,128,19571,2,0,L|307:183,1,55
78,159,19771,6,0,L|149:269,1,110
53,43,20171,1,0,0:0:0:0:
51,338,20371,1,0,0:0:0:0:
367,204,20571,2,0,L|280:184,1,55
434,124,20771,1,0,0:0:0:0:
452,175,20871,1,0,0:0:0:0:
471,226,20971,1,0,0:0:0:0:
367,204,21371,6,0,L|280:184,1,55
139,152,21571,1,0,0:0:0:0:
189,131,21671,1,0,0:0:0:0:
225,172,21771,1,0,0:0:0:0:
208,224,21871,1,0,0:0:0:0:
153,232,21971,1,0,0:0:0:0:
133,283,22071,1,0,0:0:0:0:
152,334,22171,5,0,0:0:0:0:
203,353,22271,1,0,0:0:0:0:
252,329,22371,1,0,0:0:0:0:
273,278,22471,1,0,0:0:0:0:
253,226,22571,1,0,0:0:0:0:
279,177,22671,1,0,0:0:0:0:
333,170,22771,1,0,0:0:0:0:
365,214,22871,1,0,0:0:0:0:
311,227,22971,6,0,P|334:165|392:160,1,110
199,168,23271,2,0,P|135:182|86:139,2,110,0|0|0,0:0|0:0|0:0,0:0:0:0:
97,254,23771,2,0,P|87:309|17:350,1,110
192,324,24071,5,0,0:0:0:0:
192,324,24171,2,0,L|269:338,1,55
443,316,24371,2,0,L|388:306,1,55
200,240,24571,5,0,0:0:0:0:
157,204,24671,1,0,0:0:0:0:
155,149,24771,1,0,0:0:0:0:
198,115,24871,1,0,0:0:0:0:
252,116,24971,1,0,0:0:0:0:
293,152,25071,1,0,0:0:0:0:
293,207,25171,1,0,0:0:0:0:
252,244,25271,1,0,0:0:0:0:
200,240,25371,5,0,0:0:0:0:
216,186,25471,1,0,0:0:0:0:
266,163,25571,1,0,0:0:0:0:
314,189,25671,1,0,0:0:0:0:
334,239,25771,1,0,0:0:0:0:
317,291,25871,1,0,0:0:0:0:
266,312,25971,1,0,0:0:0:0:
216,289,26071,1,0,0:0:0:0:
200,240,26171,6,0,P|149:199|82:214,1,110
131,273,26471,1,0,0:0:0:0:
131,273,26571,1,0,0:0:0:0:
131,273,26671,1,0,0:0:0:0:
131,273,26771,2,0,P|106:304|105:331,1,55
99,78,26971,6,0,L|87:151,1,55
227,60,27171,2,0,L|215:133,1,55,0|0,0:0|0:0,0:0:0:0:
354,44,27371,1,0,0:0:0:0:
99,78,27771,6,0,L|78:199,1,110
227,60,28071,1,0,0:0:0:0:
227,60,28171,2,0,L|206:181,1,110
343,340,28571,1,0,0:0:0:0:
266,262,28771,1,0,0:0:0:0:
373,240,28971,5,0,0:0:0:0:
115,317,29171,1,0,0:0:0:0:
456,262,29371,6,0,P|450:194|405:158,1,110
314,144,29771,1,0,0:0:0:0:
207,172,29971,1,0,0:0:0:0:
98,156,30171,2,0,P|37:101|48:44,1,110
33,273,30571,1,0,0:0:0:0:
112,80,30771,1,0,0:0:0:0:
110,329,30971,6,0,P|185:326|219:281,1,110
327,336,31271,1,0,0:0:0:0:
327,336,31371,2,0,P|377:300|437:315,1,110
269,116,31771,1,0,0:0:0:0:
290,223,31971,1,0,0:0:0:0:
197,51,32171,1,0,0:0:0:0:
346,157,32371,6,0,P|352:78|319:46,1,110
227,290,32771,1,0,0:0:0:0:
492,252,32971,2,0,P|430:264|373:229,1,110
68,239,33371,1,0,0:0:0:0:
131,77,33571,1,0,0:0:0:0:
256,192,33771,1,0,0:0:0:0:
68,239,33971,1,0,0:0:0:0:
209,43,34171,6,0,P|205:116|141:159,1,110
131,77,34471,1,0,0:0:0:0:
102,157,34571,2,0,P|42:182|20:241,1,110
490,219,34971,2,0,P|461:174|410:157,1,110
98,235,35371,1,0,0:0:0:0:
414,235,35571,5,0,0:0:0:0:
338,54,35771,2,0,L|333:200,1,110
174,330,36171,2,0,L|179:184,1,110
333,314,36571,1,0,0:0:0:0:
218,75,36771,1,0,0:0:0:0:
26,227,36971,1,0,0:0:0:0:
179,220,37171,1,0,0:0:0:0:
97,62,37371,6,0,L|101:198,1,110
104,251,37671,1,0,0:0:0:0:
179,220,37771,2,0,L|175:84,1,110
155,322,38171,1,0,0:0:0:0:
241,31,38371,1,0,0:0:0:0:
168,348,38771,5,0,0:0:0:0:
199,29,38971,2,0,P|208:74|268:117,1,110
322,41,39371,2,0,P|249:105|260:193,1,146.299993972626
378,166,39771,2,0,P|279:119|170:185,1,183.699994253769
292,287,40171,2,0,P|283:168|193:106,1,220
474,37,40571,6,0,L|460:189,1,110
463,146,40871,1,0,0:0:0:0:
495,223,40971,2,0,P|432:223|387:170,1,110
271,336,41371,1,0,0:0:0:0:
303,46,41571,2,0,L|289:180,1,110
271,336,41971,1,0,0:0:0:0:
224,195,42171,6,0,P|292:234|336:222,1,110
136,248,42571,1,0,0:0:0:0:
194,94,42771,1,0,0:0:0:0:
117,329,42971,1,0,0:0:0:0:
37,172,43171,1,0,0:0:0:0:
284,122,43371,2,0,P|339:122|383:91,1,110
422,224,43771,6,0,P|472:247|496:305,1,110
412,306,44071,1,0,0:0:0:0:
341,255,44171,2,0,P|285:244|251:185,1,110
124,341,44571,1,0,0:0:0:0:
412,306,44771,1,0,0:0:0:0:
412,306,45171,6,0,L|426:151,1,110
294,344,45571,1,0,0:0:0:0:
230,131,45771,2,0,P|271:193|334:210,1,110
237,30,46171,1,0,0:0:0:0:
63,204,46371,1,0,0:0:0:0:
330,121,46571,2,0,P|358:112|391:87,1,55
490,280,46771,2,0,P|479:257|442:235,1,55
247,299,46971,6,0,P|162:285|120:230,1,118.800002900391
156,177,47271,1,0,0:0:0:0:
156,177,47371,2,0,P|147:109|179:56,1,110
63,339,47771,1,0,0:0:0:0:
291,216,47971,1,0,0:0:0:0:
48,329,48171,1,0,0:0:0:0:
46,123,48371,6,0,L|71:255,1,110
224,327,48771,1,0,0:0:0:0:
288,113,48971,1,0,0:0:0:0:
109,246,49171,1,0,0:0:0:0:
384,316,49371,6,0,P|446:282|470:210,1,110
443,76,49771,1,0,0:0:0:0:
465,327,49971,1,0,0:0:0:0:
416,84,50171,6,0,P|360:84|299:49,1,110
225,94,50471,1,0,0:0:0:0:
130,58,50571,2,0,P|53:67|21:110,1,110
32,87,50971,1,0,0:0:0:0:
394,194,51171,1,0,0:0:0:0:
373,224,51571,6,0,L|392:88,1,110
86,320,51971,1,0,0:0:0:0:
444,269,52171,2,0,P|384:308|322:284,1,110
253,128,52571,1,0,0:0:0:0:
183,335,52771,1,0,0:0:0:0:
118,36,52971,5,0,0:0:0:0:
280,239,53171,1,0,0:0:0:0:
470,110,53371,6,0,P|425:158|348:150,1,110
205,203,53771,1,0,0:0:0:0:
190,167,53871,1,0,0:0:0:0:
160,142,53971,1,0,0:0:0:0:
121,139,54071,1,0,0:0:0:0:
87,157,54171,1,0,0:0:0:0:
360,58,54371,1,0,0:0:0:0:
294,345,54571,1,0,0:0:0:0:
131,217,54771,5,0,0:0:0:0:
131,217,54871,1,0,0:0:0:0:
131,217,54971,2,0,P|181:275|235:268,1,110
476,293,55371,5,0,0:0:0:0:
461,257,55471,1,0,0:0:0:0:
431,232,55571,1,0,0:0:0:0:
392,227,55671,1,0,0:0:0:0:
356,240,55771,2,0,P|407:251|434:167,1,110
269,139,56171,5,0,0:0:0:0:
180,103,56271,1,0,0:0:0:0:
94,61,56371,2,0,L|41:29,1,55
105,157,56571,6,0,P|92:221|119:292,1,110
190,329,56971,1,0,0:0:0:0:
267,51,57171,1,0,0:0:0:0:
477,150,57371,2,0,P|392:171|346:156,1,110
342,310,57771,2,0,P|428:322|481:301,1,110
287,230,58171,5,0,0:0:0:0:
357,34,58371,1,0,0:0:0:0:
415,241,58571,1,0,0:0:0:0:
207,151,58771,1,0,0:0:0:0:
120,346,58971,6,0,P|56:297|54:209,1,165
95,132,59371,2,0,P|64:78|52:108,1,110
257,89,59771,5,0,0:0:0:0:
289,104,59871,1,0,0:0:0:0:
325,112,59971,1,0,0:0:0:0:
362,111,60071,1,0,0:0:0:0:
397,102,60171,1,0,0:0:0:0:
429,84,60271,1,0,0:0:0:0:
457,57,60371,2,0,P|484:123|445:188,1,110
407,209,60671,5,0,0:0:0:0:
342,268,60771,2,0,P|333:305|340:332,1,55
156,226,60971,1,0,0:0:0:0:
101,218,61071,1,0,0:0:0:0:
65,175,61171,1,0,0:0:0:0:
72,120,61271,1,0,0:0:0:0:
113,83,61371,6,0,P|132:60|134:18,1,55
203,161,61571,2,0,P|229:190|233:215,1,55
163,338,61771,2,0,P|132:340|102:326,1,55
338,326,61971,2,0,L|408:325,1,55
453,172,62171,5,0,0:0:0:0:
467,130,62271,1,0,0:0:0:0:
446,90,62371,1,0,0:0:0:0:
404,77,62471,1,0,0:0:0:0:
364,98,62571,1,0,0:0:0:0:
352,139,62671,1,0,0:0:0:0:
372,179,62771,1,0,0:0:0:0:
414,193,62871,1,0,0:0:0:0:
407,135,62971,6,0,P|351:89|211:136,1,220
426,278,63571,1,0,0:0:0:0:
151,159,64171,2,0,P|75:144|84:62,1,165
53,234,64571,6,0,P|152:249|194:226,1,110
274,98,64971,2,0,L|271:35,1,55
375,196,65171,2,0,L|372:133,1,55
468,272,65371,1,0,0:0:0:0:
468,272,65571,5,0,0:0:0:0:
379,353,65771,1,0,0:0:0:0:
265,309,65971,1,0,0:0:0:0:
293,187,66171,6,0,P|295:134|283:52,1,110
177,145,66471,1,0,0:0:0:0:
127,169,66571,1,0,0:0:0:0:
72,160,66671,1,0,0:0:0:0:
43,112,66771,1,0,0:0:0:0:
193,242,66971,5,0,0:0:0:0:
233,43,67171,1,0,0:0:0:0:
43,112,67371,1,0,0:0:0:0:
193,242,67571,1,0,0:0:0:0:
397,236,67771,6,0,P|422:161|420:98,1,110
328,290,68071,1,0,0:0:0:0:
375,317,68171,1,0,0:0:0:0:
429,316,68271,1,0,0:0:0:0:
471,281,68371,2,0,P|485:257|494:210,1,55
397,236,68571,6,0,P|377:213|326:197,1,55
206,168,68771,2,0,P|175:168|137:199,1,55
300,108,68971,1,0,0:0:0:0:
267,63,69071,1,0,0:0:0:0:
213,50,69171,1,0,0:0:0:0:
158,60,69271,1,0,0:0:0:0:
113,93,69371,6,0,P|88:50|114:56,1,110
158,60,69671,1,0,0:0:0:0:
196,99,69771,1,0,0:0:0:0:
248,114,69871,1,0,0:0:0:0:
300,108,69971,2,0,P|325:88|346:57,1,55
381,186,70171,5,0,0:0:0:0:
414,229,70271,1,0,0:0:0:0:
420,283,70371,1,0,0:0:0:0:
392,330,70471,1,0,0:0:0:0:
343,355,70571,2,0,P|313:359|273:322,1,55
60,331,70771,2,0,P|46:301|47:241,1,55
86,88,70971,5,0,0:0:0:0:
83,345,71171,1,0,0:0:0:0:
308,219,71371,1,0,0:0:0:0:
86,88,71571,1,0,0:0:0:0:
360,290,71771,6,0,P|394:224|363:148,1,110
121,190,72071,2,0,P|121:244|152:290,1,110
256,144,72371,2,0,L|256:28,1,110
256,284,72771,6,0,L|256:204,1,55
384,75,72971,1,0,0:0:0:0:
400,127,73071,2,0,P|420:153|452:164,1,55
72,162,73371,6,0,P|96:149|124:63,1,110
44,85,73671,1,0,0:0:0:0:
44,85,73771,2,0,L|41:16,1,55
34,252,73971,5,0,0:0:0:0:
236,76,74171,1,0,0:0:0:0:
467,204,74371,1,0,0:0:0:0:
304,346,74571,2,0,L|226:310,1,55
375,132,74771,1,0,0:0:0:0:
375,132,74871,1,0,0:0:0:0:
375,132,74971,6,0,L|371:64,1,55
148,41,75171,2,0,L|152:109,1,55
384,282,75371,2,0,L|380:214,1,55
212,173,75571,1,0,0:0:0:0:
163,198,75671,1,0,0:0:0:0:
109,186,75771,2,0,P|57:135|54:78,1,110
167,313,76171,5,0,0:0:0:0:
245,338,76271,1,0,0:0:0:0:
327,331,76371,1,0,0:0:0:0:
389,276,76471,1,0,0:0:0:0:
396,193,76571,1,0,0:0:0:0:
185,53,76771,1,0,0:0:0:0:
167,313,76971,1,0,0:0:0:0:
396,193,77171,5,0,0:0:0:0:
39,193,77371,1,0,0:0:0:0:
245,338,77571,1,0,0:0:0:0:
348,64,77771,1,0,0:0:0:0:
39,193,77971,1,0,0:0:0:0:
382,336,78171,6,0,P|432:315|463:271,1,110
49,271,78471,2,0,P|79:315|129:336,1,110
256,56,78771,1,0,0:0:0:0:
256,56,78971,6,0,P|245:99|226:125,1,55
406,145,79171,2,0,P|433:130|474:123,1,55
310,228,79371,1,0,0:0:0:0:
304,266,79471,1,0,0:0:0:0:
277,294,79571,1,0,0:0:0:0:
239,300,79671,1,0,0:0:0:0:
203,285,79771,6,0,P|191:257|198:215,1,55
402,279,79971,2,0,P|386:318|372:340,1,55
330,115,80171,1,0,0:0:0:0:
281,126,80271,1,0,0:0:0:0:
231,131,80371,1,0,0:0:0:0:
181,137,80471,1,0,0:0:0:0:
132,142,80571,6,0,P|63:119|50:45,1,110
88,277,80871,2,0,L|86:204,1,55
175,350,81071,1,0,0:0:0:0:
456,181,81271,5,0,0:0:0:0:
376,238,81371,2,0,P|362:198|368:160,1,55
256,256,81571,2,0,L|256:320,1,55
135,238,81771,2,0,P|147:213|150:185,1,55
115,73,81971,1,0,0:0:0:0:
115,73,82071,1,0,0:0:0:0:
220,45,82171,5,0,0:0:0:0:
297,84,82971,5,0,0:0:0:0:
224,131,83771,6,0,P|160:144|99:109,1,110
65,203,84071,1,0,0:0:0:0:
48,291,84171,2,0,P|48:324|61:350,1,55
455,343,84371,2,0,P|465:318|464:291,1,55
64,112,84571,5,0,0:0:0:0:
256,348,84771,1,0,0:0:0:0:
448,112,84971,1,0,0:0:0:0:
448,112,85371,6,0,L|432:185,1,55
318,111,85571,1,0,0:0:0:0:
281,97,85671,1,0,0:0:0:0:
245,82,85771,2,0,L|182:49,1,55
324,211,85971,2,0,L|261:178,1,55
99,117,86171,5,0,0:0:0:0:
73,145,86271,1,0,0:0:0:0:
59,181,86371,1,0,0:0:0:0:
59,219,86471,1,0,0:0:0:0:
71,255,86571,2,0,P|84:287|81:336,1,55
187,224,86771,2,0,L|189:159,1,55
257,305,86971,6,0,P|324:327|401:289,1,110
360,65,87271,2,0,P|307:57|257:79,1,110
320,192,87571,1,0,0:0:0:0:
320,192,87671,1,0,0:0:0:0:
320,192,87771,2,0,L|464:192,1,110
487,268,88071,5,0,0:0:0:0:
429,329,88171,2,0,P|398:320|369:302,1,55
133,309,88371,2,0,P|109:321|83:329,1,55
46,227,88571,5,0,0:0:0:0:
64,193,88671,1,0,0:0:0:0:
86,161,88771,1,0,0:0:0:0:
107,128,88871,1,0,0:0:0:0:
126,94,88971,2,0,L|108:-1,1,55
232,177,89171,2,0,L|214:82,1,55
308,270,89371,5,0,0:0:0:0:
342,255,89471,1,0,0:0:0:0:
379,242,89571,1,0,0:0:0:0:
416,231,89671,1,0,0:0:0:0:
453,217,89771,2,0,L|498:131,1,55
482,348,89971,2,0,L|527:262,1,55
408,119,90171,6,0,P|369:61|293:63,1,110
178,51,90471,2,0,P|128:71|104:119,1,110
77,254,90771,1,0,0:0:0:0:
112,322,90871,1,0,0:0:0:0:
183,349,90971,1,0,0:0:0:0:
256,360,91071,1,0,0:0:0:0:
329,349,91171,1,0,0:0:0:0:
400,322,91271,1,0,0:0:0:0:
435,254,91371,1,0,0:0:0:0:
435,254,91771,6,0,P|440:177|466:107,1,110
370,91,92071,1,0,0:0:0:0:
285,143,92171,2,0,P|297:196|298:251,1,110
205,79,92571,5,0,0:0:0:0:
365,314,92771,1,0,0:0:0:0:
122,233,92971,1,0,0:0:0:0:
473,82,93171,1,0,0:0:0:0:
265,333,93371,6,0,P|191:327|157:293,1,110
296,100,93771,1,0,0:0:0:0:
456,303,93971,1,0,0:0:0:0:
388,54,94171,5,0,0:0:0:0:
106,123,94371,1,0,0:0:0:0:
375,184,94571,5,0,0:0:0:0:
159,35,94771,1,0,0:0:0:0:
228,246,94971,6,0,L|237:123,1,110
167,308,95271,1,0,0:0:0:0:
167,308,95371,2,0,P|145:252|156:198,1,110
310,219,95771,2,0,P|307:274|278:320,1,110
278,320,96171,1,0,0:0:0:0:
243,38,96371,1,0,0:0:0:0:
246,147,97371,6,0,L|243:38,1,110
139,257,97671,1,0,0:0:0:0:
98,181,97771,2,0,P|99:165|111:117,1,55
404,127,97971,2,0,P|411:153|414:181,1,55
304,338,98171,6,0,P|296:272|317:199,1,110
212,330,98471,1,0,0:0:0:0:
131,346,98571,2,0,P|71:313|51:256,1,110
458,277,98971,2,0,P|430:323|381:346,1,110
136,137,99371,1,0,0:0:0:0:
376,137,99571,1,0,0:0:0:0:
119,48,99771,5,0,0:0:0:0:
67,219,99971,1,0,0:0:0:0:
332,75,100171,5,0,0:0:0:0:
52,103,100371,1,0,0:0:0:0:
381,262,100571,5,0,0:0:0:0:
252,36,100771,1,0,0:0:0:0:
52,333,100971,5,0,0:0:0:0:
441,199,101171,1,0,0:0:0:0:
119,48,101371,6,0,P|129:113|165:181,1,110
256,192,101671,1,0,0:0:0:0:
365,153,101771,2,0,P|386:102|393:48,1,110
169,264,102171,2,0,L|38:229,1,110
310,298,102571,1,0,0:0:0:0:
256,40,102771,1,0,0:0:0:0:
256,40,103171,5,0,0:0:0:0:
334,222,103371,1,0,0:0:0:0:
163,110,103571,1,0,0:0:0:0:
349,110,103771,1,0,0:0:0:0:
178,222,103971,1,0,0:0:0:0:
438,318,104171,2,0,P|481:251|475:188,1,110
29,222,104571,6,0,P|39:276|74:318,1,110
401,244,104971,1,0,0:0:0:0:
111,244,105171,2,0,P|186:223|231:79,1,220
253,291,105771,2,0,L|254:357,1,55
322,181,105971,2,0,L|323:247,1,55
80,147,106171,6,0,P|65:102|77:23,1,110
52,339,106571,1,0,0:0:0:0:
441,40,106771,2,0,P|447:94|432:147,1,110
256,48,107171,1,0,0:0:0:0:
411,261,107371,2,0,P|373:246|340:214,1,55
150,237,107571,2,0,P|127:252|101:261,1,55
317,332,107771,5,0,0:0:0:0:
331,120,107971,1,0,0:0:0:0:
150,237,108171,1,0,0:0:0:0:
422,187,108371,5,0,0:0:0:0:
231,306,108571,1,0,0:0:0:0:
189,104,108771,1,0,0:0:0:0:
394,295,108971,2,0,P|451:325|525:315,1,110
422,187,109271,1,0,0:0:0:0:
422,187,109371,2,0,P|408:94|367:62,1,110
111,84,109771,6,0,P|86:132|90:187,1,110
319,196,110171,2,0,P|250:154|123:167,2,165
250,321,110971,6,0,P|325:324|393:286,1,110
410,175,111371,1,0,0:0:0:0:
52,147,111571,2,0,P|49:241|139:329,1,220
151,129,112171,2,0,P|149:104|125:60,1,55
236,192,112371,2,0,L|224:263,1,55
286,97,112571,5,0,0:0:0:0:
311,75,112671,1,0,0:0:0:0:
343,67,112771,1,0,0:0:0:0:
375,71,112871,1,0,0:0:0:0:
402,88,112971,1,0,0:0:0:0:
419,115,113071,1,0,0:0:0:0:
422,147,113171,1,0,0:0:0:0:
412,178,113271,1,0,0:0:0:0:
382,193,113371,5,0,0:0:0:0:
341,209,113471,1,0,0:0:0:0:
313,243,113571,1,0,0:0:0:0:
304,286,113671,1,0,0:0:0:0:
316,328,113771,1,0,0:0:0:0:
351,353,113871,1,0,0:0:0:0:
394,361,113971,1,0,0:0:0:0:
436,350,114071,1,0,0:0:0:0:
386,279,114171,5,0,0:0:0:0:
256,192,114221,12,0,115371,0:0:0:0:
89,189,115771,6,0,L|80:53,1,110
81,292,116171,1,0,0:0:0:0:
155,327,116271,1,0,0:0:0:0:
235,311,116371,1,0,0:0:0:0:
291,250,116471,1,0,0:0:0:0:
293,167,116571,1,0,0:0:0:0:
81,292,116771,5,0,0:0:0:0:
402,334,116971,1,0,0:0:0:0:
463,40,117171,1,0,0:0:0:0:
174,219,117371,6,0,P|109:174|35:199,1,110
81,292,117671,1,0,0:0:0:0:
155,327,117771,1,0,0:0:0:0:
235,311,117871,1,0,0:0:0:0:
291,250,117971,1,0,0:0:0:0:
146,45,118171,5,0,0:0:0:0:
258,167,118371,1,0,0:0:0:0:
436,113,118571,1,0,0:0:0:0:
146,45,118771,1,0,0:0:0:0:
434,296,118971,6,0,P|415:197|374:169,1,110
352,264,119271,1,0,0:0:0:0:
293,321,119371,2,0,P|257:340|205:340,1,55
73,308,119571,2,0,L|85:213,1,55
197,97,119771,2,0,L|190:151,1,55
400,56,119971,2,0,P|368:73|345:73,1,55
59,61,120171,5,0,0:0:0:0:
48,98,120271,1,0,0:0:0:0:
48,136,120371,1,0,0:0:0:0:
64,170,120471,1,0,0:0:0:0:
91,196,120571,2,0,P|109:259|106:341,1,110
192,342,120871,5,0,0:0:0:0:
256,288,120971,2,0,L|256:200,1,55
479,309,121171,2,0,P|446:291|413:286,1,55
192,342,121371,1,0,0:0:0:0:
224,362,121471,1,0,0:0:0:0:
261,369,121571,1,0,0:0:0:0:
298,359,121671,1,0,0:0:0:0:
327,334,121771,5,0,0:0:0:0:
339,297,121871,1,0,0:0:0:0:
335,258,121971,1,0,0:0:0:0:
316,224,122071,1,0,0:0:0:0:
282,205,122171,5,0,0:0:0:0:
459,45,122371,1,0,0:0:0:0:
449,322,122571,1,0,0:0:0:0:
145,272,122771,1,0,0:0:0:0:
188,34,122971,2,0,P|199:96|186:159,1,110
319,142,123271,2,0,P|313:87|324:34,1,110
463,236,123571,2,0,P|421:270|366:271,1,110
86,49,123971,6,0,P|90:86|83:124,1,55
76,336,124171,2,0,P|58:321|35:287,1,55
201,203,124371,2,0,P|241:153|303:143,2,110
282,221,124871,1,0,0:0:0:0:
357,186,124971,2,0,P|368:163|365:115,1,55
182,42,125171,5,0,0:0:0:0:
206,322,125371,1,0,0:0:0:0:
457,210,125571,1,0,0:0:0:0:
59,182,125771,1,0,0:0:0:0:
378,326,125971,1,0,0:0:0:0:
408,60,126171,2,0,P|375:103|324:119,1,110
188,119,126471,2,0,P|136:103|103:60,1,110
256,184,126771,1,0,0:0:0:0:
256,264,126871,1,0,0:0:0:0:
256,344,126971,1,0,0:0:0:0:
256,40,127171,5,0,0:0:0:0:
395,277,127371,5,0,0:0:0:0:
338,337,127471,1,0,0:0:0:0:
256,344,127571,1,0,0:0:0:0:
174,337,127671,1,0,0:0:0:0:
117,277,127771,1,0,0:0:0:0:
437,203,127971,5,0,0:0:0:0:
256,40,128171,1,0,0:0:0:0:
75,203,128371,5,0,0:0:0:0:
317,264,128571,1,0,0:0:0:0:
475,89,128771,1,0,0:0:0:0:
473,337,128971,1,0,0:0:0:0:
348,86,129171,1,0,0:0:0:0:
183,303,129371,2,0,P|116:306|45:264,1,110
76,93,129671,2,0,P|128:75|183:81,1,110
432,192,129971,2,0,L|288:192,1,110
240,192,130271,5,0,0:0:0:0:
160,192,130371,2,0,L|56:192,1,55
360,280,130571,1,0,0:0:0:0:
304,280,130671,1,0,0:0:0:0:
248,280,130771,1,0,0:0:0:0:
192,280,130871,1,0,0:0:0:0:
136,280,130971,6,0,L|56:280,1,55
472,104,131171,2,0,L|392:104,1,55
48,104,131371,1,0,0:0:0:0:
104,104,131471,1,0,0:0:0:0:
160,104,131571,1,0,0:0:0:0:
216,104,131671,1,0,0:0:0:0:
272,104,131771,6,0,P|238:55|175:58,1,110
324,249,132071,2,0,P|383:244|412:188,2,110
171,222,132571,2,0,P|146:276|180:329,1,110,0|0,2:0|2:0,2:0:0:0:
62,208,132871,5,0,0:0:0:0:
62,208,132971,2,0,L|58:138,1,55
257,293,133171,2,0,L|261:348,1,55
129,105,133371,5,0,0:0:0:0:
153,56,133471,1,0,0:0:0:0:
204,36,133571,1,0,0:0:0:0:
258,40,133671,1,0,0:0:0:0:
307,64,133771,2,0,P|330:86|372:98,1,55
211,207,133971,2,0,L|207:141,1,55
383,279,134171,5,0,0:0:0:0:
359,328,134271,1,0,0:0:0:0:
308,348,134371,1,0,0:0:0:0:
254,344,134471,1,0,0:0:0:0:
205,320,134571,2,0,P|182:298|140:286,1,55
301,177,134771,2,0,L|305:243,1,55
78,173,134971,6,0,P|33:115|39:41,1,110
72,269,135271,5,0,0:0:0:0:
120,93,135371,2,0,P|176:52|229:48,1,110
78,173,135671,5,0,0:0:0:0:
297,46,135771,2,0,P|350:57|392:93,2,110
297,46,136571,5,0,0:0:0:0:
415,209,136771,1,0,0:0:0:0:
134,164,136971,2,0,L|184:160,7,27.5
196,187,137371,6,0,P|184:266|160:303,1,110
452,332,137771,2,0,L|436:286,7,27.5
429,272,138171,6,0,P|417:175|427:134,1,110
380,90,138471,1,0,0:0:0:0:
303,58,138571,2,0,P|265:46|224:54,1,55
250,46,138871,5,0,0:0:0:0:
178,134,138971,2,0,P|103:119|74:56,1,110
62,211,139271,1,0,0:0:0:0:
62,211,139371,2,0,L|63:281,1,55
212,345,139571,2,0,L|211:290,1,55
303,122,139771,5,0,0:0:0:0:
341,124,139871,1,0,0:0:0:0:
377,135,139971,1,0,0:0:0:0:
407,158,140071,1,0,0:0:0:0:
427,190,140171,2,0,P|441:223|439:253,1,55
303,122,140371,2,0,P|290:95|287:62,1,55
441,241,140571,5,0,0:0:0:0:
434,279,140671,1,0,0:0:0:0:
416,313,140771,1,0,0:0:0:0:
384,335,140871,1,0,0:0:0:0:
348,349,140971,2,0,P|317:363|286:353,1,55
286,70,141171,2,0,P|290:97|303:122,1,55
486,82,141371,6,0,P|416:67|370:81,1,110
256,176,141671,5,0,0:0:0:0:
132,76,141771,2,0,P|78:66|26:82,1,110
80,192,142071,5,0,0:0:0:0:
25,301,142171,2,0,P|78:317|132:307,2,110
25,301,142771,1,0,0:0:0:0:
485,189,142971,6,0,P|371:154|187:252,1,330.000012588501
444,308,143571,1,0,0:0:0:0:
285,41,143771,1,0,0:0:0:0:
221,341,143971,5,0,0:0:0:0:
376,248,144171,1,0,0:0:0:0:
98,120,144371,1,0,0:0:0:0:
32,329,144571,6,0,P|133:320|161:250,2,165.000006294251
256,40,145171,1,0,0:0:0:0:
352,271,145371,2,0,P|400:334|388:199,1,330.000012588501
421,263,145871,1,0,0:0:0:0:
433,263,145971,1,0,0:0:0:0:
428,269,146071,1,0,0:0:0:0:
428,257,146171,6,0,P|425:162|403:124,1,82.5000031471254
213,55,146371,2,0,P|216:150|238:188,1,82.5000031471254
474,89,146571,2,0,L|370:72,1,82.5000031471254
167,223,146771,2,0,L|271:240,1,82.5000031471254
68,55,146971,5,0,0:0:0:0:
51,336,147171,1,0,0:0:0:0:
68,55,147371,1,0,0:0:0:0:
51,336,147571,1,0,0:0:0:0:
292,100,147771,5,0,0:0:0:0:
121,257,147971,2,0,P|45:197|43:119,1,165.000006294251
256,344,148371,1,0,0:0:0:0:
473,134,148571,2,0,P|458:212|391:257,1,165.000006294251
192,72,148971,2,0,P|256:28|320:72,1,165.000006294251
335,317,149371,5,0,0:0:0:0:
256,344,149471,1,0,0:0:0:0:
177,317,149571,2,0,P|130:250|125:168,1,165.000006294251
125,168,149971,5,0,0:0:0:0:
256,104,150071,1,0,0:0:0:0:
386,168,150171,2,0,P|381:250|334:317,1,165.000006294251
256,344,150471,5,0,0:0:0:0:
177,317,150571,2,0,P|89:285|40:338,1,165.000006294251
112,357,150871,5,0,0:0:0:0:
100,206,150971,2,0,L|88:33,2,165.000006294251
181,218,151471,1,0,0:0:0:0:
256,184,151571,1,0,0:0:0:0:
331,218,151671,1,0,0:0:0:0:
412,206,151771,1,0,0:0:0:0:
412,206,151971,6,0,P|418:163|396:110,1,82.5000031471254
213,235,152171,2,0,P|247:261|304:269,1,82.5000031471254
276,48,152371,2,0,P|235:64|200:109,1,82.5000031471254
284,270,152571,5,0,0:0:0:0:
284,270,152671,1,0,0:0:0:0:
284,270,152771,2,0,P|205:232|104:267,2,165.000006294251
352,317,153271,5,0,0:0:0:0:
434,323,153371,2,0,P|468:290|477:238,1,82.5000031471254
314,164,153571,2,0,P|280:132|223:134,1,82.5000031471254
31,267,153771,1,0,0:0:0:0:
79,275,153871,1,0,0:0:0:0:
126,261,153971,1,0,0:0:0:0:
156,222,154071,1,0,0:0:0:0:
161,172,154171,6,0,P|164:128|143:73,1,82.5000031471254
358,91,154371,2,0,P|347:131|351:172,1,82.5000031471254
256,356,154571,1,0,0:0:0:0:
256,274,154671,1,0,0:0:0:0:
256,192,154771,1,0,0:0:0:0:
256,112,154871,1,0,0:0:0:0:
256,29,154971,6,0,L|256:125,1,82.5000031471254
256,192,155171,2,0,L|256:288,1,82.5000031471254
256,356,155371,1,0,0:0:0:0:
97,252,157174,6,0,P|80:199|96:91,1,165.000006294251
416,92,157703,2,0,P|434:172|415:252,2,165.000006294251
348,312,158585,5,0,0:0:0:0:
164,312,158938,5,0,0:0:0:0:
442,338,159291,5,0,0:0:0:0:
70,338,159468,1,0,0:0:0:0:
256,56,159644,1,0,0:0:0:0:
256,56,159997,5,0,0:0:0:0:
374,146,160174,2,0,P|359:219|333:259,1,110
256,304,160438,1,0,0:0:0:0:
170,248,160526,2,0,P|156:224|144:189,1,55
153,56,160703,5,0,0:0:0:0:
274,159,160879,1,0,0:0:0:0:
50,238,161056,1,0,0:0:0:0:
138,146,161232,1,0,0:0:0:0:
139,339,161409,5,0,0:0:0:0:
372,339,161585,2,0,P|415:281|419:214,2,110
372,45,162115,2,0,P|415:103|419:170,1,110
372,339,162379,2,0,P|329:281|325:214,1,110
189,245,162644,2,0,P|175:297|140:339,1,110
118,105,162997,5,0,0:0:0:0:
256,332,163174,1,0,0:0:0:0:
293,152,163350,1,0,0:0:0:0:
72,218,163526,5,0,0:0:0:0:
195,36,163702,1,0,0:0:0:0:
355,209,163879,1,0,0:0:0:0:
145,308,164056,5,0,0:0:0:0:
423,150,164232,2,0,P|442:223|406:278,1,110
81,252,164585,2,0,P|68:200|89:150,1,110
485,310,164938,6,0,P|421:331|367:290,1,110
256,256,165203,2,0,L|256:104,1,110
126,314,165468,2,0,P|76:331|27:310,1,110
431,252,165821,5,0,0:0:0:0:
256,40,165997,1,0,0:0:0:0:
178,169,166174,1,0,0:0:0:0:
420,132,166350,2,0,P|473:66|478:26,1,110
34,43,166703,2,0,P|52:94|92:132,1,110
300,311,167056,2,0,P|357:207|305:119,1,220
300,311,167585,6,0,P|345:328|382:320,1,55
205,324,167762,2,0,P|148:264|97:270,2,110
299,311,168203,1,0,0:0:0:0:
387,323,168291,2,0,P|443:291|458:121,1,220
95,90,168821,5,0,0:0:0:0:
379,223,168997,1,0,0:0:0:0:
302,38,169174,1,0,0:0:0:0:
46,242,169350,1,0,0:0:0:0:
219,349,169526,1,0,0:0:0:0:
197,39,169703,6,0,P|195:121|165:177,1,110
41,335,170056,1,0,0:0:0:0:
471,335,170232,1,0,0:0:0:0:
315,39,170409,1,0,0:0:0:0:
165,237,170585,6,0,P|243:298|283:285,1,110
262,90,170850,2,0,P|170:127|161:168,1,110
340,248,171115,2,0,P|354:150|323:122,1,110
45,128,171468,5,0,0:0:0:0:
114,354,171644,1,0,0:0:0:0:
418,289,171821,1,0,0:0:0:0:
352,34,171997,2,0,L|344:181,1,137.5
332,343,172350,1,0,0:0:0:0:
141,211,172526,5,0,0:0:0:0:
422,87,172703,2,0,P|333:117|277:80,1,137.5
473,221,173056,1,0,0:0:0:0:
352,34,173232,1,0,0:0:0:0:
210,325,173409,6,0,P|223:251|217:176,1,137.5
16,271,173674,2,0,P|73:319|141:351,1,137.5
155,129,173938,2,0,P|84:154|22:197,1,137.5
339,332,174291,5,0,0:0:0:0:
487,234,174468,1,0,0:0:0:0:
331,29,174644,1,0,0:0:0:0:
271,255,174821,1,0,0:0:0:0:
472,44,174997,1,0,0:0:0:0:
468,332,175174,1,0,0:0:0:0:
186,280,175350,6,0,P|209:193|279:168,1,137.5
432,192,175703,1,0,0:0:0:0:
256,352,175879,1,0,0:0:0:0:
80,192,176056,1,0,0:0:0:0:
341,33,176232,6,0,L|345:183,1,137.5
167,170,176497,2,0,L|171:33,1,137.5
320,248,176762,2,0,P|256:270|192:248,1,137.5
446,78,177115,5,0,0:0:0:0:
454,325,177291,1,0,0:0:0:0:
58,325,177468,1,0,0:0:0:0:
66,78,177644,1,0,0:0:0:0:
256,352,177821,1,0,0:0:0:0:
412,191,177997,2,0,P|361:113|282:93,1,137.5
128,264,178350,2,0,P|256:307|384:264,1,275
256,224,178879,5,0,0:0:0:0:
256,144,178968,1,0,0:0:0:0:
189,96,179056,2,0,P|130:130|100:191,1,137.5
128,264,179321,1,0,0:0:0:0:
192,317,179409,2,0,P|255:340|320:317,1,137.5
384,264,179674,1,0,0:0:0:0:
411,190,179762,6,0,P|381:129|323:96,1,137.5
453,313,180115,1,0,0:0:0:0:
256,48,180291,1,0,0:0:0:0:
486,122,180468,5,0,0:0:0:0:
192,317,180644,1,0,0:0:0:0:
115,141,180821,1,0,0:0:0:0:
411,190,180997,1,0,0:0:0:0:
77,315,181174,6,0,P|58:278|56:234,1,68.75
135,62,181350,2,0,P|174:82|197:125,1,68.75
323,101,181526,2,0,P|345:75|377:62,1,68.75
457,251,181703,2,0,L|460:300,3,34.375
448,325,181879,6,0,P|368:332|317:276,1,137.5
184,297,182144,2,0,P|130:336|64:325,1,137.5
256,224,182409,2,0,L|256:40,1,137.5
256,86,182673,5,0,0:0:0:0:
312,102,182762,1,0,0:0:0:0:
333,155,182850,1,0,0:0:0:0:
312,208,182938,1,0,0:0:0:0:
256,224,183026,1,0,0:0:0:0:
200,208,183115,1,0,0:0:0:0:
179,155,183203,1,0,0:0:0:0:
200,102,183291,6,0,P|184:67|138:40,1,82.5000031471254
111,225,183468,2,0,P|128:267|168:292,1,82.5000031471254
354,288,183644,2,0,P|386:263|401:225,1,82.5000031471254
256,344,183821,2,0,L|256:224,1,82.5000031471254
391,90,183997,5,0,0:0:0:0:
354,45,184085,1,0,0:0:0:0:
296,39,184173,1,0,0:0:0:0:
256,86,184262,1,0,0:0:0:0:
256,86,184350,1,0,0:0:0:0:
216,39,184438,1,0,0:0:0:0:
158,45,184526,1,0,0:0:0:0:
121,90,184614,1,0,0:0:0:0:
121,148,184703,6,0,P|128:195|150:235,1,82.5000031471254
368,226,184879,2,0,P|385:188|391:148,1,82.5000031471254
184,296,185056,2,0,B|215:326|257:336|257:336|297:326|328:296,1,165.000006294251
256,248,185321,5,0,0:0:0:0:
256,248,185409,2,0,L|256:144,1,82.5000031471254
47,277,185585,2,0,P|68:313|110:337,1,82.5000031471254
410,334,185762,2,0,P|444:312|465:277,1,82.5000031471254
363,143,185938,2,0,L|368:234,1,82.5000031471254
299,325,186115,5,0,0:0:0:0:
241,330,186203,1,0,0:0:0:0:
190,301,186291,1,0,0:0:0:0:
178,244,186379,1,0,0:0:0:0:
197,188,186468,1,0,0:0:0:0:
217,134,186556,1,0,0:0:0:0:
203,77,186644,1,0,0:0:0:0:
156,43,186732,1,0,0:0:0:0:
100,61,186821,5,0,0:0:0:0:
78,114,186909,1,0,0:0:0:0:
109,162,186997,1,0,0:0:0:0:
166,166,187085,1,0,0:0:0:0:
217,134,187173,1,0,0:0:0:0:
249,85,187262,1,0,0:0:0:0:
303,67,187350,1,0,0:0:0:0:
359,78,187438,1,0,0:0:0:0:
402,104,187526,6,0,P|432:142|448:185,1,82.5000031471254
301,270,187703,2,0,P|280:228|290:164,1,82.5000031471254
381,314,187879,2,0,P|280:358|215:307,1,165.000006294251
145,108,188144,5,0,0:0:0:0:
183,150,188232,2,0,P|197:195|182:269,1,82.5000031471254
71,330,188409,2,0,P|57:281|70:235,1,82.5000031471254
280,152,188585,1,0,0:0:0:0:
333,131,188673,1,0,0:0:0:0:
389,143,188762,1,0,0:0:0:0:
421,190,188850,1,0,0:0:0:0:
431,238,188938,6,0,P|425:276|392:308,1,82.5000031471254
252,70,189115,1,0,0:0:0:0:
302,42,189203,1,0,0:0:0:0:
359,42,189291,1,0,0:0:0:0:
415,55,189380,1,0,0:0:0:0:
456,95,189468,1,0,0:0:0:0:
484,135,189556,1,0,0:0:0:0:
500,181,189644,6,0,P|507:231|493:292,1,82.5000031471254
334,347,189821,2,0,P|287:328|241:285,1,82.5000031471254
257,118,189997,2,0,P|296:86|356:68,1,82.5000031471254
71,178,190173,2,0,P|50:138|47:70,1,82.5000031471254
179,214,190350,5,0,0:0:0:0:
172,254,190438,1,0,0:0:0:0:
144,284,190526,1,0,0:0:0:0:
105,298,190615,1,0,0:0:0:0:
64,292,190703,1,0,0:0:0:0:
302,297,190879,5,0,0:0:0:0:
379,326,190968,1,0,0:0:0:0:
459,306,191056,2,0,P|488:277|482:202,1,82.5000031471254
359,71,191232,2,0,P|346:124|366:161,1,82.5000031471254
245,57,191409,1,0,0:0:0:0:
162,51,191497,1,0,0:0:0:0:
90,91,191585,1,0,0:0:0:0:
53,164,191673,1,0,0:0:0:0:
55,247,191762,6,0,P|77:304|112:325,1,82.5000031471254
419,316,191938,2,0,P|447:286|457:247,1,82.5000031471254
149,154,192115,2,0,P|137:197|135:251,1,82.5000031471254
377,234,192291,2,0,P|374:193|363:154,1,82.5000031471254
256,352,192468,5,0,0:0:0:0:
256,272,192556,1,0,0:0:0:0:
256,192,192644,1,0,0:0:0:0:
256,112,192732,1,0,0:0:0:0:
256,32,192821,2,0,L|359:77,1,82.5000031471254
256,352,192997,2,0,L|153:307,1,82.5000031471254
475,111,193173,5,0,0:0:0:0:
351,344,193350,1,0,0:0:0:0:
42,46,193526,1,0,0:0:0:0:
