osu file format v14

[General]
AudioFilename: Shukusai no Elementalia.mp3
AudioLeadIn: 0
PreviewTime: 65564
Countdown: 1
SampleSet: Soft
StackLeniency: 0.7
Mode: 0
LetterboxInBreaks: 1
WidescreenStoryboard: 0

[Editor]
Bookmarks: 52064,157711,162829,193534
DistanceSpacing: 1
BeatDivisor: 4
GridSize: 8
TimelineZoom: 1

[Metadata]
Title:Shukusai no Elementalia
TitleUnicode:祝祭のエレメンタリア
Artist:Ni-Sokkususu
ArtistUnicode:にーそっくすす
Creator:Firakus
Version:Insane
Source:
Tags:μ, Okubo Mana, 大久保真奈, Nakamura Hirofumi, 中村大史, Sakai Ryuji, Hirano Minoru, ヒラノミノル
BeatmapID:512864
BeatmapSetID:218856

[Difficulty]
HPDrainRate:6.5
CircleSize:4
OverallDifficulty:8.5
ApproachRate:9
SliderMultiplier:2
SliderTickRate:1

[Events]
//Background and Video events
0,0,"1924373.jpg",0,0
//Break Periods
//Storyboard Layer 0 (Background)
//Storyboard Layer 1 (Fail)
//Storyboard Layer 2 (Pass)
//Storyboard Layer 3 (Foreground)
//Storyboard Sound Samples

[TimingPoints]
2164,400,4,2,0,100,1,0
2164,-100,4,2,0,70,0,0
14964,-100,4,2,0,100,0,0
53364,-125,4,2,0,100,0,0
64964,-100,4,2,0,100,0,0
66164,-100,4,2,0,100,0,1
79164,-100,4,2,0,100,0,0
104564,-125,4,2,0,100,0,0
117364,-100,4,2,0,100,0,1
130164,-100,4,2,0,100,0,0
142764,-133.333333333333,4,2,0,80,0,0
157182,352.941176470588,4,2,0,100,1,1
171299,-83.3333333333333,4,2,0,100,0,1
182593,-100,4,2,0,100,0,0

[Colours]
Combo1 : 128,0,0
Combo2 : 128,255,128
Combo3 : 0,128,255
Combo4 : 255,0,0
Combo5 : 255,255,0

[HitObjects]
256,288,2164,5,8,0:0:0:0:
176,192,2564,1,8,0:0:0:0:
256,96,2964,1,8,0:0:0:0:
336,192,3364,1,8,0:0:0:0:
416,304,3764,5,8,0:0:0:0:
256,224,4164,1,8,0:0:0:0:
96,304,4564,1,8,0:0:0:0:
256,64,4964,1,8,0:0:0:0:
256,320,5364,6,0,L|256:208,1,100,0|8,0:0|0:0,0:0:0:0:
160,224,5764,2,0,P|160:136|120:120,1,100,0|8,0:0|0:0,0:0:0:0:
352,224,6164,2,0,P|352:136|392:120,1,100,0|8,0:0|0:0,0:0:0:0:
256,48,6564,1,0,0:0:0:0:
256,48,6764,1,8,0:0:0:0:
96,136,6964,6,0,P|88:216|112:256,1,100,0|8,0:0|0:0,0:0:0:0:
184,192,7364,2,0,L|184:312,1,100,0|8,0:0|0:0,0:0:0:0:
328,192,7764,2,0,L|328:312,1,100,0|8,0:0|0:0,0:0:0:0:
416,136,8164,2,0,P|424:216|400:256,1,100,0|8,0:0|0:0,0:0:0:0:
328,288,8564,5,4,3:0:0:0:
256,72,8964,1,0,0:0:0:0:
184,292,9364,1,4,3:0:0:0:
432,304,9764,1,0,0:0:0:0:
256,72,10164,1,4,3:0:0:0:
80,304,10564,1,0,0:0:0:0:
256,336,10964,2,0,L|256:136,1,200,4|0,3:0|0:0,0:0:0:0:
176,56,11764,6,0,P|104:80|80:80,1,100,0|0,3:0|0:0,0:0:0:0:
192,184,12164,2,0,P|128:240|120:272,1,100
336,328,12564,2,0,P|408:304|432:304,1,100,0|0,3:0|0:0,0:0:0:0:
320,200,12964,2,0,P|384:144|392:112,1,100,0|0,3:0|0:0,0:0:0:0:
256,192,13364,12,4,14564,0:0:0:0:
216,280,14964,5,0,0:0:0:0:
211,230,15064,1,0,0:0:0:0:
192,184,15164,1,0,0:0:0:0:
160,145,15264,1,0,0:0:0:0:
119,118,15364,1,0,0:0:0:0:
96,240,15564,1,8,0:0:0:0:
288,88,15764,5,0,0:0:0:0:
319,125,15864,1,0,0:0:0:0:
365,143,15964,1,0,0:0:0:0:
414,136,16064,1,0,0:0:0:0:
454,106,16164,1,0,0:0:0:0:
376,48,16364,1,8,0:0:0:0:
368,144,16564,5,0,0:0:0:0:
362,193,16664,1,0,0:0:0:0:
342,238,16764,1,0,0:0:0:0:
308,275,16864,1,0,0:0:0:0:
265,300,16964,1,0,0:0:0:0:
264,184,17164,1,8,0:0:0:0:
144,200,17364,6,0,P|144:120|104:96,1,100
48,160,17764,1,0,0:0:0:0:
240,136,17964,1,8,0:0:0:0:
400,152,18164,5,0,0:0:0:0:
350,154,18264,1,0,0:0:0:0:
312,185,18364,1,0,0:0:0:0:
301,233,18464,1,0,0:0:0:0:
320,278,18564,1,0,0:0:0:0:
408,240,18764,1,8,0:0:0:0:
400,152,18964,5,0,0:0:0:0:
357,126,19064,1,0,0:0:0:0:
310,109,19164,1,0,0:0:0:0:
260,103,19264,1,0,0:0:0:0:
210,107,19364,1,0,0:0:0:0:
288,192,19564,1,8,0:0:0:0:
64,160,19764,6,8,P|88:264|184:296,1,200
168,192,20364,1,0,0:0:0:0:
256,240,20564,2,0,P|293:208|294:160,2,100,0|0|0,0:0|0:0|0:0,0:0:0:0:
352,280,21164,1,8,0:0:0:0:
416,152,21364,5,0,0:0:0:0:
368,128,21464,1,0,0:0:0:0:
320,112,21564,1,0,0:0:0:0:
272,104,21664,1,0,0:0:0:0:
224,104,21764,2,0,P|129:125|105:149,1,100,0|8,0:0|0:0,0:0:0:0:
72,232,22164,1,0,0:0:0:0:
120,256,22264,1,0,0:0:0:0:
168,264,22364,1,0,0:0:0:0:
216,264,22464,1,0,0:0:0:0:
264,248,22564,2,0,P|359:227|383:203,1,100,0|8,0:0|0:0,0:0:0:0:
432,160,22964,5,0,0:0:0:0:
344,120,23164,1,0,0:0:0:0:
248,80,23364,1,0,0:0:0:0:
416,56,23564,1,8,0:0:0:0:
336,216,23764,5,0,0:0:0:0:
248,80,23964,1,0,0:0:0:0:
144,224,24164,2,0,P|234:187|242:163,1,100,0|8,0:0|0:0,0:0:0:0:
256,328,24564,5,0,0:0:0:0:
305,321,24664,1,0,0:0:0:0:
349,298,24764,1,0,0:0:0:0:
381,260,24864,1,0,0:0:0:0:
398,213,24964,1,0,0:0:0:0:
288,224,25164,1,8,0:0:0:0:
304,104,25364,5,0,0:0:0:0:
260,79,25464,1,0,0:0:0:0:
211,77,25564,1,0,0:0:0:0:
160,88,25664,1,0,0:0:0:0:
120,120,25764,1,0,0:0:0:0:
232,168,25964,2,0,P|296:136|312:104,1,100,8|0,0:0|0:0,0:0:0:0:
320,286,26364,5,0,0:0:0:0:
252,62,26564,1,0,0:0:0:0:
185,286,26764,1,0,0:0:0:0:
376,152,26964,1,0,0:0:0:0:
129,152,27164,1,0,0:0:0:0:
256,184,27364,1,4,0:0:0:0:
256,184,27764,5,0,0:0:0:0:
72,80,27964,1,0,0:0:0:0:
40,120,28064,1,0,0:0:0:0:
48,168,28164,1,0,0:0:0:0:
32,280,28364,2,0,P|88:304|136:304,1,100
176,128,28764,1,8,0:0:0:0:
400,280,28964,1,0,0:0:0:0:
392,184,29164,1,8,0:0:0:0:
480,224,29364,5,0,0:0:0:0:
392,184,29564,1,0,0:0:0:0:
151,296,29764,2,0,P|201:290|248:272,1,100
176,200,30164,1,0,0:0:0:0:
128,112,30364,1,8,0:0:0:0:
208,48,30564,1,0,0:0:0:0:
304,80,30764,1,8,0:0:0:0:
208,272,30964,5,4,0:0:0:0:
304,264,31164,1,0,0:0:0:0:
320,216,31264,1,0,0:0:0:0:
304,168,31364,1,0,0:0:0:0:
200,160,31564,2,0,P|256:80|280:72,1,100
352,48,31964,2,0,P|407:72|446:47,1,100,8|0,0:0|0:0,0:0:0:0:
472,152,32364,5,8,0:0:0:0:
480,200,32464,1,0,0:0:0:0:
464,248,32564,1,0,0:0:0:0:
368,288,32764,2,0,P|416:344|456:360,2,100,8|0|0,0:0|0:0|0:0,0:0:0:0:
280,184,33364,1,0,0:0:0:0:
192,136,33564,1,8,0:0:0:0:
120,64,33764,1,8,0:0:0:0:
224,288,33964,1,8,0:0:0:0:
320,64,34164,5,4,0:0:0:0:
56,144,34364,1,0,0:0:0:0:
56,200,34464,1,0,0:0:0:0:
80,248,34564,1,0,0:0:0:0:
176,208,34764,2,0,P|201:250|240:281,1,100
56,304,35164,1,8,0:0:0:0:
240,80,35364,2,8,P|296:136|288:192,1,100
408,192,35764,5,0,0:0:0:0:
408,104,35964,1,8,0:0:0:0:
416,288,36164,2,0,P|328:320|280:304,1,100
232,280,36564,1,8,0:0:0:0:
152,216,36764,1,0,0:0:0:0:
304,64,36964,1,8,0:0:0:0:
232,280,37164,1,8,0:0:0:0:
376,152,37364,6,0,P|424:215|431:255,1,100,0|8,0:0|0:0,0:0:0:0:
352,328,37764,2,0,P|304:264|296:224,1,100,0|8,0:0|0:0,0:0:0:0:
264,152,38164,2,0,P|216:96|168:80,1,100,0|8,0:0|0:0,0:0:0:0:
128,288,38564,2,0,P|120:208|144:176,1,100,0|8,0:0|0:0,0:0:0:0:
384,128,38964,5,0,1:0:0:0:
128,64,39164,1,8,1:0:0:0:
384,128,39364,1,0,1:0:0:0:
128,192,39564,1,8,1:0:0:0:
384,256,39764,1,0,1:0:0:0:
128,192,39964,1,8,1:0:0:0:
384,256,40164,1,0,1:0:0:0:
128,320,40364,1,8,1:0:0:0:
256,192,40564,5,4,0:0:0:0:
256,192,40764,2,0,L|256:128,2,50,0|0|0,0:0|0:0|0:0,0:0:0:0:
256,288,41164,1,8,0:0:0:0:
64,78,41364,2,0,P|95:172|168:240,1,200,0|8,0:0|0:0,0:0:0:0:
256,96,41964,1,8,0:0:0:0:
447,78,42164,2,0,P|416:172|344:240,1,200,8|8,0:0|0:0,0:0:0:0:
256,96,42764,5,0,0:0:0:0:
256,200,42964,2,0,L|256:320,1,100,8|0,0:0|0:0,0:0:0:0:
152,144,43364,2,0,P|112:88|104:40,1,100,8|8,0:0|0:0,0:0:0:0:
96,288,43764,5,4,0:0:0:0:
192,216,43964,1,0,0:0:0:0:
184,264,44064,1,0,0:0:0:0:
192,312,44164,1,8,0:0:0:0:
416,288,44364,1,0,0:0:0:0:
307,318,44564,2,0,P|288:221|320:128,1,200,8|8,0:0|0:0,0:0:0:0:
184,184,45164,5,8,0:0:0:0:
128,104,45364,1,0,0:0:0:0:
208,48,45564,1,8,0:0:0:0:
264,128,45764,1,0,0:0:0:0:
336,280,45964,1,8,0:0:0:0:
352,40,46164,5,0,0:0:0:0:
336,280,46364,1,8,0:0:0:0:
448,80,46564,1,8,0:0:0:0:
336,280,46764,1,8,0:0:0:0:
160,328,46964,5,4,0:0:0:0:
115,305,47064,1,0,0:0:0:0:
80,269,47164,1,0,0:0:0:0:
59,225,47264,1,0,0:0:0:0:
53,175,47364,1,0,0:0:0:0:
88,80,47564,2,0,P|136:48|176:40,2,100,0|0|0,0:0|0:0|0:0,0:0:0:0:
224,136,48164,5,8,0:0:0:0:
296,72,48364,1,8,0:0:0:0:
224,248,48564,1,0,0:0:0:0:
296,312,48764,1,8,0:0:0:0:
344,192,48964,2,0,L|472:192,2,100,0|8|0,0:0|0:0|0:0,0:0:0:0:
344,192,49564,1,8,0:0:0:0:
248,192,49764,1,8,0:0:0:0:
448,192,49964,1,8,0:0:0:0:
144,192,50164,5,4,0:0:0:0:
192,104,50364,2,0,L|176:48,2,50,0|0|0,0:0|0:0|0:0,0:0:0:0:
288,104,50764,1,0,0:0:0:0:
152,312,50964,2,0,P|176:224|168:176,1,100,0|8,0:0|0:0,0:0:0:0:
296,288,51364,2,0,P|272:200|280:152,1,100,0|8,0:0|0:0,0:0:0:0:
416,136,51764,6,8,P|352:88|288:80,1,100,8|8,0:0|0:0,0:0:0:0:
120,112,52164,2,8,P|184:64|248:56,1,100,8|8,0:0|0:0,0:0:0:0:
147,229,52564,1,8,0:0:0:0:
278,304,52764,1,8,0:0:0:0:
364,154,52964,1,8,0:0:0:0:
233,79,53164,1,8,0:0:0:0:
278,304,53364,6,0,P|344:256|368:152,2,160
264,200,54364,1,0,0:0:0:0:
296,96,54564,2,0,P|248:80|200:96,1,80,0|8,0:0|0:0,0:0:0:0:
64,280,54964,6,0,B|120:216|32:192|120:104,2,160,0|0|0,0:0|0:0|0:0,0:0:0:0:
88,48,55964,1,0,0:0:0:0:
176,104,56164,2,0,P|264:120|280:112,1,80,0|8,0:0|0:0,0:0:0:0:
392,240,56564,6,0,P|328:264|232:264,1,160
112,208,57164,1,0,0:0:0:0:
360,160,57364,1,0,0:0:0:0:
272,136,57564,2,0,P|256:64|232:32,1,80
253,59,57964,1,8,0:0:0:0:
208,328,58164,6,0,P|184:240|120:168,1,160
200,96,58764,1,0,0:0:0:0:
369,197,58964,2,0,P|322:133|304:56,1,160
369,197,59564,1,8,0:0:0:0:
112,216,59764,6,0,P|176:272|264:248,1,160
208,168,60364,1,0,0:0:0:0:
240,80,60564,1,0,0:0:0:0:
296,160,60764,1,0,0:0:0:0:
416,80,60964,2,0,P|416:248|424:256,1,160
352,304,61564,1,8,0:0:0:0:
272,280,61764,5,0,0:0:0:0:
256,232,61864,1,0,0:0:0:0:
224,192,61964,1,0,0:0:0:0:
104,136,62164,2,0,P|80:192|80:224,1,80
224,56,62564,1,0,0:0:0:0:
304,72,62764,1,8,0:0:0:0:
192,152,62964,6,0,P|216:216|392:272,2,240
256,192,64364,12,4,65764,0:0:0:0:
96,96,66164,6,0,P|80:152|96:232,1,100
176,160,66564,1,8,0:0:0:0:
384,160,66764,1,0,0:0:0:0:
176,160,66964,1,0,0:0:0:0:
272,272,67164,1,0,0:0:0:0:
280,64,67364,1,8,0:0:0:0:
232,56,67464,1,0,0:0:0:0:
184,64,67564,1,0,0:0:0:0:
336,280,67764,1,0,0:0:0:0:
336,280,67964,6,0,P|240:288|208:320,1,100,0|8,0:0|0:0,0:0:0:0:
136,248,68364,1,0,0:0:0:0:
80,168,68564,1,0,0:0:0:0:
64,120,68664,1,0,0:0:0:0:
72,72,68764,1,0,0:0:0:0:
298,107,68964,2,0,P|248:107|200:120,1,100,8|0,0:0|0:0,0:0:0:0:
400,128,69364,5,0,0:0:0:0:
280,216,69564,1,0,0:0:0:0:
312,256,69664,1,0,0:0:0:0:
320,304,69764,1,8,0:0:0:0:
176,112,69964,1,0,0:0:0:0:
48,192,70164,2,0,P|80:256|144:280,1,100
102,270,70564,5,8,0:0:0:0:
176,192,70764,1,0,0:0:0:0:
272,136,70964,1,0,0:0:0:0:
352,56,71164,2,0,P|408:96|440:96,2,100,0|8|0,0:0|0:0|0:0,0:0:0:0:
96,80,71764,1,0,0:0:0:0:
96,304,72064,1,0,0:0:0:0:
424,192,72364,1,8,0:0:0:0:
256,192,72564,5,4,0:0:0:0:
256,72,72764,1,0,0:0:0:0:
206,71,72864,1,0,0:0:0:0:
159,88,72964,1,0,0:0:0:0:
122,121,73064,1,0,0:0:0:0:
100,165,73164,1,0,0:0:0:0:
240,288,73364,2,0,P|136:256|120:240,1,100
352,240,73764,1,8,0:0:0:0:
384,128,73964,1,0,0:0:0:0:
176,88,74164,6,0,L|280:136,1,100
192,208,74564,1,8,0:0:0:0:
192,208,74764,1,0,0:0:0:0:
136,320,74964,1,0,0:0:0:0:
376,320,75264,1,0,0:0:0:0:
256,80,75564,1,8,0:0:0:0:
256,176,75764,6,0,P|256:288|328:312,1,200,4|8,0:0|0:0,0:0:0:0:
360,216,76364,1,0,0:0:0:0:
384,120,76564,1,0,0:0:0:0:
456,192,76764,1,0,0:0:0:0:
280,144,76964,2,0,P|232:96|176:64,1,100,8|0,0:0|0:0,0:0:0:0:
112,32,77364,5,0,0:0:0:0:
64,48,77464,1,0,0:0:0:0:
32,88,77564,1,0,0:0:0:0:
64,176,77764,2,0,P|168:160|160:72,1,200,8|0,0:0|0:0,0:0:0:0:
240,192,78364,5,0,0:0:0:0:
264,240,78464,1,0,0:0:0:0:
312,256,78564,1,0,0:0:0:0:
360,144,78764,2,0,P|328:72|280:56,1,100,8|4,0:0|0:0,0:0:0:0:
256,192,79764,5,12,0:0:0:0:
256,192,80564,1,4,0:0:0:0:
256,56,81364,5,4,0:0:0:0:
96,288,81564,1,4,0:0:0:0:
416,288,81764,1,4,0:0:0:0:
256,192,82164,5,12,0:0:0:0:
256,192,82964,1,4,0:0:0:0:
152,240,83564,2,0,P|184:312|232:328,1,100,8|4,0:0|0:0,0:0:0:0:
416,288,84564,5,4,0:0:0:0:
96,288,84764,1,4,0:0:0:0:
256,56,84964,1,4,0:0:0:0:
392,280,85364,5,0,0:0:0:0:
416,232,85464,1,0,0:0:0:0:
424,184,85564,1,0,0:0:0:0:
416,136,85664,1,0,0:0:0:0:
400,88,85764,1,0,0:0:0:0:
256,192,85964,1,8,0:0:0:0:
135,83,86164,5,0,0:0:0:0:
112,128,86264,1,0,0:0:0:0:
104,176,86364,1,0,0:0:0:0:
112,224,86464,1,0,0:0:0:0:
128,272,86564,1,0,0:0:0:0:
256,56,86764,2,0,L|256:192,2,100,8|0|0,0:0|0:0|0:0,0:0:0:0:
256,320,87364,5,0,0:0:0:0:
256,320,87564,1,8,0:0:0:0:
80,192,87764,1,0,0:0:0:0:
256,192,87964,1,0,0:0:0:0:
432,192,88164,1,0,0:0:0:0:
256,64,88364,1,8,0:0:0:0:
112,224,88564,5,0,0:0:0:0:
152,264,88664,1,0,0:0:0:0:
207,284,88764,1,0,0:0:0:0:
255,276,88864,1,0,0:0:0:0:
296,240,88964,1,0,0:0:0:0:
224,152,89164,1,8,0:0:0:0:
367,180,89364,5,0,0:0:0:0:
347,135,89464,1,0,0:0:0:0:
304,112,89564,1,0,0:0:0:0:
256,120,89664,1,0,0:0:0:0:
222,155,89764,1,0,0:0:0:0:
287,244,89964,1,8,0:0:0:0:
128,88,90164,6,0,L|72:200,1,100
224,152,90564,1,0,0:0:0:0:
384,296,90764,2,0,L|440:184,1,100
288,232,91164,1,0,0:0:0:0:
288,232,91364,1,4,0:0:0:0:
144,320,91764,5,4,0:0:0:0:
120,224,91964,2,0,B|88:152|96:168|64:152,2,50,0|0|0,0:0|0:0|0:0,0:0:0:0:
200,168,92364,1,0,0:0:0:0:
477,100,92564,2,0,P|379:90|288:128,1,200,0|8,0:0|0:0,0:0:0:0:
376,184,93164,5,0,0:0:0:0:
352,88,93364,1,0,0:0:0:0:
88,96,93564,1,0,0:0:0:0:
280,160,93764,1,8,0:0:0:0:
88,96,93964,1,0,0:0:0:0:
376,184,94164,1,0,0:0:0:0:
216,224,94364,1,0,0:0:0:0:
400,280,94564,1,8,0:0:0:0:
280,160,94764,1,0,0:0:0:0:
256,48,94964,6,0,P|336:56|368:80,1,100,4|0,0:0|0:0,0:0:0:0:
384,96,95264,1,0,0:0:0:0:
416,136,95364,1,0,0:0:0:0:
236,223,95564,2,0,L|320:168,1,100
236,223,95964,1,0,0:0:0:0:
96,72,96164,1,8,0:0:0:0:
96,312,96364,5,0,0:0:0:0:
288,256,96564,1,0,0:0:0:0:
96,312,96764,1,0,0:0:0:0:
328,104,96964,1,0,0:0:0:0:
96,312,97164,1,0,0:0:0:0:
176,128,97364,1,0,0:0:0:0:
96,312,97564,1,0,0:0:0:0:
328,104,97764,2,0,L|376:64,2,50,0|0|0,0:0|0:0|0:0,0:0:0:0:
256,264,98164,5,4,0:0:0:0:
112,184,98364,2,0,L|144:96,2,50,0|0|0,0:0|0:0|0:0,0:0:0:0:
32,120,98764,1,0,0:0:0:0:
216,152,98964,2,0,P|272:128|304:72,1,100
392,48,99364,1,8,0:0:0:0:
432,160,99564,1,0,0:0:0:0:
80,336,99764,6,0,P|152:304|176:344,1,100
152,168,100164,2,0,P|80:200|56:160,1,100,8|0,0:0|0:0,0:0:0:0:
344,288,100564,2,0,P|372:214|417:225,1,100
328,64,100964,2,0,P|299:137|254:126,1,100,8|0,0:0|0:0,0:0:0:0:
232,272,101364,5,0,0:0:0:0:
183,259,101464,1,0,0:0:0:0:
142,232,101564,1,0,0:0:0:0:
112,192,101664,1,0,0:0:0:0:
88,144,101764,1,0,0:0:0:0:
208,120,101964,2,0,P|248:56|240:0,1,100
320,312,102364,1,0,0:0:0:0:
400,256,102564,1,8,0:0:0:0:
424,160,102764,1,0,0:0:0:0:
376,72,102964,5,0,0:0:0:0:
176,256,103164,1,0,0:0:0:0:
376,72,103364,1,0,0:0:0:0:
240,192,103564,1,0,0:0:0:0:
376,72,103764,1,0,0:0:0:0:
176,256,103964,1,0,0:0:0:0:
376,72,104164,1,0,0:0:0:0:
144,64,104364,1,0,0:0:0:0:
234,304,104564,6,0,P|168:256|144:152,2,160,0|0|0,0:0|0:0|0:0,0:0:0:0:
248,200,105564,1,0,0:0:0:0:
216,96,105764,2,0,P|264:80|312:96,1,80,0|8,0:0|0:0,0:0:0:0:
448,280,106164,6,0,B|392:216|480:192|392:104,2,160,0|0|0,0:0|0:0|0:0,0:0:0:0:
424,48,107164,1,0,0:0:0:0:
312,88,107364,2,0,P|224:104|208:96,1,80,0|8,0:0|0:0,0:0:0:0:
120,240,107764,6,0,P|184:264|280:264,1,160
400,208,108364,1,0,0:0:0:0:
120,240,108564,1,0,0:0:0:0:
240,136,108764,2,0,P|256:64|280:32,1,80
259,59,109164,1,8,0:0:0:0:
304,328,109364,6,0,P|328:240|392:168,1,160
312,96,109964,1,0,0:0:0:0:
143,197,110164,2,0,P|190:133|208:56,1,160
143,197,110764,1,8,0:0:0:0:
400,216,110964,6,0,P|336:272|248:248,1,160
304,168,111564,1,0,0:0:0:0:
272,80,111764,1,0,0:0:0:0:
216,160,111964,1,0,0:0:0:0:
96,80,112164,2,0,P|96:248|88:256,1,160
160,304,112764,5,0,0:0:0:0:
264,280,112964,1,0,0:0:0:0:
320,272,113064,1,0,0:0:0:0:
368,288,113164,1,0,0:0:0:0:
408,136,113364,2,0,P|432:192|432:224,1,80
434,210,113764,1,0,0:0:0:0:
288,56,113964,1,8,0:0:0:0:
104,192,114164,6,0,P|64:144|112:64,1,160
160,128,114764,1,0,0:0:0:0:
408,192,114964,2,0,P|448:240|400:320,1,160
352,256,115564,1,0,0:0:0:0:
256,192,115764,1,8,0:0:0:0:
256,56,116164,5,8,0:0:0:0:
160,320,116564,1,8,0:0:0:0:
352,320,116964,1,8,0:0:0:0:
224,232,117364,5,0,0:0:0:0:
181,205,117464,1,0,0:0:0:0:
147,169,117564,1,0,0:0:0:0:
123,125,117664,1,0,0:0:0:0:
112,77,117764,1,0,0:0:0:0:
232,112,117964,1,0,0:0:0:0:
72,248,118164,1,0,0:0:0:0:
232,112,118364,1,0,0:0:0:0:
336,168,118564,2,0,P|368:104|360:56,2,100,8|0|0,0:0|0:0|0:0,0:0:0:0:
264,280,119164,5,0,0:0:0:0:
216,304,119264,1,0,0:0:0:0:
168,296,119364,1,8,0:0:0:0:
192,200,119564,2,0,P|160:136|120:112,1,100
304,72,120064,1,0,0:0:0:0:
408,280,120364,1,8,0:0:0:0:
152,288,120564,6,0,L|272:288,1,100,4|0,0:0|0:0,0:0:0:0:
216,192,120964,1,8,0:0:0:0:
264,192,121064,1,0,0:0:0:0:
312,192,121164,1,0,0:0:0:0:
360,96,121364,2,0,L|240:96,2,100,0|0|8,0:0|0:0|0:0,0:0:0:0:
360,96,121964,5,0,0:0:0:0:
408,192,122164,1,0,0:0:0:0:
360,288,122364,1,0,0:0:0:0:
160,192,122564,1,8,0:0:0:0:
360,288,122764,1,0,0:0:0:0:
360,96,122964,1,0,0:0:0:0:
160,192,123264,1,0,0:0:0:0:
408,192,123564,1,8,0:0:0:0:
408,192,123764,5,4,0:0:0:0:
360,104,123964,1,0,0:0:0:0:
336,56,124064,1,0,0:0:0:0:
288,40,124164,1,0,0:0:0:0:
256,136,124364,1,0,0:0:0:0:
232,232,124564,2,0,P|168:296|120:304,1,100
144,200,124964,1,8,0:0:0:0:
48,184,125164,1,0,0:0:0:0:
104,96,125364,6,0,P|176:64|208:72,1,100
296,72,125764,1,8,0:0:0:0:
248,272,125964,1,0,0:0:0:0:
384,184,126164,1,0,0:0:0:0:
248,168,126464,1,0,0:0:0:0:
384,184,126764,1,8,0:0:0:0:
384,312,126964,6,0,P|288:288|256:304,1,100,4|0,0:0|0:0,0:0:0:0:
144,320,127364,2,0,P|96:272|96:216,1,100
128,72,127764,2,0,P|224:96|256:80,1,100
368,64,128164,2,0,P|416:112|416:168,1,100,8|0,0:0|0:0,0:0:0:0:
368,320,128564,5,0,0:0:0:0:
304,240,128764,1,0,0:0:0:0:
304,144,128964,1,8,0:0:0:0:
216,192,129164,2,0,P|152:160|136:112,1,100
216,192,129564,2,0,P|152:224|136:272,2,100,0|0|8,0:0|0:0|0:0,0:0:0:0:
304,240,130164,1,4,0:0:0:0:
256,102,130564,5,0,0:0:0:0:
144,232,130964,1,0,0:0:0:0:
88,80,131364,1,0,0:0:0:0:
336,112,131764,5,0,0:0:0:0:
88,176,132164,1,0,0:0:0:0:
216,24,132564,1,0,0:0:0:0:
320,200,132964,1,0,0:0:0:0:
120,80,133364,5,0,0:0:0:0:
328,32,133764,1,0,0:0:0:0:
240,224,134164,1,0,0:0:0:0:
56,128,134564,1,0,0:0:0:0:
240,24,134964,5,0,0:0:0:0:
345,191,135364,1,0,0:0:0:0:
376,296,135764,2,0,P|456:328|488:328,2,100,0|0|0,0:0|0:0|0:0,0:0:0:0:
96,64,136564,6,0,P|136:160|88:280,1,200
256,192,137364,1,0,0:0:0:0:
256,192,137764,1,0,0:0:0:0:
416,320,138164,2,0,P|376:224|424:104,1,200
256,64,138964,1,0,0:0:0:0:
256,320,139364,1,0,0:0:0:0:
104,192,139764,6,0,P|88:264|120:296,2,100,0|0|0,0:0|0:0|0:0,0:0:0:0:
256,192,140564,1,0,0:0:0:0:
256,192,140964,1,0,0:0:0:0:
448,200,141364,2,0,P|464:128|432:96,2,100,0|0|0,0:0|0:0|0:0,0:0:0:0:
448,200,141964,1,0,0:0:0:0:
256,56,142164,1,0,0:0:0:0:
64,184,142364,1,0,0:0:0:0:
256,328,142564,1,0,0:0:0:0:
96,296,142764,5,0,0:0:0:0:
160,224,142964,2,0,P|184:88|176:72,2,150.000005722046,0|0|0,0:0|0:0|0:0,0:0:0:0:
88,152,143964,1,0,0:0:0:0:
112,56,144164,1,0,0:0:0:0:
208,40,144364,1,0,0:0:0:0:
304,72,144564,2,0,P|384:72|392:88,1,75.0000028610231
368,160,144964,2,0,P|376:208|400:224,1,75.0000028610231
392,320,145364,2,0,P|312:304|160:304,1,225.000008583069
96,304,146164,5,0,0:0:0:0:
72,272,146264,1,0,0:0:0:0:
56,240,146364,1,0,0:0:0:0:
48,200,146464,1,0,0:0:0:0:
64,168,146564,1,0,0:0:0:0:
88,136,146664,1,0,0:0:0:0:
120,120,146764,1,0,0:0:0:0:
160,120,146864,1,0,0:0:0:0:
200,128,146964,5,0,0:0:0:0:
224,160,147064,1,0,0:0:0:0:
240,192,147164,1,0,0:0:0:0:
264,216,147264,1,0,0:0:0:0:
296,224,147364,1,0,0:0:0:0:
336,216,147464,1,0,0:0:0:0:
368,192,147564,1,0,0:0:0:0:
384,160,147664,1,0,0:0:0:0:
456,80,147764,6,0,P|480:120|472:160,1,75.0000028610231
462,222,148164,2,0,P|414:254|382:254,2,75.0000028610231
332,104,148764,1,0,0:0:0:0:
248,152,148964,1,0,0:0:0:0:
152,128,149164,1,0,0:0:0:0:
168,224,149364,5,0,0:0:0:0:
112,304,149564,2,0,P|80:160|144:112,1,225.000008583069,0|0,0:0|0:0,0:0:0:0:
208,64,150364,1,0,0:0:0:0:
288,112,150564,1,0,0:0:0:0:
376,72,150764,1,0,0:0:0:0:
408,160,150964,2,0,P|416:224|448:240,2,75.0000028610231,0|0|0,0:0|0:0|0:0,0:0:0:0:
320,208,151564,2,0,L|224:256,1,75.0000028610231
163,176,151964,2,0,L|107:112,2,75.0000028610231
394,136,152564,5,0,0:0:0:0:
359,124,152664,1,0,0:0:0:0:
322,125,152764,1,0,0:0:0:0:
290,144,152864,1,0,0:0:0:0:
270,176,152964,1,0,0:0:0:0:
255,211,153064,1,0,0:0:0:0:
231,240,153164,1,0,0:0:0:0:
197,256,153264,1,0,0:0:0:0:
160,257,153364,5,0,0:0:0:0:
129,238,153464,1,0,0:0:0:0:
104,211,153564,1,0,0:0:0:0:
88,178,153664,1,0,0:0:0:0:
99,142,153764,1,0,0:0:0:0:
126,116,153864,1,0,0:0:0:0:
156,94,153964,1,0,0:0:0:0:
200,88,154064,1,0,0:0:0:0:
240,88,154164,2,0,L|304:112,1,37.5000014305115
256,136,154364,6,0,L|224:168,1,37.5000014305115
264,176,154564,2,0,L|320:200,1,37.5000014305115
272,216,154764,2,0,L|248:264,1,37.5000014305115
288,256,154964,2,0,L|336:256,1,37.5000014305115
344,288,155164,2,0,L|320:352,1,37.5000014305115
368,320,155364,1,0,0:0:0:0:
256,320,157182,5,0,0:0:0:0:
256,224,157358,2,0,L|256:96,1,100
168,216,157711,1,0,0:0:0:0:
344,216,158064,1,0,0:0:0:0:
432,272,158417,1,0,0:0:0:0:
432,272,158593,2,0,P|352:288|200:272,1,200,8|8,0:0|0:0,0:0:0:0:
136,264,159123,1,8,0:0:0:0:
88,176,159299,1,8,0:0:0:0:
120,80,159476,1,8,0:0:0:0:
216,48,159652,1,8,0:0:0:0:
320,224,160005,6,0,P|352:296|400:312,1,100
416,216,160358,1,8,0:0:0:0:
432,120,160534,1,0,0:0:0:0:
440,72,160623,1,0,0:0:0:0:
420,31,160711,1,0,0:0:0:0:
312,80,160887,1,0,0:0:0:0:
136,216,161064,1,8,0:0:0:0:
416,216,161240,1,0,0:0:0:0:
232,56,161417,1,0,0:0:0:0:
256,200,161593,5,0,0:0:0:0:
288,232,161682,1,0,0:0:0:0:
336,240,161770,1,8,0:0:0:0:
336,128,161946,1,0,0:0:0:0:
160,112,162123,1,0,0:0:0:0:
128,320,162387,1,0,0:0:0:0:
328,344,162652,1,8,0:0:0:0:
408,200,162829,6,0,P|328:152|312:112,1,100,4|0,0:0|0:0,0:0:0:0:
272,80,163182,1,0,0:0:0:0:
232,112,163270,1,0,0:0:0:0:
184,136,163358,1,0,0:0:0:0:
136,152,163446,1,0,0:0:0:0:
88,160,163534,1,0,0:0:0:0:
248,280,163711,1,0,0:0:0:0:
160,64,163887,1,8,0:0:0:0:
248,280,164064,1,0,0:0:0:0:
264,72,164240,1,0,0:0:0:0:
424,64,164417,6,0,L|424:192,1,100,0|8,0:0|0:0,0:0:0:0:
408,264,164770,1,0,0:0:0:0:
336,200,164946,1,0,0:0:0:0:
200,144,165211,1,0,0:0:0:0:
88,48,165476,1,8,0:0:0:0:
56,256,165652,5,4,0:0:0:0:
80,304,165740,1,0,0:0:0:0:
120,336,165829,1,0,0:0:0:0:
168,344,165917,1,0,0:0:0:0:
216,328,166005,1,0,0:0:0:0:
160,224,166182,1,0,0:0:0:0:
296,96,166358,1,0,0:0:0:0:
408,240,166534,1,0,0:0:0:0:
296,96,166711,1,8,0:0:0:0:
432,56,166887,1,0,0:0:0:0:
296,96,167064,5,0,0:0:0:0:
256,64,167152,1,0,0:0:0:0:
208,56,167240,1,0,0:0:0:0:
224,200,167417,2,0,P|168:152|176:112,1,100,8|0,0:0|0:0,0:0:0:0:
336,288,167770,1,0,0:0:0:0:
64,224,168034,1,0,0:0:0:0:
184,312,168299,1,8,0:0:0:0:
440,304,168476,6,0,P|448:224|424:168,1,100,4|0,0:0|0:0,0:0:0:0:
344,176,168829,1,0,0:0:0:0:
384,64,169005,2,0,P|304:48|248:72,1,100
232,168,169358,1,0,0:0:0:0:
144,96,169534,2,0,P|80:112|56:168,1,100,8|0,0:0|0:0,0:0:0:0:
160,320,169887,5,0,0:0:0:0:
208,336,169976,1,0,0:0:0:0:
256,344,170064,1,0,0:0:0:0:
304,344,170152,1,0,0:0:0:0:
352,336,170240,1,0,0:0:0:0:
256,240,170417,1,0,0:0:0:0:
384,192,170593,1,8,0:0:0:0:
280,96,170858,1,8,0:0:0:0:
424,48,171123,1,8,0:0:0:0:
160,48,171299,5,4,0:0:0:0:
104,72,171387,1,0,0:0:0:0:
72,120,171476,1,0,0:0:0:0:
56,176,171564,1,0,0:0:0:0:
48,232,171652,1,0,0:0:0:0:
80,344,171829,1,0,0:0:0:0:
200,176,172005,1,0,0:0:0:0:
200,176,172182,2,0,P|200:256|176:304,1,119.999996337891,0|8,0:0|0:0,0:0:0:0:
304,304,172534,1,0,0:0:0:0:
416,256,172711,6,0,P|472:160|464:128,1,119.999996337891
352,136,173064,2,0,P|376:64|448:48,1,119.999996337891,8|0,0:0|0:0,0:0:0:0:
411,46,173417,1,0,0:0:0:0:
232,48,173682,1,0,0:0:0:0:
104,168,173946,1,8,0:0:0:0:
144,280,174123,5,4,0:0:0:0:
264,296,174299,1,0,0:0:0:0:
256,96,174476,1,0,0:0:0:0:
352,192,174652,1,0,0:0:0:0:
162,91,174829,2,0,P|186:146|232:184,2,119.999996337891,0|0|8,0:0|0:0|0:0,0:0:0:0:
162,91,175358,1,0,0:0:0:0:
304,64,175534,5,0,0:0:0:0:
160,256,175711,1,0,0:0:0:0:
392,184,175887,1,8,0:0:0:0:
160,112,176064,1,0,0:0:0:0:
304,312,176240,1,0,0:0:0:0:
304,64,176505,1,0,0:0:0:0:
264,184,176770,1,8,0:0:0:0:
160,112,176946,5,4,0:0:0:0:
104,112,177034,1,0,0:0:0:0:
48,136,177123,1,0,0:0:0:0:
120,224,177299,2,0,P|192:280|240:280,2,119.999996337891,0|0|0,0:0|0:0|0:0,0:0:0:0:
48,40,177829,1,0,0:0:0:0:
376,216,178005,2,0,P|288:200|232:208,1,119.999996337891,8|0,0:0|0:0,0:0:0:0:
304,72,178358,5,0,0:0:0:0:
424,72,178534,1,0,0:0:0:0:
192,64,178711,1,8,0:0:0:0:
424,72,178887,1,0,0:0:0:0:
80,56,179064,1,0,0:0:0:0:
168,232,179329,1,0,0:0:0:0:
304,72,179593,1,8,0:0:0:0:
440,216,179770,6,0,P|360:192|304:192,1,119.999996337891,4|0,0:0|0:0,0:0:0:0:
328,296,180123,2,0,P|248:320|192:320,1,119.999996337891
96,320,180476,1,0,0:0:0:0:
96,64,180652,1,0,0:0:0:0:
136,192,180829,1,0,0:0:0:0:
264,192,181005,1,0,0:0:0:0:
400,168,181182,5,0,0:0:0:0:
352,136,181270,1,0,0:0:0:0:
304,104,181358,1,0,0:0:0:0:
248,96,181446,1,0,0:0:0:0:
192,112,181534,1,0,0:0:0:0:
256,312,181711,1,0,0:0:0:0:
176,224,181887,1,0,0:0:0:0:
256,64,182152,1,0,0:0:0:0:
80,104,182417,1,0,0:0:0:0:
72,264,182593,6,0,P|96:216|96:200,2,50,4|0|0,0:0|0:0|0:0,0:0:0:0:
160,144,182946,2,0,P|184:256|176:272,1,100,8|8,0:0|0:0,0:0:0:0:
280,176,183299,2,0,L|280:112,2,50,0|0|0,0:0|0:0|0:0,0:0:0:0:
376,264,183652,2,0,P|400:176|392:144,1,100,8|8,0:0|0:0,0:0:0:0:
368,64,184005,5,0,0:0:0:0:
392,112,184093,1,0,0:0:0:0:
400,160,184181,1,0,0:0:0:0:
400,208,184270,1,0,0:0:0:0:
392,256,184358,1,0,0:0:0:0:
256,80,184534,2,0,P|176:64|144:48,2,100,8|0|0,0:0|0:0|0:0,0:0:0:0:
256,80,185064,1,0,0:0:0:0:
256,240,185240,1,8,0:0:0:0:
88,208,185417,6,0,P|112:152|104:144,2,50,0|0|0,0:0|0:0|0:0,0:0:0:0:
112,72,185770,2,0,P|120:168|112:184,1,100,8|0,0:0|0:0,0:0:0:0:
256,168,186123,2,0,P|224:128|216:104,2,50,0|0|0,0:0|0:0|0:0,0:0:0:0:
344,240,186476,2,0,P|384:168|368:120,1,100,8|8,0:0|0:0,0:0:0:0:
376,56,186829,5,8,0:0:0:0:
280,56,187005,1,8,0:0:0:0:
192,104,187181,1,8,0:0:0:0:
96,72,187358,1,8,0:0:0:0:
136,328,187534,1,8,0:0:0:0:
232,328,187710,1,8,0:0:0:0:
320,280,187886,1,8,0:0:0:0:
416,312,188063,1,8,0:0:0:0:
472,176,188240,6,0,P|416:160|344:176,1,100,8|0,0:0|0:0,0:0:0:0:
321,126,188593,1,4,0:0:0:0:
321,126,188770,1,8,0:0:0:0:
40,208,188946,6,0,P|96:224|168:208,1,100,8|0,0:0|0:0,0:0:0:0:
190,257,189299,1,0,0:0:0:0:
190,257,189476,1,8,0:0:0:0:
192,160,189652,5,0,0:0:0:0:
208,112,189740,1,0,0:0:0:0:
248,88,189829,1,0,0:0:0:0:
288,184,190005,2,0,P|360:136|368:80,1,100,8|8,0:0|0:0,0:0:0:0:
288,64,190358,1,8,0:0:0:0:
200,48,190534,1,8,0:0:0:0:
376,48,190711,1,0,0:0:0:0:
448,104,190887,1,8,0:0:0:0:
440,208,191064,6,0,P|432:272|424:272,2,50,0|0|0,0:0|0:0|0:0,0:0:0:0:
368,280,191417,2,0,P|272:264|256:256,1,100,8|0,0:0|0:0,0:0:0:0:
240,176,191770,1,0,0:0:0:0:
208,208,191858,1,0,0:0:0:0:
160,224,191946,1,0,0:0:0:0:
104,288,192123,2,0,P|24:240|24:200,1,100,8|0,0:0|0:0,0:0:0:0:
112,144,192476,5,0,0:0:0:0:
144,104,192564,1,0,0:0:0:0:
192,88,192652,1,0,0:0:0:0:
232,96,192740,1,0,0:0:0:0:
264,136,192828,1,0,0:0:0:0:
296,176,192917,1,0,0:0:0:0:
344,184,193005,1,0,0:0:0:0:
384,152,193093,1,0,0:0:0:0:
416,112,193181,1,0,0:0:0:0:
400,288,193358,5,8,0:0:0:0:
112,288,193534,1,12,0:0:0:0:
