osu file format v13

[General]
AudioFilename: Shukusai no Elementalia.mp3
AudioLeadIn: 0
PreviewTime: 65564
Countdown: 1
SampleSet: None
StackLeniency: 0.7
Mode: 0
LetterboxInBreaks: 1
WidescreenStoryboard: 0

[Editor]
Bookmarks: 52064,116164
DistanceSpacing: 1
BeatDivisor: 4
GridSize: 8
TimelineZoom: 1

[Metadata]
Title:Shukusai no Elementalia
TitleUnicode:祝祭のエレメンタリア
Artist:Ni-Sokkususu
ArtistUnicode:にーそっくすす
Creator:Firakus
Version:Hard
Source:
Tags:μ, Okubo Mana, 大久保真奈, Nakamura Hirofumi, 中村大史, Sakai Ryuji, Hirano Minoru, ヒラノミノル
BeatmapID:512863
BeatmapSetID:218856

[Difficulty]
HPDrainRate:6
CircleSize:3.5
OverallDifficulty:7
ApproachRate:8
SliderMultiplier:1.7
SliderTickRate:1

[Events]
//Background and Video events
0,0,"1924373.jpg",0,0
//Break Periods
2,79164,91014
2,142763,156432
//Storyboard Layer 0 (Background)
//Storyboard Layer 1 (Fail)
//Storyboard Layer 2 (Pass)
//Storyboard Layer 3 (Foreground)
//Storyboard Sound Samples

[TimingPoints]
2164,400,4,2,0,100,1,0
53364,-125,4,2,0,100,0,0
64964,-100,4,2,0,100,0,0
66164,-100,4,2,0,100,0,1
79164,-100,4,2,0,100,0,0
104564,-125,4,2,0,100,0,0
117364,-100,4,2,0,100,0,1
130164,-100,4,2,0,100,0,0
157182,352.941176470588,4,2,0,100,1,0
171299,-83.3333333333333,4,2,0,100,0,1
182593,-100,4,2,0,100,0,0

[Colours]
Combo1 : 128,0,0
Combo2 : 128,255,128
Combo3 : 0,128,255
Combo4 : 255,0,0
Combo5 : 255,255,0

[HitObjects]
256,312,2164,5,0,0:0:0:0:
136,192,2564,1,0,0:0:0:0:
376,192,2964,1,0,0:0:0:0:
256,72,3364,5,0,0:0:0:0:
256,240,3764,1,0,0:0:0:0:
88,232,4164,2,0,P|80:112|128:72,1,170
272,40,4964,1,0,0:0:0:0:
424,112,5364,6,0,P|432:232|384:272,1,170
264,168,6164,1,0,0:0:0:0:
120,72,6564,1,0,0:0:0:0:
112,240,6964,1,0,0:0:0:0:
256,336,7364,2,0,P|352:272|360:208,1,170
368,56,8164,1,0,0:0:0:0:
240,168,8564,5,0,0:0:0:0:
128,296,8964,1,0,0:0:0:0:
296,312,9364,1,0,0:0:0:0:
344,152,9764,2,0,P|472:112|488:144,1,170
464,280,10564,1,0,0:0:0:0:
304,224,10964,1,0,0:0:0:0:
208,80,11364,1,0,0:0:0:0:
256,192,11764,12,0,14564,0:0:0:0:
168,280,14964,6,0,P|136:240|128:240,3,42.5,0|0|0|0,0:0|0:0|0:0|0:0,0:0:0:0:
184,224,15364,2,0,P|216:136|208:120,1,85
280,88,15764,2,0,P|232:48|224:48,3,42.5,0|0|0|0,0:0|0:0|0:0|0:0,0:0:0:0:
216,40,16164,1,0,0:0:0:0:
384,48,16564,5,0,0:0:0:0:
416,128,16764,1,0,0:0:0:0:
368,200,16964,1,0,0:0:0:0:
416,272,17164,1,0,0:0:0:0:
328,280,17364,2,0,P|216:280|168:328,1,170
96,328,17964,1,0,0:0:0:0:
88,240,18164,6,0,P|128:216|128:208,3,42.5,0|0|0|0,0:0|0:0|0:0|0:0,0:0:0:0:
136,184,18564,1,0,0:0:0:0:
176,104,18764,1,0,0:0:0:0:
264,88,18964,2,0,L|224:64,3,42.5,0|0|0|0,0:0|0:0|0:0|0:0,0:0:0:0:
216,24,19364,1,0,0:0:0:0:
376,80,19764,6,0,P|450:111|455:192,1,170
376,168,20364,1,0,0:0:0:0:
296,200,20564,1,0,0:0:0:0:
216,216,20764,1,0,0:0:0:0:
152,160,20964,1,0,0:0:0:0:
184,328,21364,6,0,L|232:312,3,42.5,0|0|0|0,0:0|0:0|0:0|0:0,0:0:0:0:
264,296,21764,2,0,P|280:208|272:192,1,85
336,152,22164,2,0,L|280:112,3,42.5,0|0|0|0,0:0|0:0|0:0|0:0,0:0:0:0:
288,88,22564,1,0,0:0:0:0:
120,56,22964,5,0,0:0:0:0:
176,120,23164,1,0,0:0:0:0:
248,160,23364,2,0,P|160:208|144:208,2,85,0|0|0,0:0|0:0|0:0,0:0:0:0:
312,96,23964,1,0,0:0:0:0:
392,112,24164,1,0,0:0:0:0:
392,280,24564,6,0,L|408:232,3,42.5,0|0|0|0,0:0|0:0|0:0|0:0,0:0:0:0:
360,240,24964,2,0,P|318:233|276:241,1,85
208,184,25364,2,0,P|248:160|256:160,3,42.5,0|0|0|0,0:0|0:0|0:0|0:0,0:0:0:0:
248,120,25764,1,0,0:0:0:0:
408,64,26164,5,0,0:0:0:0:
352,128,26364,1,0,0:0:0:0:
344,216,26564,1,0,0:0:0:0:
256,200,26764,1,0,0:0:0:0:
184,152,26964,2,0,P|96:88|32:120,1,170
136,248,27764,6,0,P|48:240|32:232,2,85,0|0|0,0:0|0:0|0:0,0:0:0:0:
216,232,28364,1,0,0:0:0:0:
256,312,28564,2,0,P|296:239|281:157,1,170
232,88,29164,1,0,0:0:0:0:
312,56,29364,6,0,P|392:56|432:40,1,85
480,40,29764,1,0,0:0:0:0:
448,120,29964,1,0,0:0:0:0:
456,208,30164,1,0,0:0:0:0:
384,248,30364,1,0,0:0:0:0:
352,328,30564,1,0,0:0:0:0:
208,232,30964,5,0,0:0:0:0:
296,232,31164,2,0,L|352:264,2,42.5,0|0|0,0:0|0:0|0:0,0:0:0:0:
304,144,31564,1,0,0:0:0:0:
384,112,31764,2,0,P|320:64|208:72,2,170,0|0|0,0:0|0:0|0:0,0:0:0:0:
304,144,32764,5,0,0:0:0:0:
216,144,32964,1,0,0:0:0:0:
144,104,33164,1,0,0:0:0:0:
88,168,33364,2,0,P|104:240|88:264,1,85
176,288,33764,1,0,0:0:0:0:
344,304,34164,5,0,0:0:0:0:
344,216,34364,2,0,L|328:160,2,42.5,0|0|0,0:0|0:0|0:0,0:0:0:0:
256,224,34764,1,0,0:0:0:0:
296,144,34964,2,0,P|213:140|161:203,1,170
152,288,35564,1,0,0:0:0:0:
232,312,35764,6,0,L|344:320,1,85
352,240,36164,2,0,L|448:248,1,85
448,160,36564,1,0,0:0:0:0:
384,112,36764,1,0,0:0:0:0:
320,56,36964,1,0,0:0:0:0:
184,152,37364,5,0,0:0:0:0:
160,232,37564,2,0,P|112:240|96:232,2,42.5,0|0|0,0:0|0:0|0:0,0:0:0:0:
240,264,37964,1,0,0:0:0:0:
320,280,38164,2,0,P|384:192|376:120,2,170,0|0|0,0:0|0:0|0:0,0:0:0:0:
200,160,39364,2,0,P|136:248|144:320,2,170,0|0|0,0:0|0:0|0:0,0:0:0:0:
336,256,40564,5,0,0:0:0:0:
248,264,40764,2,0,L|200:248,2,42.5,0|0|0,0:0|0:0|0:0,0:0:0:0:
280,184,41164,1,0,0:0:0:0:
320,104,41364,2,0,P|200:104|152:144,1,170
104,192,41964,5,0,0:0:0:0:
120,272,42164,1,0,0:0:0:0:
40,248,42364,1,0,0:0:0:0:
56,328,42564,1,0,0:0:0:0:
136,352,42764,1,0,0:0:0:0:
208,304,42964,1,0,0:0:0:0:
288,288,43164,2,0,P|328:216|320:192,1,85,0|0,0:0|0:0,0:0:0:0:
456,328,43764,5,0,0:0:0:0:
464,240,43964,2,0,L|472:168,2,42.5,0|0|0,0:0|0:0|0:0,0:0:0:0:
472,152,44364,2,0,P|392:152|384:168,1,85
312,168,44764,1,0,0:0:0:0:
248,112,44964,1,0,0:0:0:0:
200,40,45164,1,0,0:0:0:0:
160,120,45364,6,0,P|160:192|168:216,1,85
208,272,45764,1,0,0:0:0:0:
288,288,45964,2,0,P|288:216|296:192,2,85,0|0|0,0:0|0:0|0:0,0:0:0:0:
368,248,46564,1,0,0:0:0:0:
336,80,46964,5,0,0:0:0:0:
256,56,47164,2,0,P|200:56|192:64,2,42.5,0|0|0,0:0|0:0|0:0,0:0:0:0:
224,136,47564,1,0,0:0:0:0:
160,80,47764,2,0,P|130:156|170:228,1,170
328,288,48564,6,0,P|296:224|264:216,1,85
256,144,48964,2,0,P|352:144|360:152,1,85
416,120,49364,2,0,P|416:200|440:216,1,85
496,168,49764,1,0,0:0:0:0:
368,280,50164,5,0,0:0:0:0:
280,280,50364,2,0,P|288:328|296:328,2,42.5,0|0|0,0:0|0:0|0:0,0:0:0:0:
200,264,50764,1,0,0:0:0:0:
160,344,50964,2,0,P|96:272|120:184,1,170
264,144,51764,6,0,L|360:224,1,85
328,280,52164,2,0,L|232:200,1,85,0|0,0:0|0:0,0:0:0:0:
224,296,52564,2,0,L|158:350,1,85,0|0,0:0|0:0,0:0:0:0:
120,272,52963,2,0,L|185:217,1,85
224,160,53364,6,0,P|376:120|384:120,2,136,0|0|0,0:0|0:0|0:0,0:0:0:0:
120,72,54564,1,0,0:0:0:0:
120,208,54964,2,0,P|168:256|256:256,2,136,0|0|0,0:0|0:0|0:0,0:0:0:0:
240,144,56164,1,0,0:0:0:0:
344,56,56564,6,0,B|312:128|376:184|352:272|304:312|360:336|320:344,2,272,0|0|0,0:0|0:0|0:0,0:0:0:0:
208,88,58564,1,0,0:0:0:0:
120,192,58964,1,0,0:0:0:0:
256,216,59364,2,0,P|280:264|280:288,1,68
256,344,59764,6,0,P|168:288|160:256,2,136,0|0|0,0:0|0:0|0:0,0:0:0:0:
288,216,60964,1,0,0:0:0:0:
416,168,61364,2,0,P|428:101|409:37,2,136,0|0|0,0:0|0:0|0:0,0:0:0:0:
440,304,62564,1,0,0:0:0:0:
256,192,62964,12,0,64564,0:0:0:0:
256,88,64964,5,0,0:0:0:0:
160,232,65364,1,0,0:0:0:0:
352,232,65764,1,0,0:0:0:0:
256,88,66164,5,0,0:0:0:0:
304,160,66364,2,0,P|216:160|208:144,1,85
160,224,66764,1,0,0:0:0:0:
232,272,66964,2,0,P|288:344|288:352,2,85,0|0|0,0:0|0:0|0:0,0:0:0:0:
200,352,67564,1,0,0:0:0:0:
112,208,67964,6,0,P|104:166|89:126,1,85
144,64,68364,1,0,0:0:0:0:
224,96,68564,1,0,0:0:0:0:
312,192,68864,1,0,0:0:0:0:
416,120,69164,1,0,0:0:0:0:
448,200,69364,6,0,P|488:232|488:280,1,85
408,280,69764,2,0,P|360:360|344:368,1,85
304,296,70164,1,0,0:0:0:0:
264,216,70364,1,0,0:0:0:0:
400,112,70764,5,0,0:0:0:0:
312,104,70964,1,0,0:0:0:0:
232,120,71164,1,0,0:0:0:0:
152,144,71364,2,0,P|168:72|192:64,1,85
248,32,71764,1,0,0:0:0:0:
288,152,72064,1,0,0:0:0:0:
184,224,72364,1,0,0:0:0:0:
128,288,72564,5,0,0:0:0:0:
208,312,72764,2,0,P|272:360|304:360,1,85
288,280,73164,1,0,0:0:0:0:
368,248,73364,2,0,P|384:304|408:320,1,85,0|0,0:0|0:0,0:0:0:0:
464,160,73964,5,0,0:0:0:0:
400,104,74164,2,0,P|392:208|400:224,1,85
416,264,74564,1,0,0:0:0:0:
336,288,74764,1,0,0:0:0:0:
264,240,74964,1,0,0:0:0:0:
248,112,75264,1,0,0:0:0:0:
128,72,75564,1,0,0:0:0:0:
120,160,75764,5,0,0:0:0:0:
184,216,75964,2,0,P|128:248|88:248,1,85
24,248,76364,1,0,0:0:0:0:
72,320,76564,1,0,0:0:0:0:
160,328,76764,1,0,0:0:0:0:
328,328,77164,5,0,0:0:0:0:
408,304,77364,1,0,0:0:0:0:
384,224,77564,1,0,0:0:0:0:
392,136,77764,1,0,0:0:0:0:
320,96,77964,1,0,0:0:0:0:
384,40,78164,1,0,0:0:0:0:
496,96,78464,1,0,0:0:0:0:
496,224,78764,1,0,0:0:0:0:
512,304,78964,1,0,0:0:0:0:
256,192,91764,5,0,0:0:0:0:
336,160,91964,2,0,P|352:120|352:104,2,42.5,0|0|0,0:0|0:0|0:0,0:0:0:0:
400,216,92364,1,0,0:0:0:0:
456,280,92564,2,0,P|376:304|280:280,1,170
152,200,93364,6,0,L|248:136,1,85
272,88,93764,2,0,L|344:176,1,85
400,104,94164,1,0,0:0:0:0:
456,168,94364,1,0,0:0:0:0:
432,248,94564,1,0,0:0:0:0:
288,344,94964,5,0,0:0:0:0:
208,312,95164,2,0,L|136:312,2,42.5,0|0|0,0:0|0:0|0:0,0:0:0:0:
208,224,95564,1,0,0:0:0:0:
136,176,95764,2,0,P|208:128|224:128,2,85,0|0|0,0:0|0:0|0:0,0:0:0:0:
32,312,96564,5,0,0:0:0:0:
32,224,96764,1,0,0:0:0:0:
56,144,96964,1,0,0:0:0:0:
104,72,97164,1,0,0:0:0:0:
192,64,97364,2,0,P|248:136|264:136,1,85
288,64,97764,1,0,0:0:0:0:
456,96,98164,5,0,0:0:0:0:
440,176,98364,2,0,L|496:176,2,42.5,0|0|0,0:0|0:0|0:0,0:0:0:0:
392,248,98764,1,0,0:0:0:0:
312,264,98964,2,0,P|256:248|224:216,1,85
168,176,99364,1,0,0:0:0:0:
288,56,99764,5,0,0:0:0:0:
288,144,99964,2,0,P|272:216|272:232,1,85
352,200,100364,1,0,0:0:0:0:
376,280,100564,1,0,0:0:0:0:
304,328,100764,1,0,0:0:0:0:
224,304,100964,1,0,0:0:0:0:
152,264,101164,1,0,0:0:0:0:
192,192,101364,6,0,P|176:136|152:128,2,85,0|0|0,0:0|0:0|0:0,0:0:0:0:
104,192,101964,1,0,0:0:0:0:
56,120,102164,2,0,P|80:72|208:48,1,170
352,80,102964,5,0,0:0:0:0:
432,96,103164,1,0,0:0:0:0:
376,160,103364,2,0,P|360:256|344:272,1,85
320,312,103764,1,0,0:0:0:0:
256,256,103964,1,0,0:0:0:0:
192,192,104164,1,0,0:0:0:0:
264,144,104364,1,0,0:0:0:0:
232,88,104564,6,0,P|80:48|72:48,2,136,0|0|0,0:0|0:0|0:0,0:0:0:0:
136,184,105764,1,0,0:0:0:0:
248,256,106164,2,0,P|200:304|112:304,2,136,0|0|0,0:0|0:0|0:0,0:0:0:0:
376,296,107364,1,0,0:0:0:0:
240,304,107764,2,0,B|184:264|264:224|248:128|248:128|184:120|192:72,2,272,0|0|0,0:0|0:0|0:0,0:0:0:0:
376,320,109764,1,0,0:0:0:0:
424,192,110164,1,0,0:0:0:0:
304,136,110564,2,0,P|280:88|280:64,1,68
224,120,110964,6,0,P|191:61|128:39,2,136,0|0|0,0:0|0:0|0:0,0:0:0:0:
200,256,112164,1,0,0:0:0:0:
336,280,112564,2,0,P|344:152|336:136,2,136,0|0|0,0:0|0:0|0:0,0:0:0:0:
232,192,113764,1,0,0:0:0:0:
256,192,114164,12,0,115764,0:0:0:0:
256,296,116164,5,0,0:0:0:0:
352,152,116564,1,0,0:0:0:0:
160,152,116964,1,0,0:0:0:0:
296,56,117364,5,0,0:0:0:0:
368,96,117564,2,0,P|360:184|352:192,1,85
328,256,117964,1,0,0:0:0:0:
392,304,118164,1,0,0:0:0:0:
312,336,118364,1,0,0:0:0:0:
224,328,118564,2,0,P|160:264|160:240,1,85,0|0,0:0|0:0,0:0:0:0:
144,104,119164,6,0,L|184:128,2,42.5,0|0|0,0:0|0:0|0:0,0:0:0:0:
216,56,119564,1,0,0:0:0:0:
304,72,119764,1,0,0:0:0:0:
384,176,120064,1,0,0:0:0:0:
472,88,120364,1,0,0:0:0:0:
488,168,120564,5,0,0:0:0:0:
456,248,120764,1,0,0:0:0:0:
392,192,120964,1,0,0:0:0:0:
368,272,121164,2,0,P|296:320|272:320,1,85
280,240,121564,1,0,0:0:0:0:
216,184,121764,1,0,0:0:0:0:
328,56,122164,5,0,0:0:0:0:
248,80,122364,2,0,L|296:112,2,42.5,0|0|0,0:0|0:0|0:0,0:0:0:0:
168,112,122764,1,0,0:0:0:0:
128,184,122964,1,0,0:0:0:0:
240,248,123264,1,0,0:0:0:0:
136,320,123564,1,0,0:0:0:0:
216,336,123764,5,0,0:0:0:0:
288,376,123964,2,0,P|304:296|296:288,1,85
264,224,124364,1,0,0:0:0:0:
320,160,124564,1,0,0:0:0:0:
400,184,124764,2,0,P|400:120|376:104,1,85
224,72,125364,5,0,0:0:0:0:
144,104,125564,1,0,0:0:0:0:
208,160,125764,1,0,0:0:0:0:
152,224,125964,1,0,0:0:0:0:
216,272,126164,1,0,0:0:0:0:
336,320,126464,1,0,0:0:0:0:
456,272,126764,1,0,0:0:0:0:
384,232,126964,5,0,0:0:0:0:
384,144,127164,1,0,0:0:0:0:
464,112,127364,2,0,P|400:56|384:48,1,85
320,72,127764,2,0,P|272:56|232:72,1,85
168,104,128164,1,0,0:0:0:0:
256,248,128564,5,0,0:0:0:0:
336,280,128764,1,0,0:0:0:0:
328,192,128964,2,0,P|360:136|376:112,2,85,0|0|0,0:0|0:0|0:0,0:0:0:0:
456,200,129664,1,0,0:0:0:0:
384,304,129964,1,0,0:0:0:0:
296,312,130164,1,0,0:0:0:0:
256,80,130964,5,0,0:0:0:0:
136,304,131764,1,0,0:0:0:0:
376,304,132564,1,0,0:0:0:0:
312,360,132764,2,0,P|288:304|312:248,1,85
192,144,133364,5,0,0:0:0:0:
320,288,134164,1,0,0:0:0:0:
360,96,134964,1,0,0:0:0:0:
80,288,135764,1,0,0:0:0:0:
160,256,135964,2,0,P|96:208|72:208,1,85
240,120,136564,6,0,P|264:192|264:216,1,85
256,288,136964,1,0,0:0:0:0:
344,280,137164,1,0,0:0:0:0:
360,200,137364,2,0,P|398:182|439:189,1,85
448,272,137764,1,0,0:0:0:0:
400,112,138164,6,0,P|464:144|504:136,2,85,0|0|0,0:0|0:0|0:0,0:0:0:0:
320,96,138764,1,0,0:0:0:0:
248,136,138964,2,0,P|184:168|168:160,2,85,0|0|0,0:0|0:0|0:0,0:0:0:0:
416,120,139764,6,0,P|440:192|440:216,1,85
360,216,140164,1,0,0:0:0:0:
304,280,140364,1,0,0:0:0:0:
224,320,140564,2,0,P|128:320|120:312,1,85
176,248,140964,1,0,0:0:0:0:
192,80,141364,6,0,P|256:112|296:104,2,85,0|0|0,0:0|0:0|0:0,0:0:0:0:
264,32,141964,1,0,0:0:0:0:
352,40,142164,2,0,P|416:72|432:64,2,85,0|0|0,0:0|0:0|0:0,0:0:0:0:
256,312,157182,6,0,L|256:208,1,85
208,160,157534,1,0,0:0:0:0:
144,104,157711,1,0,0:0:0:0:
88,264,158064,1,0,0:0:0:0:
256,304,158417,2,0,P|328:256|328:240,1,85
344,96,158946,1,0,0:0:0:0:
176,136,159299,1,0,0:0:0:0:
152,216,159476,1,0,0:0:0:0:
192,296,159652,1,0,0:0:0:0:
272,320,159829,1,0,0:0:0:0:
352,296,160005,6,0,P|320:248|280:248,1,85
208,240,160358,1,0,0:0:0:0:
248,160,160534,1,0,0:0:0:0:
224,80,160711,1,0,0:0:0:0:
144,64,160887,1,0,0:0:0:0:
56,80,161064,2,0,P|88:144|120:152,1,85
160,208,161417,5,0,0:0:0:0:
240,240,161593,1,0,0:0:0:0:
320,272,161770,1,0,0:0:0:0:
392,320,161946,2,0,P|400:248|392:232,1,85
328,128,162387,1,0,0:0:0:0:
224,200,162652,1,0,0:0:0:0:
192,120,162829,5,0,0:0:0:0:
144,48,163005,2,0,P|96:128|96:144,1,85
104,200,163358,1,0,0:0:0:0:
144,272,163534,2,0,L|240:296,2,85,0|0|0,0:0|0:0|0:0,0:0:0:0:
192,200,164064,1,0,0:0:0:0:
272,216,164240,1,0,0:0:0:0:
344,256,164417,5,0,0:0:0:0:
416,296,164593,1,0,0:0:0:0:
416,208,164770,1,0,0:0:0:0:
416,120,164946,1,0,0:0:0:0:
296,72,165211,1,0,0:0:0:0:
168,88,165476,1,0,0:0:0:0:
160,176,165652,5,0,0:0:0:0:
176,256,165829,1,0,0:0:0:0:
240,304,166005,1,0,0:0:0:0:
280,224,166182,1,0,0:0:0:0:
368,232,166358,1,0,0:0:0:0:
328,152,166534,2,0,P|360:88|376:80,1,85
424,144,166887,5,0,0:0:0:0:
448,224,167064,1,0,0:0:0:0:
392,288,167240,1,0,0:0:0:0:
320,240,167417,1,0,0:0:0:0:
264,176,167593,1,0,0:0:0:0:
208,112,167770,1,0,0:0:0:0:
160,232,168034,1,0,0:0:0:0:
256,312,168299,1,0,0:0:0:0:
296,232,168476,6,0,P|272:176|288:152,1,85
272,72,168829,2,0,P|216:88|200:120,1,85
184,192,169182,1,0,0:0:0:0:
128,256,169358,1,0,0:0:0:0:
208,288,169534,1,0,0:0:0:0:
272,232,169711,1,0,0:0:0:0:
288,312,169887,6,0,P|392:272|400:264,2,85,0|0|0,0:0|0:0|0:0,0:0:0:0:
200,320,170417,1,0,0:0:0:0:
168,240,170593,1,0,0:0:0:0:
248,144,170858,1,0,0:0:0:0:
368,112,171123,1,0,0:0:0:0:
296,40,171299,5,0,0:0:0:0:
200,72,171476,2,0,P|136:88|128:80,2,50.9999984436036,0|0|0,0:0|0:0|0:0,0:0:0:0:
256,160,171829,1,0,0:0:0:0:
336,224,172005,2,0,P|336:320|320:360,1,101.999996887207
240,280,172358,5,0,0:0:0:0:
136,272,172534,1,0,0:0:0:0:
184,184,172711,1,0,0:0:0:0:
288,168,172887,1,0,0:0:0:0:
328,72,173064,1,0,0:0:0:0:
432,72,173240,1,0,0:0:0:0:
416,176,173417,1,0,0:0:0:0:
336,304,173682,1,0,0:0:0:0:
184,312,173946,1,0,0:0:0:0:
136,224,174123,5,0,0:0:0:0:
136,120,174299,2,0,L|136:176,2,50.9999984436036,0|0|0,0:0|0:0|0:0,0:0:0:0:
232,168,174652,1,0,0:0:0:0:
320,224,174829,1,0,0:0:0:0:
416,256,175005,2,0,P|400:176|368:144,1,101.999996887207
320,88,175358,1,0,0:0:0:0:
216,88,175534,5,0,0:0:0:0:
168,176,175711,1,0,0:0:0:0:
208,272,175887,1,0,0:0:0:0:
296,216,176064,1,0,0:0:0:0:
376,152,176240,1,0,0:0:0:0:
424,296,176505,1,0,0:0:0:0:
272,320,176770,1,0,0:0:0:0:
192,256,176946,6,0,P|136:200|112:192,2,101.999996887207,0|0|0,0:0|0:0|0:0,0:0:0:0:
96,296,177476,1,0,0:0:0:0:
16,232,177652,2,0,L|0:112,2,101.999996887207,0|0|0,0:0|0:0|0:0,0:0:0:0:
96,168,178182,1,0,0:0:0:0:
152,88,178358,6,0,P|232:48|256:56,1,101.999996887207
256,152,178711,1,0,0:0:0:0:
352,112,178887,1,0,0:0:0:0:
344,216,179064,1,0,0:0:0:0:
208,288,179329,1,0,0:0:0:0:
360,288,179593,1,0,0:0:0:0:
424,208,179770,5,0,0:0:0:0:
328,184,179946,1,0,0:0:0:0:
232,160,180123,2,0,P|208:96|224:64,2,101.999996887207,0|0|0,0:0|0:0|0:0,0:0:0:0:
312,96,180652,1,0,0:0:0:0:
400,40,180829,2,0,P|448:112|480:120,1,101.999996887207
256,192,181182,12,0,182417,0:0:0:0:
168,256,182593,6,0,P|144:200|144:168,2,85,0|0|0,0:0|0:0|0:0,0:0:0:0:
248,288,183123,1,0,0:0:0:0:
328,304,183299,1,0,0:0:0:0:
312,224,183476,2,0,P|344:152|368:144,2,85,0|0|0,0:0|0:0|0:0,0:0:0:0:
400,208,184005,6,0,P|424:136|416:112,1,85
368,64,184358,1,0,0:0:0:0:
280,64,184534,2,0,P|216:88|192:72,1,85
128,56,184887,1,0,0:0:0:0:
88,128,185064,1,0,0:0:0:0:
96,216,185240,1,0,0:0:0:0:
168,168,185417,6,0,P|216:200|232:240,2,85,0|0|0,0:0|0:0|0:0,0:0:0:0:
224,104,185946,1,0,0:0:0:0:
304,128,186123,1,0,0:0:0:0:
344,200,186299,1,0,0:0:0:0:
400,136,186476,1,0,0:0:0:0:
440,208,186652,1,0,0:0:0:0:
408,288,186829,6,0,P|328:320|304:312,2,85,0|0|0,0:0|0:0|0:0,0:0:0:0:
344,232,187358,1,0,0:0:0:0:
264,256,187534,1,0,0:0:0:0:
176,256,187711,1,0,0:0:0:0:
96,280,187887,2,0,P|104:200|200:184,1,170
256,216,188417,5,0,0:0:0:0:
288,136,188593,1,0,0:0:0:0:
216,88,188770,1,0,0:0:0:0:
136,72,188946,2,0,P|168:144|184:144,2,85,0|0|0,0:0|0:0|0:0,0:0:0:0:
56,104,189476,1,0,0:0:0:0:
96,176,189652,5,0,0:0:0:0:
160,232,189829,1,0,0:0:0:0:
224,280,190005,1,0,0:0:0:0:
232,192,190181,1,0,0:0:0:0:
200,112,190358,2,0,P|242:109|281:124,1,85
352,168,190711,1,0,0:0:0:0:
400,96,190887,1,0,0:0:0:0:
432,176,191064,5,0,0:0:0:0:
440,264,191240,2,0,P|397:260|357:247,1,85
272,232,191593,1,0,0:0:0:0:
192,192,191770,2,0,P|224:128|216:96,2,85,0|0|0,0:0|0:0|0:0,0:0:0:0:
128,136,192299,1,0,0:0:0:0:
256,192,192476,12,4,193534,0:0:0:0:
