osu file format v14

[General]
AudioFilename: 4544.mp3
AudioLeadIn: 0
PreviewTime: 157156
Countdown: 1
SampleSet: Normal
StackLeniency: 0.2
Mode: 0
LetterboxInBreaks: 1
WidescreenStoryboard: 0

[Editor]
DistanceSpacing: 1.4
BeatDivisor: 4
GridSize: 16
TimelineZoom: 1.4

[Metadata]
Title:Blade Dance
TitleUnicode:Blade Dance
Artist:Ni-Sokkususu
ArtistUnicode:Ni-Sokkususu
Creator:pashty
Version:owo
Source:
Tags:
BeatmapID:1623377
BeatmapSetID:772224

[Difficulty]
HPDrainRate:5
CircleSize:3.8
OverallDifficulty:9.3
ApproachRate:9.2
SliderMultiplier:1.8
SliderTickRate:1

[Events]
//Background and Video events
0,0,"bladedance.jpg",0,0
//Break Periods
2,149655,154019
//Storyboard Layer 0 (Background)
//Storyboard Layer 1 (Fail)
//Storyboard Layer 2 (Pass)
//Storyboard Layer 3 (Foreground)
//Storyboard Sound Samples

[TimingPoints]
579,320.855614973262,4,1,0,100,1,0
2824,-200,4,1,0,100,0,0
3065,-200,4,1,0,5,0,0
3145,-100,4,1,0,100,0,0
5391,-200,4,1,0,100,0,0
5632,-200,4,1,0,5,0,0
5712,-200,4,1,0,100,0,0
8199,-200,4,1,0,5,0,0
8279,-200,4,1,0,100,0,0
10766,-200,4,1,0,5,0,0
10846,-200,4,1,0,100,0,0
13333,-200,4,1,0,5,0,0
13413,-200,4,1,0,100,0,0
15899,-200,4,1,0,5,0,0
15980,-100,4,1,0,100,0,0
20792,-200,4,1,0,100,0,0
21033,-200,4,1,0,5,0,0
21113,-200,4,1,0,100,0,0
22477,-200,4,1,0,5,0,0
22557,-200,4,1,0,100,0,0
23600,-200,4,1,0,5,0,0
23680,-200,4,1,0,100,0,0
26167,-200,4,1,0,5,0,0
26247,-200,4,1,0,100,0,0
26568,-100,4,1,0,100,0,0
32502,-200,4,1,0,100,0,0
32744,-200,4,1,0,5,0,0
32824,-200,4,1,0,100,0,0
35552,-100,4,1,0,100,0,0
36514,-133.333333333333,4,1,0,100,0,0
41003,-111.111111111111,4,1,0,100,0,0
41327,-83.3333333333333,4,1,0,100,0,0
46782,-83.3333333333333,4,1,0,100,0,1
64750,-100,4,1,0,100,0,0
69562,-200,4,1,0,100,0,0
69803,-200,4,1,0,5,0,0
69883,-100,4,1,0,100,0,0
72129,-200,4,1,0,100,0,0
72370,-200,4,1,0,5,0,0
72450,-100,4,1,0,100,0,0
74696,-200,4,1,0,100,0,0
74937,-200,4,1,0,5,0,0
75017,-100,4,1,0,100,0,0
77263,-200,4,1,0,100,0,0
77504,-100,4,1,0,5,0,0
77584,-100,4,1,0,100,0,0
83841,-200,4,1,0,100,0,0
84081,-200,4,1,0,5,0,0
84161,-100,4,1,0,100,0,0
98119,-133.333333333333,4,1,0,100,0,0
102611,-111.111111111111,4,1,0,100,0,0
102931,-83.3333333333333,4,1,0,100,0,0
108374,-83.3333333333333,4,1,0,100,0,1
126354,-100,4,1,0,100,0,0
139188,-133.333333333333,4,1,0,100,0,0
139429,-133.333333333333,4,1,0,5,0,0
139509,-133.333333333333,4,1,0,100,0,0
140712,-133.333333333333,4,1,0,5,0,0
140792,-133.333333333333,4,1,0,100,0,0
141996,-133.333333333333,4,1,0,5,0,0
142076,-133.333333333333,4,1,0,100,0,0
143279,-133.333333333333,4,1,0,5,0,0
143359,-133.333333333333,4,1,0,100,0,0
148493,320.855614973262,4,1,0,100,1,0
157156,-100,4,1,0,100,0,1
159722,-100,4,1,0,100,0,0
164856,-83.3333333333333,4,1,0,100,0,1
169990,-100,4,1,0,100,0,0
182824,-400,4,1,0,100,0,0
183065,-100,4,1,0,5,0,0
183145,-100,4,1,0,100,0,0
195658,-83.3333333333333,4,1,0,100,0,1
200471,-100,4,1,0,100,0,0

[Colours]
Combo1 : 128,0,128
Combo2 : 255,255,255
Combo3 : 18,124,255
Combo4 : 242,24,57
Combo5 : 255,192,0

[HitObjects]
156,139,579,5,0,0:0:0:0:
232,69,739,1,0,0:0:0:0:
253,171,899,2,0,P|275:217|268:260,1,90
166,240,1220,5,0,0:0:0:0:
47,177,1381,1,0,0:0:0:0:
161,123,1541,2,0,P|194:77|191:35,1,90
66,63,1862,5,0,0:0:0:0:
156,193,2022,1,0,0:0:0:0:
16,154,2183,1,0,0:0:0:0:
161,94,2343,1,0,0:0:0:0:
96,252,2504,1,0,0:0:0:0:
92,64,2664,1,0,0:0:0:0:
219,246,2824,2,0,P|249:278|286:292,1,67.5
344,268,3145,5,0,0:0:0:0:
276,178,3306,1,0,0:0:0:0:
400,180,3466,2,0,P|430:131|423:86,1,90
316,81,3787,5,0,0:0:0:0:
182,154,3947,1,0,0:0:0:0:
312,219,4108,2,0,P|330:266|313:313,1,90
192,269,4429,5,0,0:0:0:0:
236,205,4589,1,0,0:0:0:0:
271,334,4750,1,0,0:0:0:0:
132,217,4910,1,0,0:0:0:0:
378,254,5070,1,0,0:0:0:0:
127,361,5231,1,0,0:0:0:0:
267,113,5391,2,0,P|306:68|313:43,1,67.5
197,71,5712,5,0,0:0:0:0:
380,233,6033,1,0,0:0:0:0:
311,125,6354,5,0,0:0:0:0:
128,287,6675,1,0,0:0:0:0:
181,186,6995,5,0,0:0:0:0:
364,348,7316,1,0,0:0:0:0:
313,203,7477,1,0,0:0:0:0:
223,321,7637,1,0,0:0:0:0:
421,267,7798,1,0,0:0:0:0:
227,172,7958,2,0,P|202:148|192:105,1,67.5
315,132,8279,5,0,0:0:0:0:
131,307,8600,1,0,0:0:0:0:
132,91,8921,5,0,0:0:0:0:
316,266,9242,1,0,0:0:0:0:
317,42,9562,5,0,0:0:0:0:
133,217,9883,1,0,0:0:0:0:
183,99,10044,1,0,0:0:0:0:
240,244,10204,1,0,0:0:0:0:
66,143,10365,1,0,0:0:0:0:
281,95,10525,2,0,P|329:85|361:96,1,67.5
296,180,10846,5,0,0:0:0:0:
69,63,11167,1,0,0:0:0:0:
154,238,11488,5,0,0:0:0:0:
381,121,11809,1,0,0:0:0:0:
325,318,12129,5,0,0:0:0:0:
98,201,12450,1,0,0:0:0:0:
160,307,12611,1,0,0:0:0:0:
193,146,12771,1,0,0:0:0:0:
51,281,12931,1,0,0:0:0:0:
276,221,13092,2,0,P|321:204|345:204,1,67.5
320,294,13413,5,0,0:0:0:0:
88,151,13734,1,0,0:0:0:0:
179,243,14054,5,0,0:0:0:0:
411,100,14375,1,0,0:0:0:0:
331,150,14696,5,0,0:0:0:0:
99,7,15017,1,0,0:0:0:0:
138,144,15177,1,0,0:0:0:0:
237,17,15338,1,0,0:0:0:0:
21,95,15498,1,0,0:0:0:0:
333,129,15659,2,0,P|391:148|404:168,1,67.5
301,218,15980,5,0,0:0:0:0:
217,164,16140,1,0,0:0:0:0:
208,272,16300,2,0,P|256:320|304:320,1,90
366,254,16621,1,0,0:0:0:0:
346,363,16782,1,0,0:0:0:0:
265,269,16942,2,0,P|250:215|271:176,1,90
371,157,17263,1,0,0:0:0:0:
250,92,17423,2,0,P|181:88|142:128,1,90
109,207,17744,5,0,0:0:0:0:
359,78,17905,1,0,0:0:0:0:
292,345,18226,5,0,0:0:0:0:
246,218,18546,5,0,0:0:0:0:
252,120,18707,1,0,0:0:0:0:
345,188,18867,2,0,P|327:239|294:279,1,90
207,238,19188,1,0,0:0:0:0:
150,115,19349,1,0,0:0:0:0:
292,151,19509,2,0,P|278:93|236:52,1,90
136,53,19830,5,0,0:0:0:0:
117,189,19990,1,0,0:0:0:0:
237,122,20151,1,0,0:0:0:0:
60,115,20311,1,0,0:0:0:0:
251,209,20472,1,0,0:0:0:0:
80,27,20632,1,0,0:0:0:0:
209,282,20792,2,0,P|227:327|254:344,1,67.5
318,277,21113,5,0,0:0:0:0:
361,161,21274,1,0,0:0:0:0:
237,190,21434,1,0,0:0:0:0:
372,237,21595,1,0,0:0:0:0:
281,100,21755,1,0,0:0:0:0:
245,236,21915,1,0,0:0:0:0:
351,133,22076,1,0,0:0:0:0:
195,74,22236,2,0,P|138:61|114:68,1,67.5
94,156,22557,5,0,0:0:0:0:
262,108,22718,1,0,0:0:0:0:
192,241,22878,1,0,0:0:0:0:
160,71,23038,1,0,0:0:0:0:
295,187,23199,1,0,0:0:0:0:
90,181,23359,2,0,P|41:184|24:193,1,67.5
83,281,23680,5,0,0:0:0:0:
187,210,23841,1,0,0:0:0:0:
182,338,24001,1,0,0:0:0:0:
308,238,24161,1,0,0:0:0:0:
154,227,24322,1,0,0:0:0:0:
260,128,24482,1,0,0:0:0:0:
266,309,24643,1,0,0:0:0:0:
138,168,24803,1,0,0:0:0:0:
333,194,24964,5,0,0:0:0:0:
174,284,25124,1,0,0:0:0:0:
211,76,25284,1,0,0:0:0:0:
288,308,25445,1,0,0:0:0:0:
350,98,25605,1,0,0:0:0:0:
114,221,25766,1,0,0:0:0:0:
414,214,25926,2,0,P|452:220|489:247,1,67.5
392,293,26247,5,0,0:0:0:0:
286,248,26407,1,0,0:0:0:0:
366,161,26568,2,0,P|343:104|303:91,1,90
259,159,26889,1,0,0:0:0:0:
196,259,27049,1,0,0:0:0:0:
143,155,27210,2,0,P|181:108|239:97,1,90
231,182,27530,5,0,0:0:0:0:
255,310,27691,1,0,0:0:0:0:
114,253,27851,1,0,0:0:0:0:
336,188,28012,1,0,0:0:0:0:
162,368,28172,1,0,0:0:0:0:
283,69,28493,5,0,0:0:0:0:
385,257,28814,5,0,0:0:0:0:
284,294,28974,1,0,0:0:0:0:
305,175,29135,2,0,P|264:146|215:140,1,90
146,209,29456,1,0,0:0:0:0:
154,87,29616,1,0,0:0:0:0:
251,172,29776,2,0,P|269:218|266:278,1,90
161,320,30097,5,0,0:0:0:0:
82,240,30258,1,0,0:0:0:0:
204,181,30418,1,0,0:0:0:0:
79,335,30578,1,0,0:0:0:0:
123,112,30739,1,0,0:0:0:0:
247,344,30899,1,0,0:0:0:0:
14,153,31060,5,0,0:0:0:0:
325,80,31220,1,0,0:0:0:0:
166,363,31381,1,0,0:0:0:0:
82,228,31541,1,0,0:0:0:0:
233,175,31701,1,0,0:0:0:0:
109,339,31862,1,0,0:0:0:0:
128,142,32022,1,0,0:0:0:0:
267,273,32183,1,0,0:0:0:0:
65,237,32343,1,0,0:0:0:0:
190,62,32504,2,0,P|231:16|252:13,1,67.5
275,114,32824,5,0,0:0:0:0:
142,152,32985,1,0,0:0:0:0:
136,15,33145,1,0,0:0:0:0:
266,202,33306,1,0,0:0:0:0:
11,110,33627,5,0,0:0:0:0:
364,50,33947,5,0,0:0:0:0:
280,143,34108,1,0,0:0:0:0:
276,8,34268,1,0,0:0:0:0:
374,124,34429,1,0,0:0:0:0:
185,110,34589,1,0,0:0:0:0:
310,246,34750,1,0,0:0:0:0:
294,61,34910,1,0,0:0:0:0:
181,207,35070,1,0,0:0:0:0:
397,153,35231,1,0,0:0:0:0:
279,311,35391,1,0,0:0:0:0:
212,57,35552,2,0,P|172:26|107:23,1,90
55,59,35873,5,0,0:0:0:0:
218,221,36033,1,0,0:0:0:0:
212,5,36193,1,0,0:0:0:0:
61,248,36354,1,0,0:0:0:0:
381,84,36514,6,0,L|495:7,1,135.000005149842
472,135,36996,2,0,L|436:206,1,67.5000025749208
328,84,37316,2,0,L|364:13,1,67.5000025749208
491,188,37637,1,0,0:0:0:0:
315,34,37798,1,0,0:0:0:0:
464,224,37958,1,0,0:0:0:0:
281,64,38119,6,0,L|184:55,1,67.5000025749208
275,165,38439,2,0,L|372:174,1,67.5000025749208
188,9,38760,2,0,L|91:0,1,67.5000025749208
358,223,39081,2,0,L|484:154,1,135.000005149842
359,101,39562,2,0,L|270:101,1,67.5000025749208
205,200,39883,2,0,L|294:200,1,67.5000025749208
370,60,40204,1,0,0:0:0:0:
185,243,40365,1,0,0:0:0:0:
418,102,40525,1,0,0:0:0:0:
234,282,40685,6,0,L|153:299,1,67.5000025749208
225,186,41006,6,0,L|329:167,1,80.9999975280763
159,363,41327,6,0,L|41:388,1,107.999996704102
331,107,41648,5,0,0:0:0:0:
376,236,41808,1,0,0:0:0:0:
217,171,41969,1,0,0:0:0:0:
388,114,42129,1,0,0:0:0:0:
272,275,42290,1,0,0:0:0:0:
261,57,42450,1,0,0:0:0:0:
436,212,42611,2,0,P|447:275|415:325,1,107.999996704102
290,220,42931,5,0,0:0:0:0:
446,82,43092,1,0,0:0:0:0:
204,63,43252,1,0,0:0:0:0:
388,250,43413,1,0,0:0:0:0:
329,3,43573,1,0,0:0:0:0:
186,224,43734,1,0,0:0:0:0:
481,100,43894,2,0,P|427:140|363:150,1,107.999996704102
205,40,44215,5,0,0:0:0:0:
427,216,44375,1,0,0:0:0:0:
131,231,44536,1,0,0:0:0:0:
355,43,44696,1,0,0:0:0:0:
258,353,44857,1,0,0:0:0:0:
131,37,45017,1,0,0:0:0:0:
474,267,45177,1,0,0:0:0:0:
71,201,45338,1,0,0:0:0:0:
71,201,45418,1,0,0:0:0:0:
71,201,45498,6,0,P|40:145|40:88,1,107.999996704102
222,162,45819,2,0,P|253:218|253:275,1,107.999996704102
66,133,46140,1,0,0:0:0:0:
222,212,46300,1,0,0:0:0:0:
66,264,46461,1,0,0:0:0:0:
193,68,46621,1,0,0:0:0:0:
191,341,46782,6,0,P|256:316|287:253,1,107.999996704102
123,124,47103,1,0,0:0:0:0:
134,165,47183,1,0,0:0:0:0:
164,195,47263,1,0,0:0:0:0:
205,207,47343,1,0,0:0:0:0:
247,198,47423,5,0,0:0:0:0:
184,69,47584,1,0,0:0:0:0:
389,195,47744,1,0,0:0:0:0:
143,311,47905,2,0,P|83:293|48:241,1,107.999996704102
194,230,48226,5,0,0:0:0:0:
406,95,48386,1,0,0:0:0:0:
387,133,48466,1,0,0:0:0:0:
352,156,48546,1,0,0:0:0:0:
309,160,48626,1,0,0:0:0:0:
270,143,48706,5,0,0:0:0:0:
367,13,48867,1,0,0:0:0:0:
146,118,49028,1,0,0:0:0:0:
363,263,49188,2,0,P|431:248|476:190,1,107.999996704102
315,171,49509,5,0,0:0:0:0:
201,39,49669,2,0,L|158:91,1,53.9999983520508
70,98,49830,2,0,L|91:183,1,53.9999983520508
63,249,49990,1,0,0:0:0:0:
254,280,50151,1,0,0:0:0:0:
149,73,50311,1,0,0:0:0:0:
164,357,50472,2,0,P|193:311|186:238,1,107.999996704102
70,152,50792,5,0,0:0:0:0:
264,56,50953,1,0,0:0:0:0:
45,40,51113,1,0,0:0:0:0:
308,180,51274,1,0,0:0:0:0:
11,224,51434,1,0,0:0:0:0:
345,31,51595,1,0,0:0:0:0:
0,40,51915,5,0,0:0:0:0:
398,281,52236,5,0,0:0:0:0:
367,252,52316,1,0,0:0:0:0:
348,213,52396,1,0,0:0:0:0:
345,170,52476,1,0,0:0:0:0:
358,129,52556,5,0,0:0:0:0:
488,227,52718,1,0,0:0:0:0:
294,316,52878,1,0,0:0:0:0:
326,21,53038,2,0,P|385:54|410:114,1,107.999996704102
256,116,53359,5,0,0:0:0:0:
110,257,53520,1,0,0:0:0:0:
141,227,53600,1,0,0:0:0:0:
159,188,53680,1,0,0:0:0:0:
162,145,53760,1,0,0:0:0:0:
149,104,53840,5,0,0:0:0:0:
31,215,54001,1,0,0:0:0:0:
248,283,54161,1,0,0:0:0:0:
149,6,54322,2,0,P|101:36|60:105,1,107.999996704102
251,77,54643,5,0,0:0:0:0:
396,333,54803,2,0,L|305:310,1,53.9999983520508
374,237,54964,2,0,L|347:173,1,53.9999983520508
429,129,55124,1,0,0:0:0:0:
503,276,55284,1,0,0:0:0:0:
294,200,55445,1,0,0:0:0:0:
409,14,55605,2,0,P|434:89|413:144,1,107.999996704102
295,46,55926,5,0,0:0:0:0:
512,175,56087,1,0,0:0:0:0:
239,229,56247,1,0,0:0:0:0:
498,6,56407,1,0,0:0:0:0:
73,61,56728,5,0,0:0:0:0:
356,226,57049,6,0,P|310:286|258:294,1,107.999996704102
285,167,57370,1,0,0:0:0:0:
373,308,57530,1,0,0:0:0:0:
413,158,57691,2,0,P|376:108|307:86,1,107.999996704102
212,122,58012,1,0,0:0:0:0:
135,263,58172,2,0,P|55:238|36:213,1,107.999996704102
87,139,58493,1,0,0:0:0:0:
201,237,58653,1,0,0:0:0:0:
48,327,58814,1,0,0:0:0:0:
42,86,58974,1,0,0:0:0:0:
231,353,59295,5,0,0:0:0:0:
318,136,59616,6,0,P|261:97|201:100,1,107.999996704102
256,196,59937,1,0,0:0:0:0:
255,28,60097,1,0,0:0:0:0:
385,132,60258,2,0,P|430:188|433:252,1,107.999996704102
338,315,60578,1,0,0:0:0:0:
196,197,60739,2,0,P|152:152|145:94,1,107.999996704102
310,34,61060,1,0,0:0:0:0:
278,188,61220,1,0,0:0:0:0:
92,53,61381,1,0,0:0:0:0:
396,74,61541,1,0,0:0:0:0:
24,154,61862,5,0,0:0:0:0:
316,163,62183,5,0,0:0:0:0:
206,274,62343,1,0,0:0:0:0:
201,115,62504,1,0,0:0:0:0:
348,298,62664,1,0,0:0:0:0:
298,58,62824,1,0,0:0:0:0:
125,272,62985,1,0,0:0:0:0:
419,140,63145,1,0,0:0:0:0:
89,95,63306,1,0,0:0:0:0:
316,248,63467,5,0,0:0:0:0:
347,268,63547,1,0,0:0:0:0:
386,275,63627,1,0,0:0:0:0:
426,265,63707,5,0,0:0:0:0:
465,244,63787,1,0,0:0:0:0:
492,210,63868,1,0,0:0:0:0:
502,165,63947,5,0,0:0:0:0:
500,117,64028,1,0,0:0:0:0:
481,73,64108,1,0,0:0:0:0:
450,34,64188,5,0,0:0:0:0:
402,11,64269,1,0,0:0:0:0:
348,8,64349,1,0,0:0:0:0:
297,23,64429,1,0,0:0:0:0:
254,59,64509,5,0,0:0:0:0:
225,120,64589,2,0,P|237:189|288:222,1,107.999996704102
401,108,65070,6,0,P|367:151|316:173,1,90
210,83,65391,1,0,0:0:0:0:
357,53,65552,1,0,0:0:0:0:
216,209,65712,1,0,0:0:0:0:
462,143,65873,1,0,0:0:0:0:
167,74,66193,2,0,L|94:20,2,90
326,222,66675,5,0,0:0:0:0:
45,144,66996,5,0,0:0:0:0:
355,28,67316,6,0,P|409:45|441:91,1,90
373,153,67637,1,0,0:0:0:0:
247,182,67798,1,0,0:0:0:0:
271,37,67958,2,0,P|216:68|196:113,1,90
206,196,68279,5,0,0:0:0:0:
317,250,68439,1,0,0:0:0:0:
179,320,68600,2,0,P|94:311|73:288,1,90
71,188,68921,5,0,0:0:0:0:
214,136,69081,1,0,0:0:0:0:
179,290,69242,1,0,0:0:0:0:
93,92,69402,1,0,0:0:0:0:
352,152,69562,2,0,P|401:175|419:198,1,67.5
320,231,69883,6,0,P|249:226|225:183,1,90
243,96,70204,1,0,0:0:0:0:
109,146,70365,1,0,0:0:0:0:
171,278,70525,2,0,P|209:308|282:321,1,90
358,303,70846,5,0,0:0:0:0:
304,162,71006,1,0,0:0:0:0:
467,159,71167,2,0,P|435:228|385:247,1,90
278,229,71488,5,0,0:0:0:0:
382,101,71648,1,0,0:0:0:0:
443,283,71808,1,0,0:0:0:0:
234,167,71969,1,0,0:0:0:0:
501,120,72129,2,0,P|479:160|441:176,1,67.5
421,93,72450,6,0,P|376:65|297:63,1,90
244,93,72771,1,0,0:0:0:0:
346,205,72931,1,0,0:0:0:0:
193,243,73092,2,0,P|171:224|136:162,1,90
171,50,73413,5,0,0:0:0:0:
55,139,73573,1,0,0:0:0:0:
42,1,73734,2,0,P|60:48|96:83,1,90
196,128,74054,5,0,0:0:0:0:
282,26,74215,1,0,0:0:0:0:
57,54,74375,1,0,0:0:0:0:
175,241,74536,1,0,0:0:0:0:
210,0,74696,2,0,P|236:34|249:75,1,67.5
145,68,75017,6,0,P|157:122|179:159,1,90
284,213,75338,1,0,0:0:0:0:
318,78,75498,1,0,0:0:0:0:
421,173,75659,2,0,P|417:229|376:291,1,90
300,343,75980,5,0,0:0:0:0:
186,240,76140,1,0,0:0:0:0:
316,201,76300,2,0,P|301:130|261:88,1,90
181,50,76621,5,0,0:0:0:0:
363,125,76782,1,0,0:0:0:0:
148,153,76942,1,0,0:0:0:0:
389,14,77103,1,0,0:0:0:0:
75,26,77263,2,0,P|33:40|11:63,1,67.5
145,104,77584,5,0,0:0:0:0:
39,191,77744,1,0,0:0:0:0:
174,232,77905,2,0,P|241:263|272:290,1,90
342,350,78226,5,0,0:0:0:0:
348,213,78386,1,0,0:0:0:0:
195,295,78546,2,0,P|142:325|95:320,1,90
18,235,78867,5,0,0:0:0:0:
161,151,79028,1,0,0:0:0:0:
166,348,79188,1,0,0:0:0:0:
32,164,79349,1,0,0:0:0:0:
300,204,79509,1,0,0:0:0:0:
11,353,79830,5,0,0:0:0:0:
179,84,80151,5,0,0:0:0:0:
291,43,80311,1,0,0:0:0:0:
256,168,80472,2,0,P|306:209|356:218,1,90
452,185,80792,5,0,0:0:0:0:
342,77,80953,1,0,0:0:0:0:
303,236,81113,2,0,P|249:273|208:283,1,90
130,204,81434,5,0,0:0:0:0:
249,138,81595,1,0,0:0:0:0:
188,325,81755,1,0,0:0:0:0:
128,134,81915,1,0,0:0:0:0:
317,261,82076,1,0,0:0:0:0:
47,255,82236,1,0,0:0:0:0:
295,101,82397,6,0,P|310:160|293:218,1,90
244,377,82718,1,0,0:0:0:0:
164,235,82878,1,0,0:0:0:0:
331,281,83038,1,0,0:0:0:0:
170,331,83199,1,0,0:0:0:0:
246,169,83359,1,0,0:0:0:0:
406,242,83520,1,0,0:0:0:0:
258,313,83680,1,0,0:0:0:0:
190,133,83841,2,0,P|191:80|209:54,1,67.5
308,95,84161,5,0,0:0:0:0:
294,227,84322,1,0,0:0:0:0:
159,177,84482,1,0,0:0:0:0:
373,122,84643,1,0,0:0:0:0:
157,311,84964,5,0,0:0:0:0:
279,43,85284,5,0,0:0:0:0:
217,143,85445,1,0,0:0:0:0:
347,129,85605,2,0,P|398:102|426:66,1,90
338,9,85926,5,0,0:0:0:0:
271,119,86087,1,0,0:0:0:0:
412,138,86247,2,0,P|407:195|385:241,1,90
311,318,86568,5,0,0:0:0:0:
346,148,86728,1,0,0:0:0:0:
431,313,86889,1,0,0:0:0:0:
241,185,87049,1,0,0:0:0:0:
453,231,87210,5,0,0:0:0:0:
178,259,87370,1,0,0:0:0:0:
414,95,87530,1,0,0:0:0:0:
296,348,87851,5,0,0:0:0:0:
183,304,88012,1,0,0:0:0:0:
288,236,88172,2,0,P|320:196|326:142,1,90
286,54,88493,5,0,0:0:0:0:
201,159,88653,1,0,0:0:0:0:
146,33,88814,2,0,P|87:68|61:105,1,90
134,178,89135,5,0,0:0:0:0:
226,83,89295,1,0,0:0:0:0:
229,243,89456,1,0,0:0:0:0:
121,93,89616,1,0,0:0:0:0:
83,293,89776,1,0,0:0:0:0:
271,65,90097,5,0,0:0:0:0:
226,345,90418,5,0,0:0:0:0:
113,280,90578,1,0,0:0:0:0:
224,218,90739,2,0,P|266:160|298:141,1,90
402,132,91060,5,0,0:0:0:0:
351,261,91220,1,0,0:0:0:0:
279,134,91381,2,0,P|299:65|331:31,1,90
422,21,91701,5,0,0:0:0:0:
361,158,91862,1,0,0:0:0:0:
260,13,92022,1,0,0:0:0:0:
462,58,92183,1,0,0:0:0:0:
271,237,92343,1,0,0:0:0:0:
351,7,92504,1,0,0:0:0:0:
420,252,92664,1,0,0:0:0:0:
207,72,92824,1,0,0:0:0:0:
507,102,92985,2,0,P|486:162|451:204,1,90
375,221,93306,5,0,0:0:0:0:
397,80,93466,1,0,0:0:0:0:
261,125,93627,2,0,P|253:177|260:235,1,90
350,298,93947,5,0,0:0:0:0:
219,352,94108,2,0,P|168:339|106:219,1,180
196,115,94589,5,0,0:0:0:0:
394,194,94750,1,0,0:0:0:0:
169,326,94910,1,0,0:0:0:0:
292,33,95231,6,0,P|334:82|347:126,1,90
312,219,95552,1,0,0:0:0:0:
217,99,95712,1,0,0:0:0:0:
186,238,95873,2,0,P|194:284|223:331,1,90
316,337,96193,5,0,0:0:0:0:
406,241,96354,1,0,0:0:0:0:
278,208,96514,2,0,P|227:178|173:169,1,90
79,208,96835,5,0,0:0:0:0:
150,334,96996,1,0,0:0:0:0:
231,131,97156,2,0,L|210:160,1,22.5
30,338,97477,6,0,L|51:310,1,22.5
146,58,97798,6,0,L|160:85,1,30
302,358,98119,6,0,L|431:259,1,135.000005149842
342,123,98600,2,0,L|322:205,1,67.5000025749208
225,240,98921,2,0,L|245:158,1,67.5000025749208
385,138,99242,1,0,0:0:0:0:
196,203,99402,1,0,0:0:0:0:
391,194,99562,5,0,0:0:0:0:
202,259,99723,2,0,L|126:294,1,67.5000025749208
168,168,100044,2,0,L|244:133,1,67.5000025749208
156,339,100365,2,0,L|80:374,1,67.5000025749208
199,79,100685,2,0,L|328:22,1,135.000005149842
348,105,101167,6,0,L|324:198,1,67.5000025749208
217,244,101488,2,0,L|241:151,1,67.5000025749208
386,117,101808,1,0,0:0:0:0:
179,193,101969,1,0,0:0:0:0:
396,172,102129,5,0,0:0:0:0:
189,248,102290,2,0,L|113:293,1,67.5000025749208
144,171,102611,6,0,L|232:119,1,80.9999975280763
174,330,102931,6,0,L|59:396,1,107.999996704102
172,79,103252,5,0,0:0:0:0:
303,181,103413,1,0,0:0:0:0:
105,235,103573,1,0,0:0:0:0:
269,72,103734,1,0,0:0:0:0:
196,308,103894,1,0,0:0:0:0:
122,71,104054,1,0,0:0:0:0:
336,238,104215,2,0,P|385:283|458:305,1,107.999996704102
459,192,104536,5,0,0:0:0:0:
241,107,104696,1,0,0:0:0:0:
328,323,104857,1,0,0:0:0:0:
411,84,105017,1,0,0:0:0:0:
169,193,105177,1,0,0:0:0:0:
456,223,105338,1,0,0:0:0:0:
239,62,105498,2,0,P|172:45|93:58,1,107.999996704102
51,192,105819,5,0,0:0:0:0:
253,357,105980,1,0,0:0:0:0:
208,66,106140,1,0,0:0:0:0:
38,354,106300,1,0,0:0:0:0:
392,156,106461,1,0,0:0:0:0:
12,154,106621,1,0,0:0:0:0:
290,356,106782,2,0,P|351:364|416:341,1,107.999996704102
301,129,107103,5,0,0:0:0:0:
62,305,107423,5,0,0:0:0:0:
201,12,107744,5,0,0:0:0:0:
434,345,108065,5,0,0:0:0:0:
41,87,108386,6,0,P|66:134|141:162,1,107.999996704102
266,104,108707,1,0,0:0:0:0:
264,147,108787,1,0,0:0:0:0:
247,186,108867,1,0,0:0:0:0:
216,216,108947,1,0,0:0:0:0:
176,231,109027,5,0,0:0:0:0:
113,64,109188,1,0,0:0:0:0:
338,177,109349,1,0,0:0:0:0:
106,336,109509,2,0,P|34:323|-14:286,1,107.999996704102
163,242,109830,5,0,0:0:0:0:
254,73,109990,1,0,0:0:0:0:
255,115,110070,1,0,0:0:0:0:
272,155,110150,1,0,0:0:0:0:
303,184,110230,1,0,0:0:0:0:
343,200,110310,5,0,0:0:0:0:
331,32,110472,1,0,0:0:0:0:
129,187,110632,1,0,0:0:0:0:
354,305,110792,2,0,P|422:293|463:247,1,107.999996704102
314,199,111113,5,0,0:0:0:0:
139,26,111274,2,0,L|149:107,1,53.9999983520508
114,169,111434,2,0,L|187:201,1,53.9999983520508
213,287,111595,1,0,0:0:0:0:
255,113,111755,1,0,0:0:0:0:
49,157,111915,1,0,0:0:0:0:
123,340,112076,2,0,P|160:288|167:211,1,107.999996704102
96,108,112397,5,0,0:0:0:0:
81,267,112557,1,0,0:0:0:0:
222,99,112718,1,0,0:0:0:0:
240,324,112878,1,0,0:0:0:0:
74,79,113038,1,0,0:0:0:0:
19,384,113199,1,0,0:0:0:0:
222,38,113520,5,0,0:0:0:0:
407,250,113841,1,0,0:0:0:0:
375,221,113921,1,0,0:0:0:0:
358,181,114001,1,0,0:0:0:0:
360,138,114081,1,0,0:0:0:0:
380,100,114161,5,0,0:0:0:0:
484,211,114322,1,0,0:0:0:0:
366,338,114482,1,0,0:0:0:0:
293,59,114643,2,0,P|339:32|416:28,1,107.999996704102
316,143,114964,5,0,0:0:0:0:
102,234,115124,1,0,0:0:0:0:
134,205,115204,1,0,0:0:0:0:
151,165,115284,1,0,0:0:0:0:
149,122,115364,1,0,0:0:0:0:
129,84,115444,5,0,0:0:0:0:
15,194,115605,1,0,0:0:0:0:
180,313,115766,1,0,0:0:0:0:
188,35,115926,2,0,P|127:21|73:31,1,107.999996704102
218,112,116247,5,0,0:0:0:0:
377,331,116407,2,0,L|279:319,1,53.9999983520508
336,241,116568,2,0,L|283:168,1,53.9999983520508
355,117,116728,1,0,0:0:0:0:
461,243,116889,1,0,0:0:0:0:
269,287,117049,1,0,0:0:0:0:
428,148,117210,2,0,P|462:84|454:29,1,107.999996704102
330,32,117530,5,0,0:0:0:0:
499,165,117691,1,0,0:0:0:0:
271,188,117851,1,0,0:0:0:0:
479,11,118012,1,0,0:0:0:0:
110,31,118333,5,0,0:0:0:0:
351,218,118653,6,0,P|377:276|381:329,1,107.999996704102
271,288,118974,1,0,0:0:0:0:
314,145,119135,1,0,0:0:0:0:
178,195,119295,2,0,P|127:261|122:319,1,107.999996704102
229,332,119616,1,0,0:0:0:0:
340,254,119776,2,0,P|354:200|336:120,1,107.999996704102
270,56,120097,5,0,0:0:0:0:
133,159,120258,1,0,0:0:0:0:
334,205,120418,1,0,0:0:0:0:
216,38,120578,1,0,0:0:0:0:
157,280,120899,5,0,0:0:0:0:
266,35,121220,6,0,P|217:78|151:93,1,107.999996704102
81,15,121541,1,0,0:0:0:0:
36,146,121701,1,0,0:0:0:0:
161,135,121862,2,0,P|203:191|269:225,1,107.999996704102
349,188,122183,1,0,0:0:0:0:
426,86,122343,2,0,P|381:34|311:18,1,107.999996704102
231,61,122664,5,0,0:0:0:0:
416,149,122824,1,0,0:0:0:0:
207,189,122985,1,0,0:0:0:0:
373,18,123145,1,0,0:0:0:0:
360,275,123466,5,0,0:0:0:0:
104,147,123787,5,0,0:0:0:0:
244,103,123947,1,0,0:0:0:0:
164,271,124108,1,0,0:0:0:0:
142,53,124268,1,0,0:0:0:0:
313,212,124429,1,0,0:0:0:0:
46,214,124589,1,0,0:0:0:0:
270,31,124750,1,0,0:0:0:0:
238,352,124910,1,0,0:0:0:0:
110,110,125070,5,0,0:0:0:0:
121,79,125150,1,0,0:0:0:0:
139,53,125230,1,0,0:0:0:0:
163,32,125310,5,0,0:0:0:0:
191,15,125390,1,0,0:0:0:0:
221,5,125471,1,0,0:0:0:0:
256,3,125551,5,0,0:0:0:0:
290,6,125631,1,0,0:0:0:0:
321,18,125711,1,0,0:0:0:0:
351,48,125791,5,0,0:0:0:0:
379,76,125872,1,0,0:0:0:0:
400,111,125952,1,0,0:0:0:0:
413,157,126032,5,0,0:0:0:0:
420,213,126112,1,0,0:0:0:0:
414,275,126193,2,0,P|381:342|331:378,1,107.999996704102
216,228,126675,6,0,P|167:198|139:148,1,90
216,60,126996,1,0,0:0:0:0:
287,184,127156,1,0,0:0:0:0:
132,263,127316,1,0,0:0:0:0:
155,23,127477,1,0,0:0:0:0:
340,220,127798,6,0,L|429:143,2,90
114,371,128279,5,0,0:0:0:0:
192,21,128600,5,0,0:0:0:0:
479,333,128921,6,0,P|416:345|357:333,1,90
336,266,129242,1,0,0:0:0:0:
374,170,129402,1,0,0:0:0:0:
276,175,129562,2,0,P|231:163|158:162,1,90
109,211,129883,1,0,0:0:0:0:
181,297,130044,1,0,0:0:0:0:
229,192,130204,2,0,P|261:132|267:77,1,90
194,23,130525,5,0,0:0:0:0:
132,142,130685,2,0,P|166:210|196:233,1,90
282,279,131006,5,0,0:0:0:0:
341,162,131167,2,0,P|356:118|359:43,1,90
237,8,131488,5,0,0:0:0:0:
186,153,131648,2,0,P|220:221|250:244,1,90
360,269,131969,1,0,0:0:0:0:
386,134,132129,2,0,L|314:110,2,45
506,178,132450,5,0,0:0:0:0:
361,13,132611,2,0,P|368:73|411:123,1,90
459,28,132931,5,0,0:0:0:0:
329,117,133092,1,0,0:0:0:0:
478,152,133252,1,0,0:0:0:0:
280,0,133413,1,0,0:0:0:0:
409,273,133734,5,0,0:0:0:0:
447,55,134054,6,0,P|432:109|408:158,1,90
332,146,134375,1,0,0:0:0:0:
256,203,134536,1,0,0:0:0:0:
335,264,134696,2,0,P|310:308|268:342,1,90
198,304,135017,5,0,0:0:0:0:
152,212,135177,1,0,0:0:0:0:
73,294,135338,2,0,P|51:254|60:183,1,90
116,140,135659,5,0,0:0:0:0:
196,212,135819,1,0,0:0:0:0:
216,103,135980,2,0,P|225:52|210:11,1,90
116,38,136300,5,0,0:0:0:0:
81,174,136461,1,0,0:0:0:0:
308,132,136621,2,0,P|281:207|311:331,1,180
416,230,137103,5,0,0:0:0:0:
357,73,137263,1,0,0:0:0:0:
278,220,137423,2,0,L|228:261,1,45
171,298,137584,5,0,0:0:0:0:
228,126,137744,1,0,0:0:0:0:
284,293,137905,5,0,0:0:0:0:
125,158,138065,1,0,0:0:0:0:
281,225,138226,5,0,0:0:0:0:
51,223,138386,1,0,0:0:0:0:
257,138,138546,5,0,0:0:0:0:
60,329,138867,5,0,0:0:0:0:
255,13,139188,6,0,P|255:80|279:123,1,101.250003862381
339,148,139509,1,0,0:0:0:0:
184,55,139669,1,0,0:0:0:0:
329,242,139990,6,0,P|302:298|283:314,1,67.5000025749208
173,277,140311,1,0,0:0:0:0:
256,176,140472,2,0,P|256:128|288:64,1,101.250003862381
350,48,140792,1,0,0:0:0:0:
188,129,140953,1,0,0:0:0:0:
362,214,141274,6,0,P|390:256|396:293,1,67.5000025749208
313,337,141595,1,0,0:0:0:0:
255,194,141755,2,0,P|255:129|235:84,1,101.250003862381
160,58,142076,1,0,0:0:0:0:
336,148,142236,1,0,0:0:0:0:
174,222,142557,6,0,P|138:246|124:283,1,67.5000025749208
216,330,142878,1,0,0:0:0:0:
256,192,143038,2,0,P|256:112|272:80,1,101.250003862381
353,68,143359,1,0,0:0:0:0:
177,154,143520,1,0,0:0:0:0:
361,234,143841,6,0,P|412:257|442:254,1,67.5000025749208
426,150,144161,1,0,0:0:0:0:
274,207,144322,2,0,P|278:263|289:292,1,67.5000025749208
363,334,144643,1,0,0:0:0:0:
431,263,144803,2,0,P|446:225|442:183,1,67.5000025749208
374,127,145124,5,0,0:0:0:0:
245,195,145284,1,0,0:0:0:0:
271,354,145445,1,0,0:0:0:0:
510,184,145605,1,0,0:0:0:0:
181,107,145766,1,0,0:0:0:0:
449,344,146087,5,0,0:0:0:0:
308,29,146407,6,0,P|303:86|293:117,1,67.5000025749208
233,166,146728,1,0,0:0:0:0:
119,52,146889,2,0,P|91:83|88:128,1,67.5000025749208
124,218,147210,2,0,P|152:187|155:142,1,67.5000025749208
50,54,147530,1,0,0:0:0:0:
156,238,147691,1,0,0:0:0:0:
109,38,147851,2,0,P|142:9|196:8,1,67.5000025749208
306,103,148172,6,0,P|291:148|257:175,1,67.5000025749208
158,185,148493,2,0,P|173:140|207:113,1,67.5000025749208
335,138,148813,1,0,0:0:0:0:
117,145,148974,1,0,0:0:0:0:
319,208,149134,1,0,0:0:0:0:
155,15,149455,5,0,0:0:0:0:
342,108,154589,5,0,0:0:0:0:
237,227,154910,1,0,0:0:0:0:
181,68,155230,5,0,0:0:0:0:
334,178,155551,1,0,0:0:0:0:
176,263,155872,5,0,0:0:0:0:
283,91,156193,1,0,0:0:0:0:
331,275,156514,1,0,0:0:0:0:
154,131,156835,1,0,0:0:0:0:
381,149,157156,5,0,0:0:0:0:
187,236,157316,1,0,0:0:0:0:
280,55,157476,5,0,0:0:0:0:
302,297,157636,1,0,0:0:0:0:
129,118,157797,5,0,0:0:0:0:
430,154,157957,1,0,0:0:0:0:
195,325,158118,5,0,0:0:0:0:
312,15,158278,1,0,0:0:0:0:
395,333,158439,5,0,0:0:0:0:
147,55,158599,1,0,0:0:0:0:
467,174,158760,5,0,0:0:0:0:
65,233,158920,1,0,0:0:0:0:
380,0,159081,1,0,0:0:0:0:
210,358,159402,5,0,0:0:0:0:
104,5,159722,5,0,0:0:0:0:
317,158,160364,5,0,0:0:0:0:
399,226,160525,1,0,0:0:0:0:
415,93,160685,1,0,0:0:0:0:
204,134,160845,1,0,0:0:0:0:
159,235,161648,5,0,0:0:0:0:
222,333,161808,1,0,0:0:0:0:
249,179,161968,1,0,0:0:0:0:
71,313,162129,1,0,0:0:0:0:
210,98,162931,6,0,P|268:160|305:166,1,90
281,41,163252,1,0,0:0:0:0:
151,103,163412,1,0,0:0:0:0:
210,180,163733,5,0,0:0:0:0:
236,41,163894,1,0,0:0:0:0:
107,170,164054,1,0,0:0:0:0:
149,8,164214,1,0,0:0:0:0:
221,218,164375,1,0,0:0:0:0:
227,3,164535,1,0,0:0:0:0:
351,192,164856,6,0,P|314:253|273:278,1,107.999996704102
116,73,165177,1,0,0:0:0:0:
127,114,165257,1,0,0:0:0:0:
152,149,165337,1,0,0:0:0:0:
188,173,165417,1,0,0:0:0:0:
230,182,165497,5,0,0:0:0:0:
188,41,165658,1,0,0:0:0:0:
126,260,165819,1,0,0:0:0:0:
323,42,165979,2,0,P|386:20|463:28,1,107.999996704102
480,132,166300,5,0,0:0:0:0:
337,204,166460,1,0,0:0:0:0:
326,245,166540,1,0,0:0:0:0:
301,280,166620,1,0,0:0:0:0:
265,303,166700,1,0,0:0:0:0:
223,312,166780,5,0,0:0:0:0:
283,158,166942,1,0,0:0:0:0:
395,344,167102,1,0,0:0:0:0:
142,228,167263,2,0,P|76:175|64:127,1,107.999996704102
142,47,167583,5,0,0:0:0:0:
234,164,167744,2,0,L|246:232,1,53.9999983520508
235,304,167904,2,0,L|302:342,1,53.9999983520508
384,351,168065,1,0,0:0:0:0:
298,192,168225,1,0,0:0:0:0:
246,353,168386,1,0,0:0:0:0:
405,237,168546,2,0,P|456:192|463:133,1,107.999996704102
370,97,168867,5,0,0:0:0:0:
290,265,169027,1,0,0:0:0:0:
481,229,169188,1,0,0:0:0:0:
211,123,169348,1,0,0:0:0:0:
434,340,169669,5,0,0:0:0:0:
328,59,169990,6,0,P|262:50|234:63,1,90
154,153,170311,1,0,0:0:0:0:
265,215,170471,1,0,0:0:0:0:
150,281,170632,2,0,P|78:272|52:235,1,90
86,140,170952,1,0,0:0:0:0:
212,193,171113,2,0,P|238:250|236:297,1,90
142,368,171434,5,0,0:0:0:0:
89,225,171594,1,0,0:0:0:0:
274,291,171755,1,0,0:0:0:0:
18,339,171915,1,0,0:0:0:0:
210,145,172236,5,0,0:0:0:0:
97,349,172557,6,0,P|163:332|210:298,1,90
254,224,172878,1,0,0:0:0:0:
165,138,173038,1,0,0:0:0:0:
291,103,173198,2,0,P|349:138|376:183,1,90
400,283,173519,1,0,0:0:0:0:
265,316,173680,2,0,P|206:305|158:262,1,90
165,151,174001,5,0,0:0:0:0:
361,128,174161,1,0,0:0:0:0:
214,272,174321,1,0,0:0:0:0:
265,26,174482,1,0,0:0:0:0:
351,314,174803,5,0,0:0:0:0:
166,88,175124,5,0,0:0:0:0:
83,180,175284,1,0,0:0:0:0:
202,159,175444,5,0,0:0:0:0:
149,283,175604,1,0,0:0:0:0:
266,203,175765,5,0,0:0:0:0:
257,351,175925,1,0,0:0:0:0:
346,215,176086,5,0,0:0:0:0:
392,371,176246,1,0,0:0:0:0:
443,145,176407,5,0,0:0:0:0:
432,284,176567,1,0,0:0:0:0:
352,146,176728,5,0,0:0:0:0:
288,285,176888,1,0,0:0:0:0:
263,146,177049,5,0,0:0:0:0:
144,265,177209,1,0,0:0:0:0:
153,116,177370,1,0,0:0:0:0:
356,145,177690,5,0,0:0:0:0:
318,285,177851,1,0,0:0:0:0:
414,101,178011,5,0,0:0:0:0:
275,180,178172,1,0,0:0:0:0:
460,162,178332,5,0,0:0:0:0:
295,100,178493,1,0,0:0:0:0:
423,226,178653,5,0,0:0:0:0:
374,38,178814,1,0,0:0:0:0:
336,204,178974,5,0,0:0:0:0:
448,70,179135,1,0,0:0:0:0:
445,249,179295,5,0,0:0:0:0:
348,82,179456,1,0,0:0:0:0:
328,307,179615,5,0,0:0:0:0:
433,122,179776,1,0,0:0:0:0:
456,349,179936,1,0,0:0:0:0:
75,83,180257,5,0,0:0:0:0:
221,38,180418,1,0,0:0:0:0:
100,3,180578,5,0,0:0:0:0:
205,142,180739,1,0,0:0:0:0:
205,0,180899,5,0,0:0:0:0:
95,167,181060,1,0,0:0:0:0:
268,90,181220,5,0,0:0:0:0:
43,35,181381,1,0,0:0:0:0:
228,207,181541,5,0,0:0:0:0:
146,20,181701,1,0,0:0:0:0:
91,258,181861,5,0,0:0:0:0:
235,59,182021,1,0,0:0:0:0:
232,317,182182,5,0,0:0:0:0:
110,46,182342,1,0,0:0:0:0:
76,352,182503,5,0,0:0:0:0:
283,61,182663,1,0,0:0:0:0:
246,378,182824,2,0,L|222:343,1,33.75
174,268,183145,5,0,0:0:0:0:
316,315,183305,1,0,0:0:0:0:
126,355,183466,1,0,0:0:0:0:
323,223,183626,1,0,0:0:0:0:
66,247,183787,1,0,0:0:0:0:
387,338,183947,1,0,0:0:0:0:
88,96,184749,5,0,0:0:0:0:
424,96,185070,5,0,0:0:0:0:
256,240,185391,6,0,P|288:304|336:320,1,90
401,307,185712,1,0,0:0:0:0:
415,208,185872,1,0,0:0:0:0:
314,210,186033,2,0,P|294:150|305:107,1,90
372,60,186353,1,0,0:0:0:0:
274,32,186514,1,0,0:0:0:0:
218,125,186674,2,0,P|185:177|145:203,1,90
59,227,186995,5,0,0:0:0:0:
89,87,187156,1,0,0:0:0:0:
171,269,187316,1,0,0:0:0:0:
205,73,187476,1,0,0:0:0:0:
41,295,187637,1,0,0:0:0:0:
168,78,187958,6,0,P|228:66|269:75,1,90
341,128,188279,1,0,0:0:0:0:
301,234,188439,1,0,0:0:0:0:
422,203,188599,2,0,P|455:138|451:88,1,90
416,34,188920,5,0,0:0:0:0:
221,161,189081,1,0,0:0:0:0:
401,191,189402,6,0,L|323:117,2,90
496,277,189883,5,0,0:0:0:0:
137,209,190204,5,0,0:0:0:0:
421,29,190525,6,0,P|417:102|401:140,1,90
367,191,190845,1,0,0:0:0:0:
258,207,191006,1,0,0:0:0:0:
294,98,191166,2,0,P|238:69|198:76,1,90
113,139,191487,1,0,0:0:0:0:
188,249,191648,1,0,0:0:0:0:
221,135,191808,2,0,P|247:78|252:30,1,90
153,26,192129,5,0,0:0:0:0:
311,133,192289,1,0,0:0:0:0:
105,121,192450,1,0,0:0:0:0:
325,36,192610,1,0,0:0:0:0:
48,25,192771,1,0,0:0:0:0:
352,138,193091,6,0,P|385:178|395:242,1,90
358,297,193412,1,0,0:0:0:0:
238,315,193573,1,0,0:0:0:0:
290,211,193733,2,0,P|236:185|190:179,1,90
116,211,194054,5,0,0:0:0:0:
343,306,194214,1,0,0:0:0:0:
278,160,194375,1,0,0:0:0:0:
203,324,194535,1,0,0:0:0:0:
375,219,194696,1,0,0:0:0:0:
151,247,194856,1,0,0:0:0:0:
335,318,195017,1,0,0:0:0:0:
187,167,195177,1,0,0:0:0:0:
182,328,195337,2,0,P|241:302|276:258,1,90
313,174,195658,5,0,0:0:0:0:
105,74,195819,1,0,0:0:0:0:
294,285,195979,5,0,0:3:0:0:
185,42,196140,1,0,0:3:0:0:
187,360,196300,5,0,0:3:0:0:
270,65,196461,1,0,0:3:0:0:
57,313,196621,5,0,0:3:0:0:
347,114,196782,1,0,0:3:0:0:
0,167,196942,5,0,0:3:0:0:
388,204,197103,1,0,0:3:0:0:
74,22,197263,5,0,0:3:0:0:
359,312,197424,1,0,0:3:0:0:
258,6,197583,2,0,P|258:81|238:132,1,107.999996704102
77,272,197904,1,0,0:0:0:0:
370,108,198225,5,0,0:0:0:0:
186,165,198386,1,0,0:0:0:0:
407,185,198546,5,0,0:0:0:0:
193,95,198707,1,0,0:0:0:0:
382,296,198867,5,0,0:0:0:0:
254,48,199028,1,0,0:0:0:0:
279,379,199188,5,0,0:0:0:0:
353,53,199349,1,0,0:0:0:0:
121,356,199509,5,0,2:0:0:0:
439,112,199670,1,0,2:0:0:0:
9,202,199829,5,0,2:0:0:0:
469,223,199990,1,0,2:0:0:0:
70,50,200150,2,0,P|79:101|132:153,1,107.999996704102
342,254,200471,1,0,0:0:0:0:
165,110,200792,5,0,0:0:0:0:
310,41,201113,1,0,0:0:0:0:
353,134,201434,5,0,0:0:0:0:
208,65,201755,1,0,0:0:0:0:
146,194,202075,5,0,0:0:0:0:
291,125,202396,1,0,0:0:0:0:
291,125,202717,1,0,0:0:0:0:
291,125,203038,1,0,0:0:0:0:
165,323,203359,5,0,0:0:0:0:
320,228,203680,1,0,0:0:0:0:
368,304,204001,5,0,0:0:0:0:
213,209,204321,2,0,P|171:174|160:123,1,90
247,85,204642,5,0,0:0:0:0:
149,259,204803,1,0,0:0:0:0:
298,148,204963,5,0,0:0:0:0:
101,184,205124,1,0,0:0:0:0:
308,233,205284,5,0,0:0:0:0:
138,92,205445,1,0,0:0:0:0:
239,323,205605,1,0,0:0:0:0:
