osu file format v14

[General]
AudioFilename: Song_Blade Dance.mp3
AudioLeadIn: 0
PreviewTime: 46525
Countdown: 0
SampleSet: Soft
StackLeniency: 0.5
Mode: 0
LetterboxInBreaks: 0
WidescreenStoryboard: 0

[Editor]
Bookmarks: 50215,51658,55348,56792,78610,79894,81177,82461
DistanceSpacing: 0.9
BeatDivisor: 2
GridSize: 32
TimelineZoom: 1

[Metadata]
Title:Blade Dance
TitleUnicode:精霊剣舞祭
Artist:Ni-Sokkususu
ArtistUnicode:にーそっくすす
Creator:Karia
Version:Normal
Source:精霊使いの剣舞
Tags:Seirei Tsukai no Blade Dance Ending TV Size
BeatmapID:1079282
BeatmapSetID:503089

[Difficulty]
HPDrainRate:4
CircleSize:3
OverallDifficulty:4
ApproachRate:5
SliderMultiplier:1
SliderTickRate:1

[Events]
//Background and Video events
0,0,"BG.jpg",0,0
Video,0,"VIDEO.avi"
//Break Periods
//Storyboard Layer 0 (Background)
//Storyboard Layer 1 (Fail)
//Storyboard Layer 2 (Pass)
//Storyboard Layer 3 (Foreground)
//Storyboard Sound Samples

[TimingPoints]
322,320.855614973262,4,2,1,50,1,0
5455,-100,4,2,1,65,0,0
15723,-100,4,2,1,60,0,0
20856,-100,4,2,1,65,0,0
25990,-100,4,2,1,60,0,0
31124,-100,4,2,1,65,0,0
36257,-100,4,2,1,60,0,0
42674,-100,4,2,1,65,0,0
43958,-100,4,2,1,70,0,0
46525,-100,4,2,1,75,0,1
65936,-100,4,2,1,75,0,0
66418,-100,4,2,1,65,0,0
67059,-100,4,2,1,70,0,1
67220,-100,4,2,1,70,0,0
77327,-100,4,2,1,70,0,1
82461,-100,4,2,1,65,0,0

[Colours]
Combo1 : 222,190,190
Combo2 : 255,98,176
Combo3 : 255,255,102
Combo4 : 230,255,255

[HitObjects]
52,338,322,6,0,L|42:233,1,100,0|2,3:0|0:0,0:0:0:0:
92,163,963,2,0,P|138:142|197:156,1,100,0|2,3:0|0:0,0:0:0:0:
261,198,1605,1,0,3:0:0:0:
341,157,1926,2,0,P|358:114|347:55,2,100,2|2|2,0:0|0:0|0:0,0:0:0:0:
338,247,2888,6,0,P|387:242|439:238,1,100,0|2,3:0|0:0,0:0:0:0:
456,326,3530,2,0,P|407:331|355:335,1,100,0|2,3:0|0:0,0:0:0:0:
269,310,4172,1,0,3:0:0:0:
182,334,4493,1,2,0:0:0:0:
100,296,4813,2,0,P|81:250|98:190,1,100,2|2,0:0|0:0,0:0:0:0:
158,142,5455,5,4,0:0:0:0:
236,186,5776,2,0,P|287:182|341:179,1,100,2|8,0:0|0:0,0:0:0:0:
423,156,6418,2,0,P|439:111|417:55,1,100,2|0,0:0|0:0,0:0:0:0:
343,21,7059,2,0,P|307:18|240:14,2,100,2|10|2,0:0|0:0|0:0,0:0:0:0:
423,62,8022,5,4,0:0:0:0:
343,108,8343,2,0,P|282:112|238:115,1,100,2|8,0:0|0:0,0:0:0:0:
164,70,8985,2,0,P|114:65|40:56,1,100,2|0,0:0|0:0,0:0:0:0:
4,124,9626,1,2,0:0:0:0:
51,200,9947,2,0,P|101:205|175:214,1,100,2|2,0:0|0:0,0:0:0:0:
224,159,10589,5,4,0:0:0:0:
286,224,10910,2,0,L|276:328,1,100,2|8,0:0|0:0,0:0:0:0:
194,361,11551,2,0,P|149:358|80:345,1,100,2|0,0:0|0:0,0:0:0:0:
31,283,12193,2,0,P|15:238|27:184,2,100,2|10|2,0:0|0:0|0:0,0:0:0:0:
117,256,13156,5,4,0:0:0:0:
202,283,13477,2,0,P|218:238|206:184,1,100,2|8,0:0|0:0,0:0:0:0:
143,123,14118,2,0,P|187:98|236:102,1,100,2|0,0:0|0:0,0:0:0:0:
307,159,14760,1,0,0:0:0:0:
374,99,15081,2,0,P|427:95|476:132,1,100,4|4,0:0|0:0,0:0:0:0:
492,204,15723,5,4,0:0:0:0:
447,282,16043,2,0,P|406:284|342:289,2,100,2|0|2,0:0|0:0|0:0,0:0:0:0:
492,204,17006,2,0,B|513:106|513:106|474:4,1,200,0|2,0:0|0:0,0:0:0:0:
394,47,17969,1,2,0:0:0:0:
306,26,18289,5,0,0:0:0:0:
228,71,18610,2,0,P|212:117|239:181,2,100,2|0|2,0:0|0:0|0:0,0:0:0:0:
306,26,19573,2,0,P|228:33|94:42,1,200,0|4,0:0|0:3,0:0:0:0:
29,87,20535,1,8,0:0:0:0:
83,158,20856,5,4,0:0:0:0:
14,216,21177,2,0,P|1:269|26:324,1,100,10|0,0:0|0:0,0:0:0:0:
98,346,21819,2,0,L|206:339,1,100,10|0,0:0|0:0,0:0:0:0:
234,257,22461,2,0,P|187:249|127:238,2,100,10|2|10,0:0|0:0|0:0,0:0:0:0:
299,319,23423,5,4,0:0:0:0:
382,282,23744,2,0,P|398:243|385:184,1,100,10|0,0:0|0:0,0:0:0:0:
316,131,24386,2,0,P|259:136|188:141,1,100,10|0,0:0|0:0,0:0:0:0:
204,49,25027,2,0,P|261:44|332:39,2,100,10|10|10,0:0|0:0|0:0,0:0:0:0:
131,103,25990,5,4,0:0:0:0:
60,159,26311,2,0,P|40:118|53:57,2,100,2|0|2,0:0|0:0|0:0,0:0:0:0:
119,226,27273,2,0,L|338:235,1,200,0|2,0:0|0:0,0:0:0:0:
396,188,28236,1,2,0:0:0:0:
325,131,28557,5,0,0:0:0:0:
384,63,28878,2,0,P|435:59|508:52,2,100,2|0|2,0:0|0:0|0:0,0:0:0:0:
295,48,29840,2,0,P|242:101|291:212,1,200,0|8,0:0|0:0,0:0:0:0:
360,249,30803,1,8,0:0:0:0:
431,194,31124,5,4,0:0:0:0:
504,245,31444,2,0,P|519:300|494:349,1,100,10|0,0:0|0:0,0:0:0:0:
415,357,32086,2,0,L|309:349,1,100,10|0,0:0|0:0,0:0:0:0:
231,316,32728,2,0,L|124:326,2,100,10|2|10,0:0|0:0|0:0,0:0:0:0:
304,264,33690,5,4,0:0:0:0:
222,225,34011,2,0,P|204:181|219:125,1,100,10|0,0:0|0:0,0:0:0:0:
277,65,34653,2,0,P|232:43|174:51,1,100,10|0,0:0|0:0,0:0:0:0:
121,112,35295,2,0,P|77:119|27:90,2,100,10|10|10,0:0|0:0|0:0,0:0:0:0:
183,47,36257,6,0,B|180:162|176:259,1,200,4|8,0:0|0:0,0:0:0:0:
233,316,37220,2,0,P|284:309|337:305,1,100
403,249,37862,2,0,P|458:258|524:267,2,100,0|8|0,0:0|0:0|0:0,0:0:0:0:
319,215,38824,6,0,B|308:147|308:147|334:94|334:94|324:16,1,200,4|8,0:0|0:0,0:0:0:0:
244,63,39787,2,0,L|139:57,1,100
67,104,40428,1,0,0:0:0:0:
145,148,40749,2,0,P|158:200|138:251,1,100,12|0,0:0|0:0,0:0:0:0:
82,309,41391,6,0,B|176:270|186:345|280:302,1,200,4|0,0:0|0:0,0:0:0:0:
356,261,42354,1,0,0:0:0:0:
431,310,42674,2,0,P|486:237|421:145,1,200
363,101,43637,1,0,0:0:0:0:
287,150,43958,6,0,B|219:134|219:134|166:162|166:162|84:149,1,200,4|8,0:0|0:0,0:0:0:0:
26,95,44920,1,8,0:0:0:0:
92,34,45241,2,0,P|137:29|196:21,1,100,4|8,0:0|0:0,0:0:0:0:
277,49,45883,2,0,P|329:55|391:61,1,100,4|4,0:0|0:0,0:0:0:0:
450,111,46525,5,4,0:0:0:0:
370,152,46846,2,0,P|320:156|267:163,2,100,8|0|8,0:0|0:0|0:0,0:0:0:0:
403,181,47648,2,0,P|444:253|396:320,1,150,4|8,0:0|0:0,0:0:0:0:
337,346,48450,2,0,P|299:343|220:339,1,100,0|8,0:0|0:0,0:0:0:0:
204,308,48931,6,0,P|140:315|26:325,1,150,4|8,0:0|0:0,0:0:0:0:
7,246,49733,2,0,P|-10:206|13:141,1,100,0|8,0:0|0:0,0:0:0:0:
30,116,50215,2,0,B|74:94|74:94|154:120,1,100,4|0,0:0|0:0,0:0:0:0:
154,141,50696,1,8,0:0:0:0:
232,97,51017,1,8,0:0:0:0:
299,156,51338,1,8,0:0:0:0:
375,109,51658,5,4,0:0:0:0:
449,159,51979,2,0,P|463:119|444:53,2,100,8|0|8,0:0|0:0|0:0,0:0:0:0:
430,200,52781,2,0,P|368:204|248:211,1,150,4|8,0:0|0:0,0:0:0:0:
196,175,53584,2,0,P|193:137|185:63,1,100,0|8,0:0|0:0,0:0:0:0:
157,41,54065,6,0,P|94:15|20:82,1,150,4|8,0:0|0:0,0:0:0:0:
3,141,54867,2,0,P|8:186|17:252,1,100,0|8,0:0|0:0,0:0:0:0:
47,271,55348,2,0,B|97:290|97:290|169:260,1,100,4|0,0:0|0:0,0:0:0:0:
165,234,55830,1,8,0:0:0:0:
243,278,56150,1,8,0:0:0:0:
319,230,56471,1,8,0:0:0:0:
398,272,56792,5,4,0:0:0:0:
474,223,57113,2,0,P|479:269|487:341,2,100,8|0|8,0:0|0:0|0:0,0:0:0:0:
443,190,57915,2,0,P|466:131|442:46,1,150,0|8,0:0|0:0,0:0:0:0:
361,14,58717,1,8,0:0:0:0:
286,64,59038,1,8,0:0:0:0:
206,22,59359,5,4,0:0:0:0:
124,59,59680,2,0,P|83:53|14:44,2,100,8|0|8,0:0|0:0|0:0,0:0:0:0:
155,91,60482,2,0,P|186:166|115:224,1,150,4|8,0:0|0:0,0:0:0:0:
70,259,61284,2,0,P|55:307|82:355,1,100,4|4,0:0|0:0,0:0:0:0:
163,369,61926,6,0,P|210:364|383:351,1,200,4|8,0:0|0:0,0:0:0:0:
428,291,62888,1,8,0:0:0:0:
350,245,63209,2,0,P|300:242|250:238,1,100,8|0,0:0|0:0,0:0:0:0:
216,154,63851,2,0,P|276:147|333:138,1,100,2|2,0:0|0:0,0:0:0:0:
355,60,64493,6,0,B|439:104|430:264|307:184|298:335|385:380,1,350,4|8,0:0|0:0,0:0:0:0:
315,141,66418,1,4,0:0:0:0:
234,180,66739,1,4,0:0:0:0:
149,149,67059,6,0,P|144:110|135:37,2,100,4|10|0,0:0|0:0|0:0,0:0:0:0:
234,180,68022,2,0,P|231:235|225:301,1,100,10|0,0:0|0:0,0:0:0:0:
150,327,68664,2,0,P|94:320|18:310,2,100,10|2|10,0:0|0:0|0:0,0:0:0:0:
229,370,69626,5,4,0:0:0:0:
303,319,69947,2,0,P|353:308|407:330,1,100,10|0,0:0|0:0,0:0:0:0:
481,357,70589,2,0,P|476:311|470:250,1,100,10|0,0:0|0:0,0:0:0:0:
404,196,71231,2,0,P|358:202|283:212,2,100,8|6|6,0:0|0:0|0:0,0:0:0:0:
465,130,72193,6,0,P|480:88|454:20,2,100,4|10|0,0:0|0:0|0:0,0:0:0:0:
388,82,73156,2,0,P|342:86|278:92,1,100,10|0,0:0|0:0,0:0:0:0:
201,115,73797,2,0,P|147:107|76:98,2,100,10|2|10,0:0|0:0|0:0,0:0:0:0:
263,180,74760,5,4,0:0:0:0:
178,210,75081,2,0,P|164:257|186:308,1,100,10|0,0:0|0:0,0:0:0:0:
252,358,75723,2,0,L|358:350,1,100,10|0,0:0|0:0,0:0:0:0:
424,297,76364,1,10,0:0:0:0:
355,238,76685,2,0,P|312:241|221:248,1,100,6|6,0:0|0:0,0:0:0:0:
175,202,77327,6,0,P|157:157|176:95,1,100,4|10,0:0|0:0,0:0:0:0:
229,42,77969,2,0,P|276:24|335:37,1,100,8|10,0:0|0:0,0:0:0:0:
397,83,78610,1,8,0:0:0:0:
469,136,78931,2,0,P|485:94|468:29,2,100,10|10|10,0:0|0:0|0:0,0:0:0:0:
391,181,79894,6,0,P|396:228|403:311,1,100,8|10,0:0|0:0,0:0:0:0:
431,365,80535,2,0,P|392:361|332:353,1,100,8|10,0:0|0:0,0:0:0:0:
256,303,81177,1,8,0:0:0:0:
180,352,81498,2,0,P|130:359|81:365,1,100,10|10,0:0|0:0,0:0:0:0:
12,305,82140,1,6,0:0:0:0:
75,241,82461,6,0,P|69:155|60:40,2,200,4|0|0,0:0|3:0|3:0,0:0:0:0:
147,294,84065,1,2,0:0:0:0:
215,235,84386,2,0,P|266:222|325:251,1,100,2|2,0:0|0:0,0:0:0:0:
355,314,85027,6,0,P|361:251|374:109,2,200,0|0|8,3:0|3:0|0:0,0:0:0:0:
274,354,86632,1,8,0:0:0:0:
196,307,86953,1,8,0:0:0:0:
114,344,87273,1,4,0:0:0:0:
