osu file format v14

[General]
AudioFilename: Song_Blade Dance.mp3
AudioLeadIn: 0
PreviewTime: 46525
Countdown: 0
SampleSet: Soft
StackLeniency: 0.5
Mode: 0
LetterboxInBreaks: 0
WidescreenStoryboard: 0

[Editor]
Bookmarks: 50215,51658,55348,56792,78610,79894,81177,82461
DistanceSpacing: 1.3
BeatDivisor: 4
GridSize: 32
TimelineZoom: 1

[Metadata]
Title:Blade Dance
TitleUnicode:精霊剣舞祭
Artist:Ni-Sokkususu
ArtistUnicode:にーそっくすす
Creator:Karia
Version:Light Hard
Source:精霊使いの剣舞
Tags:Seirei Tsukai no Blade Dance Ending TV Size
BeatmapID:1077329
BeatmapSetID:503089

[Difficulty]
HPDrainRate:5
CircleSize:3.8
OverallDifficulty:5.5
ApproachRate:7
SliderMultiplier:1.4
SliderTickRate:1

[Events]
//Background and Video events
0,0,"BG.jpg",0,0
Video,0,"VIDEO.avi"
//Break Periods
//Storyboard Layer 0 (Background)
//Storyboard Layer 1 (Fail)
//Storyboard Layer 2 (Pass)
//Storyboard Layer 3 (Foreground)
//Storyboard Sound Samples

[TimingPoints]
322,320.855614973262,4,2,1,50,1,0
5455,-100,4,2,1,65,0,0
15723,-100,4,2,1,60,0,0
20856,-100,4,2,1,65,0,0
25990,-100,4,2,1,60,0,0
31124,-100,4,2,1,65,0,0
36257,-111.111111111111,4,2,1,60,0,0
41391,-100,4,2,1,60,0,0
42674,-100,4,2,1,65,0,0
43958,-100,4,2,1,70,0,0
46525,-100,4,2,1,75,0,1
65936,-100,4,2,1,75,0,0
66418,-100,4,2,1,65,0,0
67059,-100,4,2,1,70,0,1
67220,-100,4,2,1,70,0,0
77327,-100,4,2,1,70,0,1
82461,-111.111111111111,4,2,1,65,0,0

[Colours]
Combo1 : 222,190,190
Combo2 : 255,98,176
Combo3 : 255,255,102
Combo4 : 230,255,255

[HitObjects]
73,176,322,6,0,L|64:100,1,70,0|0,3:0|0:0,0:0:0:0:
119,42,642,2,0,P|154:47|201:52,1,70,2|0,0:0|0:0,0:0:0:0:
252,105,963,2,0,P|327:98|406:92,1,140,0|2,3:0|0:0,0:0:0:0:
452,34,1444,1,0,0:0:0:0:
502,101,1605,6,0,P|500:135|496:178,1,70,0|0,3:0|0:0,0:0:0:0:
432,225,1926,2,0,P|397:219|356:214,1,70,2|0,0:0|0:0,0:0:0:0:
283,185,2247,2,0,P|245:189|194:195,2,70,2|0|2,0:0|0:0|0:0,0:0:0:0:
362,37,2888,6,0,P|357:79|353:116,1,70,0|0,3:0|0:0,0:0:0:0:
269,111,3209,2,0,P|265:79|260:31,1,70,2|0,0:0|0:0,0:0:0:0:
178,21,3530,2,0,P|172:78|161:172,1,140,0|2,3:0|0:0,0:0:0:0:
103,220,4011,1,0,0:0:0:0:
161,280,4172,6,0,L|245:272,1,70,0|0,3:0|0:0,0:0:0:0:
308,304,4493,2,0,L|396:314,1,70,2|0,0:0|0:0,0:0:0:0:
401,231,4813,2,0,L|331:223,1,70,2|0,0:0|0:0,0:0:0:0:
319,139,5134,2,0,L|388:146,1,70,2|0,0:0|0:0,0:0:0:0:
468,173,5455,6,0,P|480:140|477:103,1,70,4|0,0:0|0:0,0:0:0:0:
417,46,5776,1,2,0:0:0:0:
255,92,6097,2,0,L|249:20,1,70,8|0,0:0|0:0,0:0:0:0:
165,28,6418,2,0,B|174:128|174:128|210:162,1,140,2|0,0:0|0:0,0:0:0:0:
284,177,6899,5,8,0:0:0:0:
363,151,7059,2,0,P|367:120|371:77,1,70,2|0,0:0|0:0,0:0:0:0:
454,70,7380,2,0,P|450:104|446:139,1,70,10|0,0:0|0:0,0:0:0:0:
420,219,7701,2,0,P|454:215|489:211,1,70,2|0,0:0|0:0,0:0:0:0:
505,294,8022,6,0,P|470:297|435:301,1,70,4|0,0:0|0:0,0:0:0:0:
353,279,8343,1,2,0:0:0:0:
295,121,8664,2,0,P|290:159|286:193,1,70,8|0,0:0|0:0,0:0:0:0:
238,259,8985,2,0,P|178:285|115:231,1,140,2|0,0:0|0:0,0:0:0:0:
67,181,9466,5,8,0:0:0:0:
15,247,9626,2,0,P|18:285|22:338,1,70,2|0,0:0|0:0,0:0:0:0:
88,366,9947,1,2,0:0:0:0:
88,366,10108,1,0,0:0:0:0:
162,327,10268,2,0,P|197:333|247:340,1,70,2|0,0:0|0:0,0:0:0:0:
313,357,10589,6,0,P|348:352|384:348,1,70,4|0,0:0|0:0,0:0:0:0:
453,302,10910,1,2,0:0:0:0:
337,180,11231,2,0,P|333:220|329:254,1,70,10|0,0:0|0:0,0:0:0:0:
249,273,11551,2,0,P|246:239|236:130,1,140,2|0,0:0|0:0,0:0:0:0:
180,69,12033,5,8,0:0:0:0:
118,126,12193,2,0,P|81:131|43:136,1,70,2|0,0:0|0:0,0:0:0:0:
40,219,12514,2,0,P|74:214|109:209,1,70,10|0,0:0|0:0,0:0:0:0:
189,183,12835,2,0,P|184:226|179:265,1,70,2|0,0:0|0:0,0:0:0:0:
240,312,13156,6,0,P|278:308|333:303,1,70,4|0,0:0|0:0,0:0:0:0:
385,342,13477,1,2,0:0:0:0:
371,174,13797,2,0,P|367:211|361:264,1,70,8|0,0:0|0:0,0:0:0:0:
280,228,14118,2,0,P|276:191|266:75,1,140,2|0,0:0|0:0,0:0:0:0:
325,27,14600,5,8,0:0:0:0:
395,71,14760,2,0,P|436:76|485:83,1,70
481,162,15081,2,0,P|440:157|391:150,1,70,4|0,0:0|0:0,0:0:0:0:
384,231,15402,2,0,P|425:236|474:243,1,70,4|0,0:0|0:0,0:0:0:0:
503,308,15723,5,4,0:0:0:0:
343,361,16043,2,0,P|329:329|334:279,1,70,2|0,0:0|0:0,0:0:0:0:
384,231,16364,2,0,P|322:212|256:254,1,140,0|2,0:0|0:0,0:0:0:0:
188,293,16846,6,0,P|150:288|104:281,1,70
62,220,17166,1,0,0:0:0:0:
62,220,17327,2,0,P|52:186|57:150,1,70,2|0,0:0|0:0,0:0:0:0:
102,81,17648,2,0,P|163:53|218:91,1,140,2|2,0:0|0:0,0:0:0:0:
371,158,18289,6,0,P|333:161|294:167,1,70
221,192,18610,2,0,P|186:189|143:183,1,70,2|0,0:0|0:0,0:0:0:0:
71,212,18931,2,0,P|41:276|81:331,1,140,0|2,0:0|0:0,0:0:0:0:
156,352,19412,6,0,P|159:317|163:282,1,70
248,277,19733,1,0,0:0:0:0:
248,277,19894,2,0,P|254:315|262:367,1,70,2|0,0:0|0:0,0:0:0:0:
340,365,20215,2,0,L|426:354,1,70,4|0,0:3|0:0,0:0:0:0:
462,291,20535,1,8,0:0:0:0:
420,126,20856,6,0,P|379:120|328:115,1,70,4|0,0:0|0:0,0:0:0:0:
280,164,21177,2,0,P|245:166|208:169,1,70,10|0,0:0|0:0,0:0:0:0:
143,117,21498,2,0,P|110:113|60:104,1,70
0,149,21819,1,10,0:0:0:0:
73,189,21979,6,0,P|78:228|55:271,1,70
28,330,22300,1,0,0:0:0:0:
28,330,22461,2,0,L|108:328,1,70,10|0,0:0|0:0,0:0:0:0:
153,265,22781,2,0,L|316:284,1,140,2|10,0:0|0:0,0:0:0:0:
456,317,23423,6,0,P|466:282|458:246,1,70,4|0,0:0|0:0,0:0:0:0:
392,199,23744,2,0,P|385:164|395:131,1,70,10|0,0:0|0:0,0:0:0:0:
434,58,24065,2,0,P|393:50|359:43,1,70
288,77,24386,2,0,P|229:81|187:82,1,70,10|0,0:0|0:0,0:0:0:0:
140,49,24707,6,0,P|134:85|146:126,1,70
209,166,25027,2,0,P|268:162|310:161,1,70,10|0,0:0|0:0,0:0:0:0:
355,125,25348,1,10,0:0:0:0:
428,166,25509,1,0,0:0:0:0:
500,123,25669,2,0,P|508:86|496:41,1,70,10|0,0:0|0:0,0:0:0:0:
423,83,25990,5,4,0:0:0:0:
278,161,26311,2,0,P|242:158|195:153,1,70,2|0,0:0|0:0,0:0:0:0:
161,84,26632,2,0,P|99:56|38:97,1,140,0|2,0:0|0:0,0:0:0:0:
11,168,27113,6,0,P|15:197|20:254,1,70
76,298,27434,1,0,0:0:0:0:
76,298,27594,2,0,P|110:306|152:296,1,70,2|0,0:0|0:0,0:0:0:0:
198,235,27915,2,0,P|254:209|319:252,1,140,2|2,0:0|0:0,0:0:0:0:
482,217,28557,6,0,P|446:220|408:205,1,70
347,157,28878,2,0,P|346:123|345:85,1,70,2|0,0:0|0:0,0:0:0:0:
271,45,29199,2,0,P|266:105|259:193,1,140,0|2,0:0|0:0,0:0:0:0:
186,226,29680,6,0,P|155:223|113:217,1,70
35,195,30001,1,0,0:0:0:0:
35,195,30161,2,0,P|40:237|46:289,1,70,2|4,0:0|0:3,0:0:0:0:
15,344,30482,2,0,P|53:341|96:337,1,70,8|0,0:0|0:0,0:0:0:0:
164,310,30803,1,8,0:0:0:0:
102,153,31124,6,0,P|96:117|105:80,1,70,4|0,0:0|0:0,0:0:0:0:
160,23,31444,2,0,P|197:21|237:16,1,70,10|0,0:0|0:0,0:0:0:0:
299,64,31765,2,0,P|346:68|383:71,1,70
436,19,32086,1,10,0:0:0:0:
500,72,32247,6,0,P|507:107|495:148,1,70
421,169,32567,1,0,0:0:0:0:
421,169,32728,2,0,P|414:207|433:254,1,70,10|0,0:0|0:0,0:0:0:0:
489,287,33049,2,0,P|425:322|348:275,1,140,2|10,0:0|0:0,0:0:0:0:
199,290,33690,6,0,P|203:328|205:362,1,70,4|0,0:0|0:0,0:0:0:0:
120,363,34011,2,0,P|116:325|114:291,1,70,10|0,0:0|0:0,0:0:0:0:
151,217,34332,2,0,P|154:178|156:140,1,70
108,77,34653,2,0,P|139:65|182:65,1,70,10|0,0:0|0:0,0:0:0:0:
235,122,34974,6,0,P|268:131|307:128,1,70
351,59,35295,2,0,P|384:49|419:52,1,70,10|0,0:0|0:0,0:0:0:0:
489,98,35616,1,10,0:0:0:0:
481,181,35776,1,0,0:0:0:0:
413,230,35936,2,0,P|411:269|428:312,1,70,10|0,0:0|0:0,0:0:0:0:
488,344,36257,6,0,B|412:297|375:383|295:316,1,188.999994232178,4|0,0:0|0:0,0:0:0:0:
256,259,36899,1,8,0:0:0:0:
120,354,37220,6,0,L|112:268,1,62.9999980773926,0|8,0:0|0:0,0:0:0:0:
162,225,37541,2,0,L|170:139,1,62.9999980773926,0|8,0:0|0:0,0:0:0:0:
107,105,37862,2,0,P|161:77|227:104,2,125.999996154785,0|8|0,0:0|0:0|0:0,0:0:0:0:
36,252,38824,6,0,B|70:161|-15:159|24:64,1,188.999994232178,4|0,0:0|0:0,0:0:0:0:
88,23,39466,1,8,0:0:0:0:
167,162,39787,6,0,L|237:155,1,62.9999980773926,0|8,0:0|0:0,0:0:0:0:
286,96,40108,2,0,L|356:103,1,62.9999980773926,0|8,0:0|0:0,0:0:0:0:
410,156,40428,2,0,P|417:191|407:225,1,62.9999980773926
340,259,40749,2,0,P|324:316|352:380,1,125.999996154785,12|0,0:0|0:0,0:0:0:0:
249,239,41391,6,0,P|203:236|90:230,1,140,4|0,0:0|0:0,0:0:0:0:
43,178,41872,1,0,0:0:0:0:
43,178,42033,2,0,P|40:137|37:102,1,70
122,113,42354,2,0,P|125:77|128:38,1,70
206,68,42674,6,0,P|268:37|345:73,1,140
370,133,43156,1,0,0:0:0:0:
334,209,43316,2,0,P|299:220|258:214,1,70
196,169,43637,1,2,0:0:0:0:
196,169,43797,1,2,0:0:0:0:
129,221,43958,6,0,P|134:265|138:316,1,70,4|8,0:0|0:0,0:0:0:0:
184,360,44279,1,8,0:0:0:0:
184,360,44439,2,0,P|221:357|274:345,1,70,8|8,0:0|0:0,0:0:0:0:
297,278,44760,1,8,0:0:0:0:
352,340,44920,1,8,0:0:0:0:
426,299,45081,1,8,0:0:0:0:
500,337,45241,6,0,L|510:180,1,140,4|8,0:0|0:0,0:0:0:0:
392,75,45883,2,0,L|400:214,1,140,4|4,0:0|0:0,0:0:0:0:
294,83,46525,6,0,P|263:71|216:77,1,70,4|0,0:0|0:0,0:0:0:0:
211,156,46846,2,0,P|242:168|289:162,1,70,8|0,0:0|0:0,0:0:0:0:
361,153,47166,2,0,P|407:147|442:142,1,70
503,186,47487,1,8,0:0:0:0:
428,226,47648,6,0,B|404:262|404:262|446:301|435:369,1,140,4|0,0:0|0:0,0:0:0:0:
353,336,48129,2,0,L|351:371,2,35,8|0|0,0:0|0:0|0:0,0:0:0:0:
312,262,48450,2,0,P|279:252|226:263,1,70
173,301,48771,1,8,0:0:0:0:
100,258,48931,6,0,B|76:222|76:222|94:97,1,140,4|0,0:0|0:0,0:0:0:0:
134,54,49412,2,0,L|80:44,2,35,8|0|0,0:0|0:0|0:0,0:0:0:0:
178,125,49733,2,0,P|215:122|266:117,1,70
311,63,50054,1,8,0:0:0:0:
384,104,50215,6,0,P|420:167|380:228,1,140,4|0,0:0|0:0,0:0:0:0:
332,282,50696,2,0,P|290:277|252:272,1,70,8|0,0:0|0:0,0:0:0:0:
205,210,51017,2,0,P|152:212|116:214,1,70,8|0,0:0|0:0,0:0:0:0:
83,279,51338,1,8,0:0:0:0:
8,128,51658,6,0,P|1:89|17:49,1,70,4|0,0:0|0:0,0:0:0:0:
85,20,51979,2,0,P|122:18|171:14,1,70,8|0,0:0|0:0,0:0:0:0:
206,82,52300,2,0,P|243:84|292:88,1,70
343,36,52621,1,8,0:0:0:0:
412,83,52781,6,0,P|444:132|407:202,1,140,4|0,0:0|0:0,0:0:0:0:
329,176,53263,2,0,L|324:141,2,35,8|0|0,0:0|0:0|0:0,0:0:0:0:
257,220,53584,2,0,P|226:211|169:222,1,70
130,274,53904,1,8,0:0:0:0:
179,342,54065,6,0,P|238:335|333:328,1,140,4|0,0:0|0:0,0:0:0:0:
398,303,54546,2,0,L|394:362,2,35,8|0|0,0:0|0:0|0:0,0:0:0:0:
335,245,54867,2,0,P|332:210|327:161,1,70
375,105,55188,1,8,0:0:0:0:
313,48,55348,6,0,P|241:55|146:62,1,140,4|0,0:0|0:0,0:0:0:0:
99,101,55830,2,0,P|60:96|10:88,1,70,8|0,0:0|0:0,0:0:0:0:
15,174,56150,2,0,P|54:179|104:187,1,70,8|0,0:0|0:0,0:0:0:0:
165,161,56471,1,8,0:0:0:0:
267,298,56792,6,0,P|269:274|274:222,1,70,4|0,0:0|0:0,0:0:0:0:
245,148,57113,2,0,P|241:113|239:78,1,70,8|0,0:0|0:0,0:0:0:0:
303,23,57434,2,0,P|339:17|378:30,1,70
431,83,57755,1,8,0:0:0:0:
487,20,57915,6,0,P|481:93|472:179,1,140
408,211,58396,2,0,P|411:246|415:296,1,70,8|0,0:0|0:0,0:0:0:0:
471,342,58717,2,0,P|420:306|346:344,1,140,8|0,0:0|0:0,0:0:0:0:
192,282,59359,6,0,P|213:280|283:274,1,70,4|0,0:0|0:0,0:0:0:0:
321,216,59680,2,0,P|330:182|320:139,1,70,8|0,0:0|0:0,0:0:0:0:
257,96,60001,2,0,P|225:87|169:94,1,70
128,147,60321,1,8,0:0:0:0:
61,95,60482,6,0,B|34:126|34:126|47:226,1,140
97,291,60963,2,0,P|138:287|197:281,1,70,8|0,0:0|0:0,0:0:0:0:
244,251,61284,2,0,P|317:260|383:266,1,140,4|4,0:0|0:0,0:0:0:0:
507,146,61926,6,0,P|460:151|335:158,1,140,4|8,0:0|0:0,0:0:0:0:
298,108,62407,1,0,0:0:0:0:
232,160,62567,2,0,P|237:207|241:245,1,70
158,255,62888,2,0,P|153:208|149:170,1,70,8|0,0:0|0:0,0:0:0:0:
158,101,63209,6,0,L|123:106,3,35,8|8|8|8,0:0|0:0|0:0|0:0,0:0:0:0:
86,126,63530,2,0,L|-6:117,1,70
1,202,63851,2,0,L|93:211,1,70,2|2,0:0|0:0,0:0:0:0:
151,186,64172,1,2,0:0:0:0:
17,288,64493,5,4,0:0:0:0:
175,343,64813,2,0,L|179:273,1,70
262,261,65134,2,0,L|257:340,2,70,8|8|8,0:0|0:0|0:0,0:0:0:0:
267,176,65616,1,8,0:0:0:0:
267,176,66418,6,0,P|304:182|344:189,1,70,4|0,0:0|0:0,0:0:0:0:
378,260,66739,2,0,P|416:257|462:255,1,70,4|0,0:0|0:0,0:0:0:0:
494,185,67059,6,0,P|498:134|505:41,2,140,4|10|0,0:0|0:0|0:0,0:0:0:0:
447,255,67862,1,0,0:0:0:0:
407,181,68022,2,0,P|370:171|323:179,1,70,10|0,0:0|0:0,0:0:0:0:
277,231,68343,6,0,P|242:233|208:223,1,70
155,158,68664,2,0,P|91:136|21:178,2,140,10|2|10,0:0|0:0|0:0,0:0:0:0:
107,319,69626,6,0,P|104:288|100:249,1,70,4|0,0:0|0:0,0:0:0:0:
183,238,69947,2,0,P|186:269|190:308,1,70,10|0,0:0|0:0,0:0:0:0:
264,346,70268,2,0,P|304:341|336:336,1,70
410,369,70589,1,10,0:0:0:0:
485,333,70749,6,0,P|505:281|478:195,1,140
421,143,71231,2,0,P|381:148|351:151,1,70,8|0,0:0|0:0,0:0:0:0:
284,201,71551,2,0,P|243:197|213:194,1,70,6|0,0:0|0:0,0:0:0:0:
144,147,71872,2,0,P|140:182|135:218,1,70,6|0,0:0|0:0,0:0:0:0:
57,249,72193,6,0,P|52:179|46:109,2,140,4|10|0,0:0|0:0|0:0,0:0:0:0:
122,302,72995,1,0,0:0:0:0:
187,248,73156,2,0,P|223:241|260:244,1,70,10|0,0:0|0:0,0:0:0:0:
317,301,73477,6,0,P|354:308|388:308,1,70
462,272,73797,2,0,P|495:223|460:145,2,140,10|2|10,0:0|0:0|0:0,0:0:0:0:
391,118,74760,6,0,P|353:121|317:124,1,70,4|0,0:0|0:0,0:0:0:0:
317,208,75081,2,0,P|354:204|391:202,1,70,10|0,0:0|0:0,0:0:0:0:
383,286,75402,2,0,P|345:289|309:292,1,70
242,246,75723,1,10,0:0:0:0:
173,293,75883,6,0,P|138:250|164:171,1,140
238,143,76364,2,0,P|245:109|239:71,1,70,10|0,0:0|0:0,0:0:0:0:
173,22,76685,2,0,P|131:26|102:28,1,70,6|0,0:0|0:0,0:0:0:0:
93,111,77006,2,0,P|135:107|164:105,1,70,6|0,0:0|0:0,0:0:0:0:
240,74,77327,6,0,P|275:78|322:84,1,70,4|0,0:0|0:0,0:0:0:0:
379,126,77648,2,0,P|418:122|459:120,1,70,10|0,0:0|0:0,0:0:0:0:
503,184,77969,2,0,P|511:223|502:256,1,70,8|0,0:0|0:0,0:0:0:0:
449,315,78289,2,0,P|408:311|380:306,1,70,10|0,0:0|0:0,0:0:0:0:
320,246,78610,6,0,P|282:249|247:252,1,70,8|0,0:0|0:0,0:0:0:0:
182,302,78931,2,0,P|178:343|173:391,1,70,10|0,0:0|0:0,0:0:0:0:
90,371,79252,2,0,P|86:324|83:294,1,70,10|0,0:0|0:0,0:0:0:0:
133,233,79573,1,10,0:0:0:0:
54,88,79894,6,0,P|86:76|135:84,1,70,8|0,0:0|0:0,0:0:0:0:
194,36,80215,2,0,P|231:38|263:59,1,70,10|0,0:0|0:0,0:0:0:0:
303,126,80535,2,0,P|299:165|295:199,1,70,8|0,0:0|0:0,0:0:0:0:
213,216,80856,2,0,P|211:183|207:132,1,70,10|0,0:0|0:0,0:0:0:0:
127,122,81177,6,0,P|122:160|116:212,1,70,8|0,0:0|0:0,0:0:0:0:
70,260,81498,2,0,P|101:273|144:269,1,70,10|0,0:0|0:0,0:0:0:0:
210,231,81819,2,0,P|243:222|279:231,1,70,10|0,0:0|0:0,0:0:0:0:
337,290,82140,2,0,P|373:301|415:290,1,70,2|0,0:0|0:0,0:0:0:0:
472,248,82461,6,0,P|495:195|456:129,1,125.999996154785,4|2,0:0|0:0,0:0:0:0:
346,25,83102,2,0,P|323:78|362:144,1,125.999996154785,0|2,3:0|0:0,0:0:0:0:
472,248,83744,6,0,P|438:243|397:237,1,62.9999980773926,0|0,3:0|0:0,0:0:0:0:
342,286,84065,2,0,P|307:287|271:288,1,62.9999980773926,2|0,0:0|0:0,0:0:0:0:
228,223,84386,2,0,P|196:220|161:215,1,62.9999980773926,2|0,0:0|0:0,0:0:0:0:
118,283,84707,2,0,P|85:286|56:288,1,62.9999980773926,2|0,0:0|0:0,0:0:0:0:
16,216,85027,6,0,P|10:153|3:80,1,125.999996154785,0|2,3:0|0:0,0:0:0:0:
153,21,85669,2,0,P|146:83|141:146,1,125.999996154785,0|2,3:0|0:0,0:0:0:0:
201,299,86311,6,0,L|285:291,1,62.9999980773926,8|8,0:0|0:0,0:0:0:0:
336,254,86632,2,0,L|403:262,1,62.9999980773926,8|8,0:0|0:0,0:0:0:0:
470,301,86953,2,0,L|478:238,1,62.9999980773926,8|8,0:0|0:0,0:0:0:0:
490,157,87273,1,4,0:0:0:0:
