osu file format v14

[General]
AudioFilename: Song_Blade Dance.mp3
AudioLeadIn: 0
PreviewTime: 46525
Countdown: 0
SampleSet: Soft
StackLeniency: 0.5
Mode: 0
LetterboxInBreaks: 0
WidescreenStoryboard: 1

[Editor]
Bookmarks: 14760,15723,41391,45241,50215,51658,55348,56792,78610,79894,81177,82461
DistanceSpacing: 0.6
BeatDivisor: 4
GridSize: 32
TimelineZoom: 1

[Metadata]
Title:Blade Dance
TitleUnicode:精霊剣舞祭
Artist:Ni-Sokkususu
ArtistUnicode:にーそっくすす
Creator:Karia
Version:Insane
Source:精霊使いの剣舞
Tags:Seirei Tsukai no Blade Dance Ending TV Size
BeatmapID:1075720
BeatmapSetID:503089

[Difficulty]
HPDrainRate:6
CircleSize:4
OverallDifficulty:7.5
ApproachRate:9
SliderMultiplier:1.7
SliderTickRate:1

[Events]
//Background and Video events
0,0,"BG.jpg",0,0
Video,0,"VIDEO.avi"
//Break Periods
//Storyboard Layer 0 (Background)
//Storyboard Layer 1 (Fail)
//Storyboard Layer 2 (Pass)
//Storyboard Layer 3 (Foreground)
//Storyboard Sound Samples

[TimingPoints]
322,320.855614973262,4,2,1,50,1,0
322,-111.111111111111,4,2,1,50,0,0
4493,-100,4,2,1,50,0,0
5455,-100,4,2,1,65,0,0
15723,-117.647058823529,4,2,1,60,0,0
20856,-100,4,2,1,65,0,0
25990,-117.647058823529,4,2,1,60,0,0
31124,-100,4,2,1,65,0,0
36257,-125,4,2,1,60,0,0
41391,-100,4,2,1,60,0,0
42674,-100,4,2,1,65,0,0
43958,-100,4,2,1,70,0,0
45803,-100,4,2,1,5,0,0
45883,-100,4,2,1,70,0,0
46525,-100,4,2,1,75,0,1
61846,-100,4,2,1,5,0,1
61926,-100,4,2,1,75,0,1
64492,-142.857142857143,4,2,1,75,0,1
64573,-142.857142857143,4,2,1,5,0,1
65134,-100,4,2,1,75,0,1
65936,-100,4,2,1,75,0,0
66418,-100,4,2,1,65,0,0
67059,-100,4,2,1,70,0,1
67220,-100,4,2,1,70,0,0
77327,-100,4,2,1,70,0,1
82461,-117.647058823529,4,2,1,65,0,0
86311,-200,4,2,1,65,0,0
87273,-200,4,2,1,65,0,0
87354,-200,4,2,1,5,0,0

[Colours]
Combo1 : 222,190,190
Combo2 : 255,98,176
Combo3 : 255,255,102
Combo4 : 230,255,255

[HitObjects]
53,178,322,5,0,3:0:0:0:
128,73,482,1,0,0:0:0:0:
206,177,642,2,0,P|243:183|284:166,1,76.4999976654053,2|0,0:0|0:0,0:0:0:0:
128,73,963,2,0,L|133:123|137:167,1,76.4999976654053,0|0,3:0|0:0,0:0:0:0:
202,23,1284,2,0,L|207:73|211:117,1,76.4999976654053,2|0,0:0|0:0,0:0:0:0:
297,216,1605,5,0,3:0:0:0:
377,114,1765,1,0,0:0:0:0:
297,216,1926,2,0,P|337:211|372:206,1,76.4999976654053,2|0,0:0|0:0,0:0:0:0:
219,122,2247,2,0,P|264:129|303:134,1,76.4999976654053,2|0,0:0|0:0,0:0:0:0:
142,219,2567,1,2,0:0:0:0:
142,219,2888,5,0,3:0:0:0:
84,102,3049,1,0,0:0:0:0:
0,201,3209,2,0,P|-8:238|18:291,1,76.4999976654053,2|0,0:0|0:0,0:0:0:0:
130,331,3530,2,0,P|91:337|50:342,1,76.4999976654053,0|0,3:0|0:0,0:0:0:0:
202,250,3851,2,0,P|168:241|124:230,1,76.4999976654053,2|0,0:0|0:0,0:0:0:0:
272,331,4172,1,0,3:0:0:0:
250,179,4332,1,0,0:0:0:0:
393,252,4493,6,0,L|297:261,1,85,2|0,0:0|0:0,0:0:0:0:
484,160,4813,2,0,P|476:205|473:264,1,85,2|0,0:0|0:0,0:0:0:0:
340,102,5134,2,0,P|348:147|351:206,1,85,2|0,0:0|0:0,0:0:0:0:
440,21,5455,5,4,0:0:0:0:
440,21,5616,1,0,0:0:0:0:
265,82,5776,2,0,P|308:89|354:96,1,85,2|0,0:0|0:0,0:0:0:0:
179,20,6097,1,8,0:0:0:0:
208,168,6257,1,0,0:0:0:0:
64,73,6418,2,0,L|56:121|49:163,1,85,2|0,0:0|0:0,0:0:0:0:
18,251,6739,5,0,0:0:0:0:
147,120,6899,1,8,0:0:0:0:
242,279,7059,2,0,P|202:271|141:260,1,85,2|0,0:0|0:0,0:0:0:0:
332,218,7380,5,10,0:0:0:0:
158,263,7541,1,0,0:0:0:0:
237,92,7701,2,0,P|242:136|248:187,1,85,2|0,0:0|0:0,0:0:0:0:
342,338,8022,5,4,0:0:0:0:
342,338,8182,1,0,0:0:0:0:
159,297,8343,2,0,P|200:288|242:279,1,85,2|0,0:0|0:0,0:0:0:0:
300,128,8664,1,8,0:0:0:0:
242,278,8824,1,0,0:0:0:0:
193,118,8985,2,0,P|153:106|99:132,1,85,2|0,0:0|0:0,0:0:0:0:
49,187,9305,5,0,0:0:0:0:
111,19,9466,1,8,0:0:0:0:
49,187,9626,2,0,P|44:142|37:85,1,85,2|0,0:0|0:0,0:0:0:0:
0,285,9947,5,10,0:0:0:0:
146,182,10108,1,0,0:0:0:0:
280,302,10268,2,0,P|321:310|369:284,1,85,10|0,0:0|0:0,0:0:0:0:
391,107,10589,5,4,0:0:0:0:
312,234,10749,1,0,0:0:0:0:
230,102,10910,2,0,P|236:149|243:210,1,85,2|0,0:0|0:0,0:0:0:0:
291,17,11231,1,8,0:0:0:0:
152,117,11391,1,0,0:0:0:0:
12,20,11551,2,0,P|-1:55|17:113,1,85,2|0,0:0|0:0,0:0:0:0:
171,163,11872,5,0,0:0:0:0:
0,201,12033,1,8,0:0:0:0:
171,163,12193,2,0,P|166:209|161:259,1,85,2|0,0:0|0:0,0:0:0:0:
111,91,12514,5,10,0:0:0:0:
169,261,12674,1,0,0:0:0:0:
282,116,12835,2,0,P|326:106|380:132,1,85,2|0,0:0|0:0,0:0:0:0:
505,242,13156,5,4,0:0:0:0:
452,105,13316,1,0,0:0:0:0:
402,265,13477,2,0,P|358:275|304:249,1,85,2|0,0:0|0:0,0:0:0:0:
228,158,13797,1,8,0:0:0:0:
254,328,13958,1,0,0:0:0:0:
228,158,14118,2,0,P|222:202|213:264,1,85,2|0,0:0|0:0,0:0:0:0:
185,65,14439,5,0,0:0:0:0:
307,194,14600,1,8,0:0:0:0:
134,245,14760,2,0,P|119:203|127:161,1,85
290,77,15081,5,6,0:0:0:0:
232,238,15241,1,0,0:0:0:0:
180,58,15402,5,6,0:0:0:0:
232,238,15562,1,0,0:0:0:0:
379,146,15723,6,0,L|370:228,1,72.2500013780594,4|0,0:0|0:0,0:0:0:0:
274,306,16043,2,0,L|355:299,1,72.2500013780594,2|0,0:0|0:0,0:0:0:0:
223,229,16364,2,0,L|299:223,1,72.2500013780594
174,309,16685,1,2,0:0:0:0:
118,183,16846,6,0,P|113:226|106:273,1,72.2500013780594
81,107,17166,1,0,0:0:0:0:
199,181,17327,1,2,0:0:0:0:
199,181,17487,1,0,0:0:0:0:
253,39,17648,2,0,P|257:77|262:122,1,72.2500013780594,2|0,0:0|0:0,0:0:0:0:
206,252,17969,2,0,P|202:216|199:181,1,72.2500013780594,2|0,0:0|0:0,0:0:0:0:
335,87,18289,6,0,P|338:122|342:158,1,72.2500013780594
450,263,18610,2,0,L|374:255,1,72.2500013780594,2|0,0:0|0:0,0:0:0:0:
509,159,18931,2,0,L|435:167,1,72.2500013780594
304,235,19252,1,2,0:0:0:0:
378,119,19412,6,0,P|389:83|377:46,1,72.2500013780594
287,152,19733,1,0,0:0:0:0:
287,152,19894,2,0,L|201:143,1,72.2500013780594,2|0,0:0|0:0,0:0:0:0:
101,34,20215,5,4,0:3:0:0:
142,161,20375,1,0,0:0:0:0:
263,70,20535,1,8,0:0:0:0:
263,70,20856,5,4,0:0:0:0:
195,216,21017,1,0,0:0:0:0:
117,68,21177,2,0,P|78:60|23:86,1,85,10|0,0:0|0:0,0:0:0:0:
183,133,21498,1,0,0:0:0:0:
34,168,21658,1,0,0:0:0:0:
183,234,21819,1,10,0:0:0:0:
24,290,21979,6,0,P|72:296|126:305,1,85
202,371,22300,1,0,0:0:0:0:
276,231,22461,2,0,P|294:271|282:315,1,85,10|0,0:0|0:0,0:0:0:0:
215,156,22781,5,2,0:0:0:0:
371,227,22942,1,0,0:0:0:0:
208,277,23102,2,0,L|119:264,1,85,10|0,0:0|0:0,0:0:0:0:
290,159,23423,5,4,0:0:0:0:
337,297,23584,1,0,0:0:0:0:
462,226,23744,2,0,P|477:188|463:138,1,85,10|0,0:0|0:0,0:0:0:0:
319,73,24065,1,0,0:0:0:0:
402,183,24225,1,0,0:0:0:0:
403,16,24386,2,0,P|396:73|389:124,1,85,10|0,0:0|0:0,0:0:0:0:
281,239,24707,5,0,0:0:0:0:
228,79,24867,1,0,0:0:0:0:
281,239,25027,2,0,P|301:202|292:158,1,85,10|0,0:0|0:0,0:0:0:0:
115,190,25348,5,10,0:0:0:0:
293,161,25509,1,0,0:0:0:0:
168,21,25669,2,0,L|175:107,1,85,10|0,0:0|0:0,0:0:0:0:
196,265,25990,6,0,P|206:227|198:182,1,72.2500013780594,4|0,0:0|0:0,0:0:0:0:
59,236,26311,2,0,P|99:229|141:221,1,72.2500013780594,2|0,0:0|0:0,0:0:0:0:
27,321,26632,2,0,P|67:314|109:306,1,72.2500013780594
203,384,26953,1,2,0:0:0:0:
312,310,27113,6,0,P|324:277|309:229,1,72.2500013780594
227,309,27434,1,0,0:0:0:0:
357,375,27594,1,2,0:0:0:0:
357,375,27755,1,0,0:0:0:0:
227,309,27915,2,0,P|186:307|153:324,1,72.2500013780594,2|0,0:0|0:0,0:0:0:0:
21,352,28236,2,0,P|61:350|95:367,1,72.2500013780594,2|0,0:0|0:0,0:0:0:0:
42,199,28557,6,0,P|45:237|56:292,1,72.2500013780594
201,231,28878,2,0,P|165:227|129:222,1,72.2500013780594,2|0,0:0|0:0,0:0:0:0:
227,309,29199,2,0,P|263:307|303:303,1,72.2500013780594
406,208,29519,1,2,0:0:0:0:
382,354,29680,6,0,P|377:318|371:279,1,72.2500013780594
310,176,30001,1,0,0:0:0:0:
215,232,30161,1,2,0:0:0:0:
123,168,30321,1,4,0:3:0:0:
70,296,30482,5,8,0:0:0:0:
123,168,30642,1,0,0:0:0:0:
70,296,30803,1,8,0:0:0:0:
70,296,31124,5,4,0:0:0:0:
206,236,31284,1,0,0:0:0:0:
48,184,31444,2,0,P|34:148|43:101,1,85,10|0,0:0|0:0,0:0:0:0:
127,231,31765,1,0,0:0:0:0:
174,87,31926,1,0,0:0:0:0:
127,231,32086,1,10,0:0:0:0:
293,191,32247,6,0,P|253:182|205:169,1,85
364,137,32567,1,0,0:0:0:0:
246,257,32728,2,0,P|236:300|253:339,1,85,10|0,0:0|0:0,0:0:0:0:
370,217,33049,5,2,0:0:0:0:
210,170,33209,1,0,0:0:0:0:
370,217,33370,2,0,P|380:174|363:135,1,85,10|0,0:0|0:0,0:0:0:0:
309,295,33690,5,4,0:0:0:0:
268,126,33851,1,0,0:0:0:0:
140,250,34011,2,0,P|181:245|226:238,1,85,10|0,0:0|0:0,0:0:0:0:
66,191,34332,1,0,0:0:0:0:
232,251,34493,1,0,0:0:0:0:
78,341,34653,2,0,P|59:304|78:250,1,85,10|0,0:0|0:0,0:0:0:0:
172,139,34974,5,0,0:0:0:0:
284,253,35134,1,0,0:0:0:0:
405,122,35295,2,0,P|417:165|394:212,1,85,10|0,0:0|0:0,0:0:0:0:
320,79,35616,5,10,0:0:0:0:
296,268,35776,1,0,0:0:0:0:
482,214,35936,2,0,P|444:196|402:201,1,85,10|0,0:0|0:0,0:0:0:0:
207,170,36257,6,0,P|273:179|338:157,1,136,4|0,0:0|0:0,0:0:0:0:
426,285,36739,1,0,0:0:0:0:
426,285,36899,2,0,P|373:278|268:264,1,136,8|0,0:0|0:0,0:0:0:0:
144,294,37380,1,8,0:0:0:0:
291,267,37541,5,0,0:0:0:0:
147,308,37701,1,8,0:0:0:0:
280,258,37862,2,0,P|284:292|289:344,1,68
367,171,38182,2,0,P|363:205|358:257,1,68,8|0,0:0|0:0,0:0:0:0:
253,111,38503,2,0,P|257:145|262:197,1,68
348,31,38824,6,0,P|407:7|470:55,1,136,4|0,0:0|0:0,0:0:0:0:
289,90,39305,1,0,0:0:0:0:
289,90,39466,2,0,P|243:51|157:78,1,136,8|0,0:0|0:0,0:0:0:0:
129,205,39947,1,8,0:0:0:0:
172,62,40108,5,0,0:0:0:0:
117,205,40268,1,8,0:0:0:0:
162,61,40428,2,0,P|167:107|171:148,1,68
278,216,40749,2,0,P|240:211|187:204,1,68,12|0,0:0|0:0,0:0:0:0:
338,153,41070,2,0,P|381:149|422:145,1,68
286,294,41391,6,0,P|269:258|288:202,1,85,4|0,0:0|0:0,0:0:0:0:
419,145,41712,1,0,0:0:0:0:
419,145,41872,1,0,0:0:0:0:
344,247,42033,1,0,0:0:0:0:
299,83,42193,1,0,0:0:0:0:
180,208,42354,2,0,L|172:124,1,85
239,267,42674,6,0,L|233:315|226:371,1,85
325,209,42995,1,0,0:0:0:0:
325,209,43156,1,0,0:0:0:0:
160,279,43316,1,0,0:0:0:0:
332,324,43477,1,0,0:0:0:0:
157,258,43637,1,0,0:0:0:0:
157,258,43797,1,0,0:0:0:0:
236,96,43958,6,0,P|242:146|249:200,1,85,4|8,0:0|0:0,0:0:0:0:
75,260,44279,1,8,0:0:0:0:
117,87,44439,1,8,0:0:0:0:
245,201,44600,1,8,0:0:0:0:
117,87,44760,5,8,0:0:0:0:
160,279,44920,1,8,0:0:0:0:
319,162,45081,1,8,0:0:0:0:
111,206,45241,5,4,0:0:0:0:
111,206,45562,2,0,P|180:214|264:224,1,127.5,8|0,0:0|0:0,0:0:0:0:
297,266,45883,6,0,P|312:234|298:178,1,85,4|0,0:0|0:0,0:0:0:0:
220,63,46204,2,0,P|205:95|219:151,1,85,4|0,0:0|0:0,0:0:0:0:
398,121,46525,6,0,P|357:114|307:106,1,85,4|0,0:0|0:0,0:0:0:0:
490,45,46846,1,8,0:0:0:0:
490,45,46926,1,0,0:0:0:0:
490,45,47006,1,0,0:0:0:0:
464,206,47166,2,0,P|421:210|370:215,1,85
314,107,47487,1,8,0:0:0:0:
186,209,47648,6,0,P|194:260|201:306,1,85,4|0,0:0|0:0,0:0:0:0:
273,186,47969,1,0,0:0:0:0:
144,123,48129,1,8,0:0:0:0:
164,119,48209,1,0,0:0:0:0:
185,115,48289,1,0,0:0:0:0:
100,256,48450,2,0,L|-4:239,1,85
186,209,48771,1,8,0:0:0:0:
65,81,48931,6,0,P|70:124|75:175,1,85,4|0,0:0|0:0,0:0:0:0:
185,115,49252,1,0,0:0:0:0:
243,234,49412,1,8,0:0:0:0:
262,243,49493,1,0,0:0:0:0:
283,245,49573,1,0,0:0:0:0:
303,240,49653,1,0,0:0:0:0:
321,230,49733,2,0,P|363:219|411:234,1,85
280,158,50054,1,8,0:0:0:0:
414,311,50215,6,0,P|421:246|434:130,1,170,4|0,0:0|0:0,0:0:0:0:
288,242,50696,2,0,P|284:197|277:143,1,85,8|0,0:0|0:0,0:0:0:0:
322,338,51017,5,8,0:0:0:0:
204,183,51177,1,0,0:0:0:0:
79,350,51338,2,0,P|121:345|178:341,1,85,8|0,0:0|0:0,0:0:0:0:
364,267,51658,6,0,P|380:226|370:181,1,85,4|0,0:0|0:0,0:0:0:0:
253,293,51979,2,0,L|248:250,3,42.5,8|0|0|0,0:0|0:0|0:0|0:0,0:0:0:0:
298,194,52300,2,0,P|253:173|215:181,1,85
80,257,52621,1,8,0:0:0:0:
124,85,52781,6,0,P|129:129|136:182,1,85,4|0,0:0|0:0,0:0:0:0:
200,262,53102,1,0,0:0:0:0:
281,104,53263,1,8,0:0:0:0:
281,104,53343,1,0,0:0:0:0:
281,104,53423,2,0,L|215:91,1,42.5
209,186,53584,2,0,L|303:177,1,85
350,326,53904,1,8,0:0:0:0:
429,166,54065,6,0,P|443:208|427:255,1,85,4|0,0:0|0:0,0:0:0:0:
497,99,54386,1,0,0:0:0:0:
363,208,54546,1,8,0:0:0:0:
341,207,54626,1,0,0:0:0:0:
319,205,54707,1,0,0:0:0:0:
297,203,54787,1,0,0:0:0:0:
276,198,54867,2,0,P|261:157|281:104,1,85
323,28,55188,1,8,0:0:0:0:
190,174,55348,6,0,P|124:197|61:121,1,170,4|0,0:0|0:0,0:0:0:0:
0,299,55830,2,0,P|41:286|88:288,1,85,8|0,0:0|0:0,0:0:0:0:
246,341,56150,5,8,0:0:0:0:
190,174,56311,1,0,0:0:0:0:
246,341,56471,2,0,P|205:347|156:333,1,85,8|0,0:0|0:0,0:0:0:0:
335,227,56792,6,0,P|328:279|322:322,1,85,4|0,0:0|0:0,0:0:0:0:
256,182,57113,2,0,P|250:126|246:80,1,85,8|0,0:0|0:0,0:0:0:0:
423,144,57434,2,0,P|383:129|340:141,1,85
252,264,57755,1,8,0:0:0:0:
172,96,57915,6,0,P|166:146|160:198,1,85
111,20,58236,1,0,0:0:0:0:
258,98,58396,1,8,0:0:0:0:
258,98,58557,1,0,0:0:0:0:
85,159,58717,1,8,0:0:0:0:
65,152,59038,2,0,P|62:114|54:53,1,85,2|2,0:0|0:0,0:0:0:0:
173,245,59359,6,0,P|131:245|83:276,1,85,6|0,0:0|0:0,0:0:0:0:
263,179,59680,2,0,L|250:274,1,85,8|0,0:0|0:0,0:0:0:0:
212,97,60001,1,0,0:0:0:0:
212,97,60161,1,0,0:0:0:0:
353,207,60321,1,8,0:0:0:0:
401,25,60482,6,0,P|407:74|414:136,1,85
463,248,60803,1,0,0:0:0:0:
411,109,60963,2,0,P|405:153|398:209,1,85,8|0,0:0|0:0,0:0:0:0:
481,23,61284,1,4,0:0:0:0:
481,23,61605,2,0,P|412:31|325:41,1,127.5,4|0,0:0|0:0,0:0:0:0:
292,90,61926,6,0,P|273:47|283:1,1,85,4|0,0:0|0:0,0:0:0:0:
358,155,62247,2,0,P|365:196|349:235,1,85,8|0,0:0|0:0,0:0:0:0:
190,280,62567,2,0,P|233:285|280:290,1,85,8|0,0:0|0:0,0:0:0:0:
123,190,62888,2,0,P|162:185|214:176,1,85,8|0,0:0|0:0,0:0:0:0:
52,329,63209,5,8,0:0:0:0:
48,303,63289,1,8,0:0:0:0:
45,277,63370,1,8,0:0:0:0:
41,251,63450,1,8,0:0:0:0:
39,225,63530,2,0,L|34:162,3,42.5
92,103,63851,2,0,L|145:94,3,42.5
165,188,64172,2,0,L|218:195,3,42.5
267,120,64493,6,0,P|343:115|481:106,1,208.249993644715,4|0,0:0|0:0,0:0:0:0:
496,125,65134,6,0,L|504:36,1,85,8|8,0:0|0:0,0:0:0:0:
503,40,65455,1,8,0:0:0:0:
483,240,65616,1,8,0:0:0:0:
461,253,66418,6,0,P|426:251|366:246,1,85,4|0,0:0|0:0,0:0:0:0:
234,190,66739,2,0,P|276:184|331:176,1,85,4|0,0:0|0:0,0:0:0:0:
165,301,67059,6,0,P|147:268|156:214,1,85,4|0,0:0|0:0,0:0:0:0:
84,73,67380,2,0,P|79:122|73:162,1,85,10|0,0:0|0:0,0:0:0:0:
24,259,67701,1,0,0:0:0:0:
180,155,67862,1,0,0:0:0:0:
24,259,68022,2,0,P|63:255|121:248,1,85,10|0,0:0|0:0,0:0:0:0:
284,242,68343,2,0,P|240:238|197:229,1,85
370,167,68664,5,10,0:0:0:0:
370,167,68824,1,0,0:0:0:0:
301,332,68985,5,2,0:0:0:0:
257,164,69145,1,0,0:0:0:0:
382,272,69305,5,10,0:0:0:0:
200,229,69466,1,0,0:0:0:0:
370,167,69626,6,0,P|383:125|370:82,1,85
469,256,69947,2,0,P|424:252|379:247,1,85,10|0,0:0|0:0,0:0:0:0:
288,151,70268,1,0,0:0:0:0:
209,291,70428,1,0,0:0:0:0:
148,141,70589,1,10,0:0:0:0:
41,267,70749,6,0,P|89:259|136:253,1,85
219,149,71070,1,0,0:0:0:0:
276,318,71231,2,0,P|293:277|279:232,1,85,8|0,0:0|0:0,0:0:0:0:
191,369,71551,5,6,0:0:0:0:
366,335,71712,1,0,0:0:0:0:
194,271,71872,5,6,0:0:0:0:
366,335,72033,1,0,0:0:0:0:
308,160,72193,6,0,P|301:216|295:257,1,85,4|0,0:0|0:0,0:0:0:0:
236,88,72514,2,0,P|197:73|150:84,1,85,10|0,0:0|0:0,0:0:0:0:
79,160,72835,1,0,0:0:0:0:
123,13,72995,1,0,0:0:0:0:
79,160,73156,2,0,P|74:114|67:64,1,85,10|0,0:0|0:0,0:0:0:0:
167,198,73477,2,0,P|161:240|156:282,1,85
79,160,73797,5,10,0:0:0:0:
79,160,73958,1,0,0:0:0:0:
146,298,74118,5,2,0:0:0:0:
217,134,74279,1,0,0:0:0:0:
70,249,74439,5,10,0:0:0:0:
256,216,74600,1,0,0:0:0:0:
70,249,74760,6,0,P|57:292|69:339,1,85
230,308,75081,2,0,P|185:303|140:297,1,85,10|0,0:0|0:0,0:0:0:0:
313,271,75402,1,0,0:0:0:0:
195,381,75562,1,0,0:0:0:0:
241,225,75723,1,10,0:0:0:0:
317,373,75883,6,0,P|365:381|403:356,1,85
483,237,76204,1,0,0:0:0:0:
483,237,76364,2,0,L|472:325,1,85,10|0,0:0|0:0,0:0:0:0:
355,189,76685,5,6,0:0:0:0:
395,364,76846,1,0,0:0:0:0:
469,195,77006,5,6,0:0:0:0:
331,319,77166,1,0,0:0:0:0:
228,160,77327,6,0,P|216:202|240:248,1,85,4|0,0:0|0:0,0:0:0:0:
341,97,77648,2,0,P|302:91|248:80,1,85,10|0,0:0|0:0,0:0:0:0:
425,45,77969,1,8,0:0:0:0:
329,188,78129,1,0,0:0:0:0:
497,182,78289,2,0,P|511:221|500:267,1,85,10|0,0:0|0:0,0:0:0:0:
413,118,78610,2,0,L|510:109,1,85,8|0,0:0|0:0,0:0:0:0:
329,188,78931,5,10,0:0:0:0:
297,37,79092,1,0,0:0:0:0:
180,161,79252,5,10,0:0:0:0:
334,104,79412,1,0,0:0:0:0:
180,161,79573,5,10,0:0:0:0:
359,212,79733,1,0,0:0:0:0:
185,279,79894,6,0,P|177:322|197:368,1,85,8|0,0:0|0:0,0:0:0:0:
273,220,80215,2,0,P|281:177|261:131,1,85,10|0,0:0|0:0,0:0:0:0:
185,279,80535,1,8,0:0:0:0:
155,110,80696,1,0,0:0:0:0:
40,234,80856,2,0,P|81:226|128:220,1,85,10|0,0:0|0:0,0:0:0:0:
6,83,81177,2,0,P|-4:127|24:176,1,85,8|0,0:0|0:0,0:0:0:0:
123,220,81498,5,10,0:0:0:0:
185,80,81658,1,0,0:0:0:0:
63,162,81819,5,10,0:0:0:0:
240,137,81979,1,0,0:0:0:0:
78,41,82140,5,10,0:0:0:0:
240,137,82300,1,0,0:0:0:0:
364,17,82461,6,0,P|400:82|351:141,1,144.500002756119,4|2,0:0|0:0,0:0:0:0:
288,219,82942,1,0,0:0:0:0:
288,219,83102,2,0,P|325:215|376:214,1,72.2500013780594,0|0,3:0|0:0,0:0:0:0:
466,134,83423,2,0,P|460:175|451:227,1,72.2500013780594,2|0,0:0|0:0,0:0:0:0:
407,288,83744,5,0,3:0:0:0:
407,288,83904,1,0,0:0:0:0:
281,208,84065,2,0,P|316:204|376:202,1,72.2500013780594,2|0,0:0|0:0,0:0:0:0:
221,295,84386,2,0,P|256:297|315:305,1,72.2500013780594,2|0,0:0|0:0,0:0:0:0:
187,207,84707,2,0,P|175:172|185:128,1,72.2500013780594,2|0,0:0|0:0,0:0:0:0:
299,64,85027,6,0,P|289:141|279:219,1,144.500002756119,0|2,3:0|0:0,0:0:0:0:
221,76,85509,1,0,0:0:0:0:
221,76,85669,2,0,P|190:60|147:62,1,72.2500013780594,0|0,3:0|0:0,0:0:0:0:
33,151,85990,2,0,P|67:146|108:142,1,72.2500013780594,2|0,0:0|0:0,0:0:0:0:
199,231,86311,5,8,0:0:0:0:
199,231,86471,1,8,0:0:0:0:
104,142,86632,5,8,0:0:0:0:
146,296,86792,1,8,0:0:0:0:
275,165,86953,5,8,0:0:0:0:
110,222,87113,1,8,0:0:0:0:
310,232,87273,6,0,B|351:144|298:104|298:104|264:121|275:165,1,212.5,4|0,0:0|0:0,0:0:0:0:
