osu file format v14

[General]
AudioFilename: Song_Blade Dance.mp3
AudioLeadIn: 0
PreviewTime: 46525
Countdown: 0
SampleSet: Soft
StackLeniency: 0.5
Mode: 0
LetterboxInBreaks: 0
WidescreenStoryboard: 0

[Editor]
Bookmarks: 50215,51658,55348,56792,78610,79894,81177,82461
DistanceSpacing: 1.1
BeatDivisor: 4
GridSize: 32
TimelineZoom: 1

[Metadata]
Title:Blade Dance
TitleUnicode:精霊剣舞祭
Artist:Ni-Sokkususu
ArtistUnicode:にーそっくすす
Creator:Karia
Version:Hard
Source:精霊使いの剣舞
Tags:Seirei Tsukai no Blade Dance Ending TV Size
BeatmapID:1077093
BeatmapSetID:503089

[Difficulty]
HPDrainRate:5.5
CircleSize:4
OverallDifficulty:6.5
ApproachRate:8.2
SliderMultiplier:1.5
SliderTickRate:1

[Events]
//Background and Video events
0,0,"BG.jpg",0,0
Video,0,"VIDEO.avi"
//Break Periods
//Storyboard Layer 0 (Background)
//Storyboard Layer 1 (Fail)
//Storyboard Layer 2 (Pass)
//Storyboard Layer 3 (Foreground)
//Storyboard Sound Samples

[TimingPoints]
322,320.855614973262,4,2,1,50,1,0
5455,-100,4,2,1,65,0,0
15723,-117.647058823529,4,2,1,60,0,0
20856,-100,4,2,1,65,0,0
25990,-117.647058823529,4,2,1,60,0,0
31124,-100,4,2,1,65,0,0
36257,-125,4,2,1,60,0,0
41391,-100,4,2,1,60,0,0
42674,-100,4,2,1,65,0,0
43958,-100,4,2,1,70,0,0
45803,-100,4,2,1,5,0,0
45883,-100,4,2,1,70,0,0
46525,-100,4,2,1,75,0,1
65936,-100,4,2,1,75,0,0
66418,-100,4,2,1,65,0,0
67059,-100,4,2,1,70,0,1
67220,-100,4,2,1,70,0,0
77327,-100,4,2,1,70,0,1
82461,-117.647058823529,4,2,1,65,0,0
87273,-200,4,2,1,65,0,0
87354,-200,4,2,1,5,0,0

[Colours]
Combo1 : 222,190,190
Combo2 : 255,98,176
Combo3 : 255,255,102
Combo4 : 230,255,255

[HitObjects]
51,78,322,5,0,3:0:0:0:
104,140,482,1,0,0:0:0:0:
163,82,642,2,0,P|197:71|246:82,1,75,2|0,0:0|0:0,0:0:0:0:
282,144,963,2,0,P|318:149|354:138,1,75,0|0,3:0|0:0,0:0:0:0:
426,97,1284,2,0,L|431:147|434:193,1,75,2|0,0:0|0:0,0:0:0:0:
441,254,1605,5,0,3:0:0:0:
363,225,1765,1,0,0:0:0:0:
288,260,1926,2,0,P|291:298|294:343,1,75,2|0,0:0|0:0,0:0:0:0:
213,356,2247,2,0,P|210:318|207:273,1,75,2|0,0:0|0:0,0:0:0:0:
233,202,2567,1,2,0:0:0:0:
233,202,2888,5,0,3:0:0:0:
176,141,3049,1,0,0:0:0:0:
115,196,3209,2,0,P|77:202|38:185,1,75,2|0,0:0|0:0,0:0:0:0:
6,115,3530,2,0,P|1:77|0:35,1,75,0|0,3:0|0:0,0:0:0:0:
82,43,3851,2,0,P|86:80|88:123,1,75,2|0,0:0|0:0,0:0:0:0:
115,196,4172,5,0,3:0:0:0:
187,156,4332,1,0,0:0:0:0:
257,199,4493,2,0,L|250:288,1,75,2|0,0:0|0:0,0:0:0:0:
335,179,4813,2,0,L|328:268,1,75,2|0,0:0|0:0,0:0:0:0:
415,159,5134,2,0,L|408:248,1,75,2|0,0:0|0:0,0:0:0:0:
497,140,5455,5,4,0:0:0:0:
497,140,5616,1,0,0:0:0:0:
445,75,5776,2,0,P|408:67|359:96,1,75,2|0,0:0|0:0,0:0:0:0:
296,52,6097,1,8,0:0:0:0:
311,132,6257,1,0,0:0:0:0:
230,113,6418,2,0,P|235:152|242:205,1,75,2|0,0:0|0:0,0:0:0:0:
299,244,6739,5,0,0:0:0:0:
334,138,6899,1,8,0:0:0:0:
299,244,7059,2,0,P|327:240|381:234,1,75,2|0,0:0|0:0,0:0:0:0:
243,313,7380,2,0,P|205:308|168:303,1,75,10|0,0:0|0:0,0:0:0:0:
82,207,7701,2,0,P|88:252|94:301,1,75,2|0,0:0|0:0,0:0:0:0:
134,140,8022,5,4,0:0:0:0:
134,140,8182,1,0,0:0:0:0:
167,216,8343,2,0,P|204:225|248:208,1,75,2|0,0:0|0:0,0:0:0:0:
299,158,8664,1,8,0:0:0:0:
365,206,8824,1,0,0:0:0:0:
441,173,8985,2,0,P|451:140|429:82,1,75,2|0,0:0|0:0,0:0:0:0:
418,22,9305,5,0,0:0:0:0:
374,126,9466,1,8,0:0:0:0:
418,22,9626,2,0,P|374:30|318:38,1,75,2|0,0:0|0:0,0:0:0:0:
281,130,9947,1,2,0:0:0:0:
211,39,10108,1,0,0:0:0:0:
139,125,10268,2,0,P|104:129|61:111,1,75,2|0,0:0|0:0,0:0:0:0:
16,223,10589,6,0,P|52:216|92:210,1,75,4|0,0:0|0:0,0:0:0:0:
168,236,10910,2,0,P|172:270|178:326,1,75,2|0,0:0|0:0,0:0:0:0:
241,361,11231,1,8,0:0:0:0:
302,306,11391,1,0,0:0:0:0:
367,356,11551,2,0,P|373:321|381:274,1,75,2|0,0:0|0:0,0:0:0:0:
422,211,11872,5,0,0:0:0:0:
456,318,12033,1,8,0:0:0:0:
422,211,12193,2,0,P|460:219|496:225,1,75,2|0,0:0|0:0,0:0:0:0:
342,208,12514,2,0,P|331:177|338:133,1,75,10|0,0:0|0:0,0:0:0:0:
413,35,12835,2,0,P|424:66|417:110,1,75,2|0,0:0|0:0,0:0:0:0:
342,208,13156,6,0,L|249:212,1,75,4|0,0:0|0:0,0:0:0:0:
233,135,13477,2,0,L|144:127,1,75,2|0,0:0|0:0,0:0:0:0:
104,190,13797,1,8,0:0:0:0:
54,123,13958,1,0,0:0:0:0:
2,187,14118,2,0,P|5:231|8:289,1,75,2|0,0:0|0:0,0:0:0:0:
63,321,14439,5,0,0:0:0:0:
100,214,14600,1,8,0:0:0:0:
63,321,14760,2,0,P|105:317|148:311,1,75
261,259,15081,2,0,P|222:253|184:242,1,75,4|0,0:0|0:0,0:0:0:0:
147,93,15402,2,0,P|163:139|159:185,1,75,4|0,0:0|0:0,0:0:0:0:
257,101,15723,6,0,P|289:92|339:86,1,63.7500012159348,4|0,0:0|0:0,0:0:0:0:
367,154,16043,2,0,P|403:156|449:166,1,63.7500012159348,2|0,0:0|0:0,0:0:0:0:
486,222,16364,2,0,P|502:285|456:329,1,127.50000243187,0|2,0:0|0:0,0:0:0:0:
379,316,16846,6,0,P|375:287|369:241,1,63.7500012159348
332,179,17166,1,0,0:0:0:0:
281,245,17327,2,0,P|249:247|213:253,1,63.7500012159348,2|0,0:0|0:0,0:0:0:0:
178,178,17648,2,0,P|146:176|110:170,1,63.7500012159348,2|0,0:0|0:0,0:0:0:0:
83,247,17969,2,0,P|51:249|15:255,1,63.7500012159348,2|0,0:0|0:0,0:0:0:0:
7,172,18289,6,0,P|2:136|0:100,1,63.7500012159348
83,97,18610,2,0,P|86:65|94:22,1,63.7500012159348,2|0,0:0|0:0,0:0:0:0:
173,47,18931,2,0,P|237:17|296:55,1,127.50000243187,0|2,0:0|0:0,0:0:0:0:
365,20,19412,6,0,P|361:63|358:97,1,63.7500012159348
286,123,19733,1,0,0:0:0:0:
286,123,19894,2,0,P|290:160|297:209,1,63.7500012159348,2|0,0:0|0:0,0:0:0:0:
360,235,20215,2,0,L|442:225,1,63.7500012159348,4|0,0:3|0:0,0:0:0:0:
287,280,20535,1,8,0:0:0:0:
287,280,20856,6,0,P|246:276|202:271,1,75,4|0,0:0|0:0,0:0:0:0:
144,320,21177,2,0,P|106:323|57:328,1,75,10|0,0:0|0:0,0:0:0:0:
9,269,21498,1,0,0:0:0:0:
54,200,21658,1,0,0:0:0:0:
10,129,21819,1,10,0:0:0:0:
56,60,21979,6,0,P|104:66|151:72,1,75
194,121,22300,1,0,0:0:0:0:
194,121,22461,2,0,L|236:118|278:115,1,75,10|0,0:0|0:0,0:0:0:0:
327,57,22781,1,2,0:0:0:0:
381,118,22942,1,0,0:0:0:0:
433,54,23102,2,0,P|471:48|513:65,1,75,10|0,0:0|0:0,0:0:0:0:
499,188,23423,6,0,P|461:194|419:177,1,75,4|0,0:0|0:0,0:0:0:0:
381,118,23744,2,0,P|343:113|297:127,1,75,10|0,0:0|0:0,0:0:0:0:
247,178,24065,1,0,0:0:0:0:
188,119,24225,1,0,0:0:0:0:
117,163,24386,2,0,P|113:222|111:268,1,75,10|0,0:0|0:0,0:0:0:0:
37,274,24707,6,0,P|32:236|28:199,1,75
110,322,25027,2,0,P|143:310|191:311,1,75,10|0,0:0|0:0,0:0:0:0:
296,252,25348,2,0,P|256:251|216:230,1,75,10|0,0:0|0:0,0:0:0:0:
147,116,25669,2,0,L|154:201,1,75,10|0,0:0|0:0,0:0:0:0:
225,87,25990,6,0,P|228:51|233:4,1,63.7500012159348,4|0,0:0|0:0,0:0:0:0:
148,33,26311,2,0,P|114:24|70:21,1,63.7500012159348,2|0,0:0|0:0,0:0:0:0:
11,58,26632,2,0,B|-9:92|-9:92|7:199,1,127.50000243187,0|2,0:0|0:0,0:0:0:0:
77,217,27113,6,0,P|106:213|157:206,1,63.7500012159348
209,163,27434,1,0,0:0:0:0:
272,215,27594,2,0,P|267:253|264:288,1,63.7500012159348,2|0,0:0|0:0,0:0:0:0:
319,340,27915,2,0,P|352:337|389:334,1,63.7500012159348,2|0,0:0|0:0,0:0:0:0:
424,263,28236,2,0,P|391:258|354:250,1,63.7500012159348,2|0,0:0|0:0,0:0:0:0:
335,172,28557,6,0,P|328:136|327:100,1,63.7500012159348
251,74,28878,2,0,P|248:105|243:137,1,63.7500012159348,2|0,0:0|0:0,0:0:0:0:
177,188,29199,2,0,P|129:165|46:175,1,127.50000243187,0|2,0:0|0:0,0:0:0:0:
14,243,29680,6,0,P|11:274|7:311,1,63.7500012159348
98,243,30001,1,0,0:0:0:0:
98,243,30161,2,0,P|103:285|108:333,1,63.7500012159348,2|4,0:0|0:3,0:0:0:0:
188,314,30482,2,0,P|194:276|201:233,1,63.7500012159348,8|0,0:0|0:0,0:0:0:0:
139,379,30803,1,8,0:0:0:0:
139,379,31124,6,0,L|64:372,1,75,4|0,0:0|0:0,0:0:0:0:
16,305,31444,2,0,P|5:270|15:225,1,75,10|0,0:0|0:0,0:0:0:0:
69,173,31765,1,0,0:0:0:0:
141,213,31926,1,0,0:0:0:0:
205,162,32086,1,10,0:0:0:0:
272,210,32247,6,0,P|308:215|347:199,1,75
412,156,32567,1,0,0:0:0:0:
412,156,32728,2,0,P|418:201|424:241,1,75,10|0,0:0|0:0,0:0:0:0:
463,301,33049,1,2,0:0:0:0:
508,232,33209,1,0,0:0:0:0:
463,301,33370,2,0,P|426:313|372:296,1,75,10|0,0:0|0:0,0:0:0:0:
312,207,33690,6,0,P|275:201|240:213,1,75,4|0,0:0|0:0,0:0:0:0:
180,271,34011,2,0,P|143:276|108:264,1,75,10|0,0:0|0:0,0:0:0:0:
56,199,34332,1,0,0:0:0:0:
109,135,34493,1,0,0:0:0:0:
61,67,34653,2,0,P|95:54|135:55,1,75,10|0,0:0|0:0,0:0:0:0:
189,115,34974,6,0,P|226:115|261:102,1,75
358,18,35295,2,0,L|352:57|344:109,1,75,10|0,0:0|0:0,0:0:0:0:
322,234,35616,2,0,P|306:200|317:142,1,75,10|0,0:0|0:0,0:0:0:0:
456,177,35936,2,0,P|422:180|374:185,1,75,10|0,0:0|0:0,0:0:0:0:
337,308,36257,6,0,P|398:314|466:322,1,120,4|0,0:0|0:0,0:0:0:0:
493,251,36739,1,0,0:0:0:0:
493,251,36899,2,0,P|511:198|497:133,1,120,8|0,0:0|0:0,0:0:0:0:
436,89,37380,1,8,0:0:0:0:
383,147,37541,5,0,0:0:0:0:
436,89,37701,1,8,0:0:0:0:
393,22,37862,2,0,P|365:13|313:13,1,60
289,74,38182,2,0,P|254:73|208:87,1,60,8|0,0:0|0:0,0:0:0:0:
170,26,38503,2,0,P|141:17|89:16,1,60
44,54,38824,6,0,P|12:111|41:158,1,120,4|0,0:0|0:0,0:0:0:0:
61,228,39305,1,0,0:0:0:0:
61,228,39466,2,0,P|116:221|196:212,1,120,8|0,0:0|0:0,0:0:0:0:
245,170,39947,1,8,0:0:0:0:
185,119,40108,5,0,0:0:0:0:
245,170,40268,1,8,0:0:0:0:
297,112,40428,2,0,P|325:104|359:106,1,60
435,194,40749,2,0,P|403:194|354:176,1,60,12|0,0:0|0:0,0:0:0:0:
306,223,41070,2,0,P|309:262|314:307,1,60
383,378,41391,6,0,P|395:346|383:294,1,75,4|0,0:0|0:0,0:0:0:0:
311,282,41712,2,0,P|272:286|228:292,1,75
168,338,42033,1,0,0:0:0:0:
168,338,42193,1,0,0:0:0:0:
98,292,42354,2,0,P|87:259|94:214,1,75
160,174,42674,6,0,P|171:138|162:94,1,75
120,32,42995,2,0,L|33:41,1,75
2,110,43316,1,0,0:0:0:0:
2,110,43477,1,0,0:0:0:0:
61,166,43637,1,2,0:0:0:0:
61,166,43797,1,2,0:0:0:0:
0,278,43958,6,0,P|48:271|102:262,1,75,4|8,0:0|0:0,0:0:0:0:
146,226,44279,1,8,0:0:0:0:
218,264,44439,2,0,P|259:270|317:278,1,75,8|8,0:0|0:0,0:0:0:0:
351,217,44760,5,8,0:0:0:0:
402,308,44920,1,8,0:0:0:0:
482,241,45081,1,8,0:0:0:0:
402,308,45241,5,4,0:0:0:0:
402,308,45562,2,0,L|496:319,1,75,8|0,0:0|0:0,0:0:0:0:
363,229,45883,6,0,P|350:194|365:143,1,75,4|0,0:0|0:0,0:0:0:0:
432,57,46204,2,0,P|441:97|429:137,1,75,4|0,0:0|0:0,0:0:0:0:
317,48,46525,6,0,P|278:44|221:40,1,75,4|0,0:0|0:0,0:0:0:0:
165,88,46846,1,8,0:0:0:0:
165,88,46926,1,0,0:0:0:0:
165,88,47006,1,0,0:0:0:0:
246,126,47166,2,0,P|251:174|254:211,1,75
185,260,47487,1,8,0:0:0:0:
314,305,47648,6,0,B|278:300|278:300|232:322,1,75,4|0,0:0|0:0,0:0:0:0:
164,361,47969,1,0,0:0:0:0:
86,316,48129,2,0,L|79:272,2,37.5,8|0|0,0:0|0:0|0:0,0:0:0:0:
164,361,48450,2,0,L|174:266,1,75
131,205,48771,1,8,0:0:0:0:
248,269,48931,6,0,B|286:272|286:272|318:256,1,75,4|0,0:0|0:0,0:0:0:0:
389,198,49252,1,0,0:0:0:0:
456,256,49412,2,0,L|461:304,2,37.5,8|0|0,0:0|0:0|0:0,0:0:0:0:
389,198,49733,2,0,P|392:162|396:108,1,75
341,50,50054,1,8,0:0:0:0:
275,168,50215,6,0,B|224:196|224:196|110:161,1,150,4|0,0:0|0:0,0:0:0:0:
49,98,50696,2,0,P|54:140|58:179,1,75,8|0,0:0|0:0,0:0:0:0:
3,271,51017,2,0,P|57:261|90:255,1,75,8|0,0:0|0:0,0:0:0:0:
182,339,51338,2,0,P|140:334|93:329,1,75,8|0,0:0|0:0,0:0:0:0:
234,266,51658,6,0,P|271:262|323:258,1,75,4|0,0:0|0:0,0:0:0:0:
373,321,51979,2,0,P|415:326|461:331,1,75,8|0,0:0|0:0,0:0:0:0:
504,259,52300,2,0,P|511:224|503:187,1,75
444,117,52621,1,8,0:0:0:0:
381,180,52781,6,0,P|341:184|297:189,1,75,4|0,0:0|0:0,0:0:0:0:
237,129,53102,1,0,0:0:0:0:
180,199,53263,2,0,L|186:242,2,37.5,8|0|0,0:0|0:0|0:0,0:0:0:0:
102,151,53584,2,0,L|92:241,1,75
34,293,53904,1,8,0:0:0:0:
116,358,54065,6,0,P|152:363|191:350,1,75,4|0,0:0|0:0,0:0:0:0:
256,291,54386,1,0,0:0:0:0:
331,339,54546,1,8,0:0:0:0:
331,339,54626,1,0,0:0:0:0:
331,339,54707,1,0,0:0:0:0:
409,295,54867,2,0,P|420:257|404:210,1,75
335,176,55188,1,8,0:0:0:0:
457,118,55348,6,0,P|396:110|301:99,1,150,4|0,0:0|0:0,0:0:0:0:
224,200,55830,2,0,P|263:195|312:189,1,75,8|0,0:0|0:0,0:0:0:0:
183,124,56150,2,0,P|144:119|95:113,1,75,8|0,0:0|0:0,0:0:0:0:
12,210,56471,2,0,P|51:205|100:199,1,75,8|0,0:0|0:0,0:0:0:0:
155,319,56792,6,0,P|165:283|156:238,1,75,4|0,0:0|0:0,0:0:0:0:
89,189,57113,2,0,P|79:151|88:111,1,75,8|0,0:0|0:0,0:0:0:0:
139,44,57434,2,0,P|176:47|219:51,1,75
273,117,57755,1,8,0:0:0:0:
334,51,57915,6,0,P|371:40|423:49,1,75
474,102,58236,1,0,0:0:0:0:
423,176,58396,2,0,P|386:187|334:178,1,75,8|0,0:0|0:0,0:0:0:0:
274,134,58717,1,8,0:0:0:0:
274,134,59038,2,0,P|278:177|283:231,1,75,2|2,0:0|0:0,0:0:0:0:
203,300,59359,6,0,P|240:296|277:294,1,75,6|0,0:0|0:0,0:0:0:0:
359,255,59680,2,0,P|396:260|455:266,1,75,8|0,0:0|0:0,0:0:0:0:
502,322,60001,2,0,P|516:288|516:246,1,75
469,174,60321,1,8,0:0:0:0:
502,90,60482,6,0,P|454:95|394:101,1,75
345,59,60803,1,0,0:0:0:0:
345,59,60963,2,0,P|303:53|245:44,1,75,8|0,0:0|0:0,0:0:0:0:
201,106,61284,2,0,P|119:111|39:117,1,150,4|4,0:0|0:0,0:0:0:0:
51,116,61926,6,0,P|40:152|56:202,1,75,4|0,0:0|0:0,0:0:0:0:
94,264,62247,2,0,P|133:259|173:257,1,75,8|0,0:0|0:0,0:0:0:0:
239,202,62567,2,0,P|282:207|326:214,1,75,8|0,0:0|0:0,0:0:0:0:
373,279,62888,2,0,P|412:276|462:272,1,75,8|0,0:0|0:0,0:0:0:0:
497,198,63209,6,0,L|502:159,3,37.5,8|8|8|8,0:0|0:0|0:0|0:0,0:0:0:0:
470,128,63530,2,0,L|466:89,3,37.5
480,47,63851,2,0,L|399:52,1,75,2|2,0:0|0:0,0:0:0:0:
315,57,64172,1,2,0:0:0:0:
363,230,64493,5,4,0:0:0:0:
363,230,65134,2,0,L|370:147,2,75,8|8|8,0:0|0:0|0:0,0:0:0:0:
355,320,65616,1,8,0:0:0:0:
355,320,66418,6,0,P|320:315|266:306,1,75,4|0,0:0|0:0,0:0:0:0:
211,230,66739,2,0,P|253:225|297:218,1,75,4|0,0:0|0:0,0:0:0:0:
147,279,67059,6,0,P|133:245|138:195,1,75,4|0,0:0|0:0,0:0:0:0:
191,147,67380,2,0,P|201:111|192:62,1,75,10|0,0:0|0:0,0:0:0:0:
134,20,67701,1,0,0:0:0:0:
134,20,67862,1,0,0:0:0:0:
62,59,68022,2,0,P|51:94|60:143,1,75,10|0,0:0|0:0,0:0:0:0:
72,212,68343,6,0,P|113:208|160:205,1,75
211,154,68664,2,0,P|251:160|297:170,1,75,10|0,0:0|0:0,0:0:0:0:
353,212,68985,1,2,0:0:0:0:
421,165,69145,1,0,0:0:0:0:
487,213,69305,2,0,P|497:251|489:285,1,75,10|0,0:0|0:0,0:0:0:0:
432,345,69626,6,0,P|391:347|346:351,1,75
304,285,69947,2,0,P|259:281|217:275,1,75,10|0,0:0|0:0,0:0:0:0:
162,325,70268,1,0,0:0:0:0:
162,325,70428,1,0,0:0:0:0:
111,259,70589,1,10,0:0:0:0:
41,303,70749,6,0,P|31:270|35:217,1,75
91,171,71070,1,0,0:0:0:0:
19,106,71231,2,0,P|57:100|107:92,1,75,8|0,0:0|0:0,0:0:0:0:
178,48,71551,1,6,0:0:0:0:
167,130,71712,1,0,0:0:0:0:
254,84,71872,2,0,L|245:173,1,75,6|0,0:0|0:0,0:0:0:0:
197,259,72193,6,0,P|248:254|293:248,1,75,4|0,0:0|0:0,0:0:0:0:
328,191,72514,2,0,P|369:195|408:198,1,75,10|0,0:0|0:0,0:0:0:0:
444,269,72835,1,0,0:0:0:0:
444,269,72995,1,0,0:0:0:0:
494,203,73156,2,0,P|503:167|486:111,1,75,10|0,0:0|0:0,0:0:0:0:
426,85,73477,6,0,P|389:90|344:94,1,75
293,152,73797,2,0,P|255:147|211:139,1,75,10|0,0:0|0:0,0:0:0:0:
157,85,74118,1,2,0:0:0:0:
91,136,74279,1,0,0:0:0:0:
15,103,74439,2,0,P|8:139|26:190,1,75,10|0,0:0|0:0,0:0:0:0:
73,236,74760,6,0,P|114:232|163:227,1,75
201,165,75081,2,0,P|240:171|278:176,1,75,10|0,0:0|0:0,0:0:0:0:
334,233,75402,1,0,0:0:0:0:
334,233,75562,1,0,0:0:0:0:
394,177,75723,1,10,0:0:0:0:
462,223,75883,6,0,P|473:259|462:302,1,75
405,351,76204,1,0,0:0:0:0:
405,351,76364,2,0,L|319:340,1,75,10|0,0:0|0:0,0:0:0:0:
276,261,76685,1,6,0:0:0:0:
203,301,76846,1,0,0:0:0:0:
142,245,77006,2,0,P|103:238|51:260,1,75,6|0,0:0|0:0,0:0:0:0:
27,149,77327,6,0,P|62:155|110:161,1,75,4|0,0:0|0:0,0:0:0:0:
171,116,77648,2,0,P|181:82|179:22,1,75,10|0,0:0|0:0,0:0:0:0:
261,18,77969,1,8,0:0:0:0:
261,18,78129,1,0,0:0:0:0:
338,44,78289,2,0,P|339:81|349:117,1,75,10|0,0:0|0:0,0:0:0:0:
413,169,78610,6,0,L|502:160,1,75,8|0,0:0|0:0,0:0:0:0:
349,223,78931,2,0,L|260:214,1,75,10|0,0:0|0:0,0:0:0:0:
207,126,79252,1,10,0:0:0:0:
207,126,79412,1,0,0:0:0:0:
132,209,79573,2,0,P|120:177|133:127,1,75,10|0,0:0|0:0,0:0:0:0:
203,248,79894,6,0,P|215:280|202:330,1,75,8|0,0:0|0:0,0:0:0:0:
140,366,80215,2,0,P|100:361|58:358,1,75,10|0,0:0|0:0,0:0:0:0:
13,294,80535,1,8,0:0:0:0:
13,294,80696,1,0,0:0:0:0:
70,235,80856,2,0,P|78:203|65:150,1,75,10|0,0:0|0:0,0:0:0:0:
22,94,81177,6,0,P|60:89|114:82,1,75,8|0,0:0|0:0,0:0:0:0:
220,155,81498,2,0,P|182:150|145:145,1,75,10|0,0:0|0:0,0:0:0:0:
280,81,81819,1,10,0:0:0:0:
280,81,81979,1,0,0:0:0:0:
339,194,82140,2,0,P|343:155|350:111,1,75,2|0,0:0|0:0,0:0:0:0:
415,24,82461,6,0,P|422:85|430:167,1,127.50000243187,4|2,0:0|0:0,0:0:0:0:
415,232,82942,1,0,0:0:0:0:
415,232,83102,2,0,P|449:227|503:223,1,63.7500012159348,0|0,3:0|0:0,0:0:0:0:
501,304,83423,2,0,P|467:309|413:313,1,63.7500012159348,2|0,0:0|0:0,0:0:0:0:
357,291,83744,6,0,P|323:286|288:282,1,63.7500012159348,0|0,3:0|0:0,0:0:0:0:
221,323,84065,2,0,P|185:325|149:328,1,63.7500012159348,2|0,0:0|0:0,0:0:0:0:
90,277,84386,2,0,P|81:250|88:208,1,63.7500012159348,2|0,0:0|0:0,0:0:0:0:
157,174,84707,2,0,P|161:142|151:112,1,63.7500012159348,2|0,0:0|0:0,0:0:0:0:
78,74,85027,6,0,P|155:64|222:55,1,127.50000243187,0|2,3:0|0:0,0:0:0:0:
284,33,85509,1,0,0:0:0:0:
284,33,85669,2,0,P|280:72|277:110,1,63.7500012159348,0|0,3:0|0:0,0:0:0:0:
243,172,85990,2,0,P|247:211|250:249,1,63.7500012159348,2|0,0:0|0:0,0:0:0:0:
311,290,86311,6,0,L|401:280,1,63.7500012159348,8|8,0:0|0:0,0:0:0:0:
447,220,86632,1,8,0:0:0:0:
447,220,86792,1,8,0:0:0:0:
363,171,86953,1,8,0:0:0:0:
363,171,87113,1,8,0:0:0:0:
458,107,87273,6,0,P|403:100|261:86,1,187.5,4|0,0:0|0:0,0:0:0:0:
