osu file format v14

[General]
AudioFilename: Song_Blade Dance.mp3
AudioLeadIn: 0
PreviewTime: 46525
Countdown: 0
SampleSet: Soft
StackLeniency: 0.5
Mode: 0
LetterboxInBreaks: 0
WidescreenStoryboard: 1

[Editor]
Bookmarks: 322,2567,2888,4011,4172,5295,5455,10428,10589,14279,14439,15562,15723,20054,20215,20535,20856,23263,23423,25830,25990,30321,30482,30803,31124,33530,33690,36097,36257,39947,40108,41231,41391,42514,42674,43477,43637,43797,43958,44600,44760,45081,45241,46364,46525,50054,50215,51498,51658,55188,55348,56632,56792,59199,59359,61846,61926,64412,64493,66899,67059,77166,77327,82300,82461,86150,86311,88076
DistanceSpacing: 0.6
BeatDivisor: 4
GridSize: 32
TimelineZoom: 1

[Metadata]
Title:Blade Dance
TitleUnicode:精霊剣舞祭
Artist:Ni-Sokkususu
ArtistUnicode:にーそっくすす
Creator:Karia
Version:Black or White
Source:精霊使いの剣舞
Tags:Seirei Tsukai no Blade Dance Ending TV Size
BeatmapID:1311088
BeatmapSetID:503089

[Difficulty]
HPDrainRate:6
CircleSize:4
OverallDifficulty:8.8
ApproachRate:9.3
SliderMultiplier:1.88
SliderTickRate:1

[Events]
//Background and Video events
0,0,"BG.jpg",0,0
Video,0,"VIDEO.avi"
//Break Periods
//Storyboard Layer 0 (Background)
//Storyboard Layer 1 (Fail)
//Storyboard Layer 2 (Pass)
//Storyboard Layer 3 (Foreground)
//Storyboard Sound Samples

[TimingPoints]
322,320.855614973262,4,2,1,50,1,0
322,-117.647058823529,4,2,1,50,0,0
4813,-83.3333333333333,4,2,1,50,0,0
5455,-100,4,2,1,65,0,0
15723,-117.647058823529,4,2,1,60,0,0
20856,-100,4,2,1,65,0,0
25990,-117.647058823529,4,2,1,60,0,0
31124,-100,4,2,1,65,0,0
36257,-142.857142857143,4,2,1,60,0,0
41391,-100,4,2,1,60,0,0
42674,-100,4,2,1,65,0,0
43958,-100,4,2,1,70,0,0
45482,-100,4,2,1,5,0,0
45562,-100,4,2,1,70,0,0
45883,-76.9230769230769,4,2,1,70,0,0
46525,-90.9090909090909,4,2,1,75,0,1
50455,-90.9090909090909,4,2,1,5,0,1
50535,-90.9090909090909,4,2,1,75,0,1
51097,-90.9090909090909,4,2,1,5,0,1
51177,-90.9090909090909,4,2,1,75,0,1
51418,-90.9090909090909,4,2,1,5,0,1
51498,-90.9090909090909,4,2,1,75,0,1
55589,-90.9090909090909,4,2,1,5,0,1
55669,-90.9090909090909,4,2,1,75,0,1
56231,-90.9090909090909,4,2,1,5,0,1
56311,-90.9090909090909,4,2,1,75,0,1
56551,-90.9090909090909,4,2,1,5,0,1
56632,-90.9090909090909,4,2,1,75,0,1
61846,-90.9090909090909,4,2,1,5,0,1
61926,-90.9090909090909,4,2,1,75,0,1
64493,-166.666666666667,4,2,1,75,0,1
64573,-166.666666666667,4,2,1,5,0,1
65134,-166.666666666667,4,2,1,75,0,1
65616,-90.9090909090909,4,2,1,75,0,1
65936,-90.9090909090909,4,2,1,30,0,0
66418,-90.9090909090909,4,2,1,65,0,0
67059,-100,4,2,1,70,0,1
67220,-100,4,2,1,70,0,0
77327,-100,4,2,1,70,0,1
82461,-133.333333333333,4,2,1,65,0,0
86311,-133.333333333333,4,2,1,70,0,0
87273,-200,4,2,1,70,0,0
87354,-200,4,2,1,5,0,0

[Colours]
Combo1 : 222,190,190
Combo2 : 255,98,176
Combo3 : 255,255,102
Combo4 : 230,255,255

[HitObjects]
37,74,322,5,0,3:0:0:0:
106,200,482,1,0,0:0:0:0:
142,45,642,1,2,0:0:0:0:
106,200,803,1,0,0:0:0:0:
270,135,963,2,0,P|235:120|178:138,1,79.9000015239716,0|0,3:0|0:0,0:0:0:0:
74,276,1284,2,0,P|112:282|149:267,1,79.9000015239716,2|0,0:0|0:0,0:0:0:0:
270,135,1605,5,0,3:0:0:0:
245,276,1765,1,0,0:0:0:0:
397,220,1926,2,0,L|409:306,1,79.9000015239716,2|0,0:0|0:0,0:0:0:0:
352,149,2247,2,0,L|363:69,1,79.9000015239716,2|0,0:0|0:0,0:0:0:0:
289,211,2567,1,2,0:0:0:0:
289,211,2888,5,0,3:0:0:0:
221,83,3049,1,0,0:0:0:0:
176,237,3209,1,2,0:0:0:0:
221,83,3370,1,0,0:0:0:0:
57,143,3530,2,0,P|97:146|145:150,1,79.9000015239716,0|0,3:0|0:0,0:0:0:0:
240,311,3851,2,0,P|200:314|152:318,1,79.9000015239716,2|0,0:0|0:0,0:0:0:0:
289,211,4172,5,0,3:0:0:0:
330,348,4332,1,0,0:0:0:0:
195,210,4493,5,2,0:0:0:0:
358,272,4653,1,0,0:0:0:0:
140,342,4813,6,0,B|107:295|107:295|128:230,1,112.799996557617,2|0,0:0|0:0,0:0:0:0:
230,44,5134,2,0,B|263:91|263:91|242:156,1,112.799996557617,2|0,0:0|0:0,0:0:0:0:
33,214,5455,5,4,0:0:0:0:
206,289,5616,1,0,0:0:0:0:
97,118,5776,2,0,B|139:93|139:93|200:106,1,94,2|0,0:0|0:0,0:0:0:0:
300,262,6097,1,8,0:0:0:0:
351,82,6257,1,0,0:0:0:0:
503,222,6418,2,0,B|461:241|461:241|403:218,1,94,2|0,0:0|0:0,0:0:0:0:
260,121,6739,5,0,0:0:0:0:
448,64,6899,1,8,0:0:0:0:
301,233,7059,5,2,0:0:0:0:
279,17,7220,1,0,0:0:0:0:
201,230,7380,5,10,0:0:0:0:
183,46,7541,1,0,0:0:0:0:
106,256,7701,5,2,0:0:0:0:
84,40,7862,1,0,0:0:0:0:
304,119,8022,5,4,0:0:0:0:
128,183,8182,1,0,0:0:0:0:
322,249,8343,2,0,B|336:292|336:292|314:335,1,94,2|0,0:0|0:0,0:0:0:0:
223,151,8664,1,8,0:0:0:0:
156,325,8824,1,0,0:0:0:0:
25,165,8985,2,0,B|7:209|7:209|29:260,1,94,2|0,0:0|0:0,0:0:0:0:
200,309,9305,5,0,0:0:0:0:
3,347,9466,1,8,0:0:0:0:
110,147,9626,5,2,0:0:0:0:
86,362,9787,1,0,0:0:0:0:
211,175,9947,5,10,0:0:0:0:
190,359,10108,1,0,0:0:0:0:
306,164,10268,5,2,0:0:0:0:
283,379,10429,1,0,0:0:0:0:
73,278,10589,5,4,0:0:0:0:
256,238,10749,1,0,0:0:0:0:
51,270,10910,2,0,B|29:230|29:230|43:183,1,94,2|0,0:0|0:0,0:0:0:0:
194,58,11231,1,8,0:0:0:0:
11,98,11391,1,0,0:0:0:0:
216,66,11551,2,0,B|238:106|238:106|224:153,1,94,2|0,0:0|0:0,0:0:0:0:
94,288,11872,5,0,0:0:0:0:
290,318,12033,1,8,0:0:0:0:
100,197,12193,5,2,0:0:0:0:
313,231,12354,1,0,0:0:0:0:
169,57,12514,5,10,0:0:0:0:
190,241,12674,1,0,0:0:0:0:
387,128,12835,5,2,0:0:0:0:
173,161,12995,1,0,0:0:0:0:
373,285,13156,5,4,0:0:0:0:
189,260,13316,1,0,0:0:0:0:
397,281,13477,2,0,B|421:242|421:242|409:194,1,94,2|0,0:0|0:0,0:0:0:0:
231,114,13797,1,8,0:0:0:0:
415,90,13958,1,0,0:0:0:0:
208,124,14118,2,0,B|194:167|194:167|218:210,1,94,2|0,0:0|0:0,0:0:0:0:
337,53,14439,5,0,0:0:0:0:
311,243,14600,1,8,0:0:0:0:
195,52,14760,5,0,0:0:0:0:
223,265,14920,1,0,0:0:0:0:
38,117,15081,5,6,0:0:0:0:
274,176,15241,1,0,0:0:0:0:
38,298,15402,5,6,0:0:0:0:
169,50,15562,1,0,0:0:0:0:
386,246,15723,6,0,P|347:255|297:232,1,79.9000015239716,4|0,0:0|0:0,0:0:0:0:
224,100,16043,2,0,L|213:200,1,79.9000015239716,2|0,0:0|0:0,0:0:0:0:
135,328,16364,2,0,L|121:242,1,79.9000015239716
97,82,16685,1,2,0:0:0:0:
122,249,16846,6,0,P|159:263|214:240,1,79.9000015239716
308,138,17166,1,0,0:0:0:0:
268,300,17327,1,2,0:0:0:0:
203,163,17487,1,0,0:0:0:0:
349,248,17648,2,0,P|385:255|426:240,1,79.9000015239716,2|0,0:0|0:0,0:0:0:0:
338,68,17969,2,0,P|301:60|260:75,1,79.9000015239716,2|0,0:0|0:0,0:0:0:0:
106,15,18289,6,0,L|113:96,1,79.9000015239716
237,206,18610,2,0,P|200:192|135:211,1,79.9000015239716,2|0,0:0|0:0,0:0:0:0:
8,272,18931,2,0,P|47:279|85:268,1,79.9000015239716
122,106,19252,1,2,0:0:0:0:
85,268,19412,6,0,L|72:186,1,79.9000015239716
214,113,19733,1,0,0:0:0:0:
175,275,19894,1,2,0:0:0:0:
70,168,20054,1,0,0:0:0:0:
270,192,20215,5,4,0:3:0:0:
71,283,20375,1,0,0:0:0:0:
270,192,20535,1,8,0:0:0:0:
270,192,20856,5,4,0:0:0:0:
243,368,21017,1,0,0:0:0:0:
421,309,21177,2,0,B|380:287|380:287|318:302,1,94,10|0,0:0|0:0,0:0:0:0:
188,180,21498,1,0,0:0:0:0:
231,353,21658,1,0,0:0:0:0:
349,206,21819,1,10,0:0:0:0:
165,293,21979,6,0,P|117:288|59:282,1,94
251,232,22300,1,0,0:0:0:0:
97,108,22461,2,0,P|106:165|114:224,1,94,10|0,0:0|0:0,0:0:0:0:
286,91,22781,5,2,0:0:0:0:
263,270,22942,1,0,0:0:0:0:
415,121,23102,5,10,0:0:0:0:
339,304,23263,1,0,0:0:0:0:
181,156,23423,5,4,0:0:0:0:
349,220,23584,1,0,0:0:0:0:
194,322,23744,2,0,B|174:281|174:281|193:223,1,94,10|0,0:0|0:0,0:0:0:0:
37,123,24065,1,0,0:0:0:0:
81,297,24225,1,0,0:0:0:0:
208,156,24386,2,0,B|168:132|168:132|101:150,1,94,10|0,0:0|0:0,0:0:0:0:
263,270,24707,5,0,0:0:0:0:
312,86,24867,1,0,0:0:0:0:
478,224,25027,5,10,0:0:0:0:
272,257,25188,1,0,0:0:0:0:
427,121,25348,5,10,0:0:0:0:
272,257,25509,1,0,0:0:0:0:
465,328,25669,5,10,0:0:0:0:
272,257,25830,1,0,0:0:0:0:
427,121,25990,6,0,P|445:160|426:215,1,79.9000015239716,4|0,0:0|0:0,0:0:0:0:
271,182,26311,2,0,L|359:169,1,79.9000015239716,2|0,0:0|0:0,0:0:0:0:
191,224,26632,2,0,L|92:206,1,79.9000015239716
44,57,26953,1,2,0:0:0:0:
112,209,27113,6,0,P|126:173|108:122,1,79.9000015239716
29,268,27434,1,0,0:0:0:0:
191,224,27594,1,2,0:0:0:0:
50,164,27755,1,0,0:0:0:0:
150,297,27915,2,0,P|188:309|229:298,1,79.9000015239716,2|0,0:0|0:0,0:0:0:0:
360,163,28236,2,0,P|322:151|281:162,1,79.9000015239716,2|0,0:0|0:0,0:0:0:0:
421,258,28557,6,0,P|463:251|509:246,1,79.9000015239716
332,241,28878,2,0,P|320:280|344:328,1,79.9000015239716,2|0,0:0|0:0,0:0:0:0:
434,181,29199,2,0,P|446:142|422:94,1,79.9000015239716
276,52,29519,1,2,0:0:0:0:
433,106,29680,6,0,L|338:119,1,79.9000015239716
239,228,30001,1,0,0:0:0:0:
187,68,30161,1,2,0:0:0:0:
315,190,30321,1,4,0:3:0:0:
108,133,30482,5,8,0:0:0:0:
322,49,30642,1,0,0:0:0:0:
108,133,30803,1,8,0:0:0:0:
108,133,31124,5,4,0:0:0:0:
276,193,31284,1,0,0:0:0:0:
116,288,31444,2,0,B|162:304|162:304|209:283,1,94,10|0,0:0|0:0,0:0:0:0:
271,110,31765,1,0,0:0:0:0:
351,270,31926,1,0,0:0:0:0:
186,182,32086,1,10,0:0:0:0:
373,96,32247,6,0,P|366:148|357:209,1,94
296,13,32567,1,0,0:0:0:0:
482,74,32728,2,0,P|435:80|383:87,1,94,10|0,0:0|0:0,0:0:0:0:
192,20,33049,5,2,0:0:0:0:
230,194,33209,1,0,0:0:0:0:
100,20,33370,5,10,0:0:0:0:
72,215,33530,1,0,0:0:0:0:
251,90,33690,5,4,0:0:0:0:
78,130,33851,1,0,0:0:0:0:
266,102,34011,2,0,B|289:146|289:146|266:200,1,94,10|0,0:0|0:0,0:0:0:0:
141,325,34332,1,0,0:0:0:0:
193,155,34493,1,0,0:0:0:0:
309,301,34653,2,0,B|356:315|356:315|398:290,1,94,10|0,0:0|0:0,0:0:0:0:
512,144,34974,5,0,0:0:0:0:
335,83,35134,1,0,0:0:0:0:
464,258,35295,5,10,0:0:0:0:
419,55,35455,1,0,0:0:0:0:
376,266,35616,5,10,0:0:0:0:
335,83,35776,1,0,0:0:0:0:
295,295,35936,5,10,0:0:0:0:
250,92,36096,1,0,0:0:0:0:
55,268,36257,6,0,P|108:232|178:262,1,131.599995983887,4|0,0:0|0:0,0:0:0:0:
168,250,36739,1,0,0:0:0:0:
250,92,36899,2,0,P|246:144|238:237,1,131.599995983887,8|0,0:0|0:0,0:0:0:0:
179,48,37380,1,8,0:0:0:0:
332,116,37541,5,0,0:0:0:0:
158,171,37701,1,8,0:0:0:0:
332,116,37862,2,0,P|348:151|334:198,1,65.7999979919434
318,325,38182,2,0,P|302:290|316:243,1,65.7999979919434,8|0,0:0|0:0,0:0:0:0:
433,170,38503,2,0,P|449:205|435:252,1,65.7999979919434
239,223,38824,6,0,P|291:186|367:219,1,131.599995983887,4|0,0:0|0:0,0:0:0:0:
352,202,39305,1,0,0:0:0:0:
178,166,39466,2,0,P|188:231|199:298,1,131.599995983887,8|0,0:0|0:0,0:0:0:0:
252,119,39947,1,8,0:0:0:0:
96,182,40108,5,0,0:0:0:0:
278,215,40268,1,8,0:0:0:0:
175,64,40428,2,0,P|171:101|166:146,1,65.7999979919434
123,326,40749,2,0,L|119:293|115:260,1,65.7999979919434,12|0,0:0|0:0,0:0:0:0:
20,142,41070,2,0,P|16:179|11:224,1,65.7999979919434
198,295,41391,6,0,P|245:307|291:277,1,94,4|0,0:0|0:0,0:0:0:0:
403,190,41712,1,0,0:0:0:0:
258,136,41872,1,0,0:0:0:0:
357,261,42033,1,0,0:0:0:0:
410,106,42193,1,0,0:0:0:0:
278,215,42354,1,0,0:0:0:0:
447,254,42514,1,0,0:0:0:0:
344,64,42674,6,0,P|337:121|332:166,1,94
210,300,42995,1,0,0:0:0:0:
130,124,43156,1,0,0:0:0:0:
273,237,43316,1,0,0:0:0:0:
75,194,43477,1,0,0:0:0:0:
274,115,43637,5,2,0:0:0:0:
75,194,43797,1,2,0:0:0:0:
313,244,43958,5,4,0:0:0:0:
171,57,44118,1,8,0:0:0:0:
104,293,44279,1,8,0:0:0:0:
318,162,44439,1,8,0:0:0:0:
69,73,44600,1,8,0:0:0:0:
203,331,44760,5,8,0:0:0:0:
298,37,44920,1,8,0:0:0:0:
0,176,45081,1,8,0:0:0:0:
364,269,45241,6,0,P|406:217|363:129,1,141,4|0,0:0|0:0,0:0:0:0:
296,85,45562,1,8,0:0:0:0:
298,112,45642,1,0,0:0:0:0:
301,140,45723,1,0,0:0:0:0:
304,168,45803,1,0,0:0:0:0:
287,214,45883,6,0,B|230:237|230:237|170:201,1,122.199994406128,4|0,0:0|0:0,0:0:0:0:
19,39,46204,2,0,B|75:15|75:15|135:51,1,122.199994406128,4|0,0:0|0:0,0:0:0:0:
25,286,46525,6,0,P|1:242|23:183,1,103.400003155518,4|0,0:0|0:0,0:0:0:0:
190,85,46846,1,8,0:0:0:0:
187,125,46926,1,0,0:0:0:0:
183,165,47006,1,0,0:0:0:0:
177,205,47086,1,0,0:0:0:0:
175,246,47166,1,0,0:0:0:0:
73,101,47327,1,0,0:0:0:0:
264,222,47487,1,8,0:0:0:0:
48,363,47648,6,0,P|102:356|161:349,1,103.400003155518,4|0,0:0|0:0,0:0:0:0:
264,222,47969,1,0,0:0:0:0:
406,370,48129,1,8,0:0:0:0:
409,330,48209,1,0,0:0:0:0:
413,289,48289,1,0,0:0:0:0:
416,248,48370,1,0,0:0:0:0:
422,207,48450,1,0,0:0:0:0:
293,326,48610,1,0,0:0:0:0:
507,243,48771,1,8,0:0:0:0:
318,69,48931,6,0,P|297:117|326:174,1,103.400003155518,4|0,0:0|0:0,0:0:0:0:
411,305,49252,1,0,0:0:0:0:
209,266,49412,1,8,0:0:0:0:
249,260,49493,1,0,0:0:0:0:
290,254,49573,1,0,0:0:0:0:
330,247,49653,1,0,0:0:0:0:
371,240,49733,1,0,0:0:0:0:
221,144,49894,1,0,0:0:0:0:
306,356,50054,1,8,0:0:0:0:
57,260,50215,6,0,P|115:214|185:240,1,155.100004733277,4|0,0:0|0:0,0:0:0:0:
209,266,50535,1,0,0:0:0:0:
16,146,50696,2,0,P|-4:102|35:30,1,103.400003155518,8|0,0:0|0:0,0:0:0:0:
243,24,51017,6,0,L|233:89,1,51.7000015777588,8|0,0:0|0:0,0:0:0:0:
216,208,51177,1,0,0:0:0:0:
397,13,51338,6,0,L|402:80,1,51.7000015777588,8|0,0:0|0:0,0:0:0:0:
416,252,51498,1,0,0:0:0:0:
187,140,51658,6,0,P|231:116|301:150,1,103.400003155518,4|0,0:0|0:0,0:0:0:0:
118,217,51979,1,8,0:0:0:0:
115,186,52059,1,0,0:0:0:0:
113,156,52140,1,0,0:0:0:0:
110,126,52220,1,0,0:0:0:0:
107,96,52300,1,0,0:0:0:0:
213,222,52461,1,0,0:0:0:0:
1,268,52621,1,8,0:0:0:0:
226,368,52781,6,0,P|166:360|113:352,1,103.400003155518,4|0,0:0|0:0,0:0:0:0:
287,306,53102,1,0,0:0:0:0:
192,121,53263,1,8,0:0:0:0:
196,155,53343,1,0,0:0:0:0:
199,191,53423,1,0,0:0:0:0:
200,227,53503,1,0,0:0:0:0:
202,263,53584,1,0,0:0:0:0:
109,114,53744,1,0,0:0:0:0:
300,237,53904,1,8,0:0:0:0:
63,340,54065,6,0,P|113:334|165:328,1,103.400003155518,4|0,0:0|0:0,0:0:0:0:
350,367,54386,1,0,0:0:0:0:
281,143,54546,1,8,0:0:0:0:
281,183,54626,1,0,0:0:0:0:
283,224,54707,1,0,0:0:0:0:
285,265,54787,1,0,0:0:0:0:
287,306,54867,1,0,0:0:0:0:
373,138,55027,1,0,0:0:0:0:
164,253,55188,1,8,0:0:0:0:
421,322,55348,6,0,P|461:285|437:194,1,155.100004733277,4|0,0:0|0:0,0:0:0:0:
409,174,55669,1,0,0:0:0:0:
223,299,55830,2,0,P|276:305|352:316,1,103.400003155518,8|0,0:0|0:0,0:0:0:0:
159,111,56150,6,0,L|148:177,1,51.7000015777588,8|0,0:0|0:0,0:0:0:0:
119,347,56310,1,0,0:0:0:0:
0,140,56471,6,0,L|6:205,1,51.7000015777588,8|0,0:0|0:0,0:0:0:0:
17,325,56631,1,0,0:0:0:0:
242,222,56792,6,0,P|202:196|144:207,1,103.400003155518,4|0,0:0|0:0,0:0:0:0:
331,299,57113,2,0,P|390:293|446:287,1,103.400003155518,8|0,0:0|0:0,0:0:0:0:
239,364,57434,1,0,0:0:0:0:
318,174,57594,1,0,0:0:0:0:
239,364,57755,1,8,0:0:0:0:
71,207,57915,6,0,P|77:264|83:324,1,103.400003155518
280,244,58236,1,0,0:0:0:0:
109,110,58396,1,8,0:0:0:0:
190,337,58557,1,0,0:0:0:0:
273,94,58717,1,8,0:0:0:0:
273,94,59038,5,2,0:0:0:0:
194,245,59199,1,2,0:0:0:0:
42,64,59359,6,0,P|28:115|55:170,1,103.400003155518,6|0,0:0|0:0,0:0:0:0:
194,245,59680,1,8,0:0:0:0:
244,24,59840,1,0,0:0:0:0:
56,173,60001,1,0,0:0:0:0:
298,120,60161,1,0,0:0:0:0:
49,190,60321,1,8,0:0:0:0:
309,266,60482,6,0,P|254:258|190:249,1,103.400003155518
130,60,60803,1,0,0:0:0:0:
58,297,60963,1,8,0:0:0:0:
307,191,61124,1,0,0:0:0:0:
42,64,61284,1,4,0:0:0:0:
42,64,61605,2,0,P|3:119|63:195,1,155.100004733277,4|0,0:0|0:0,0:0:0:0:
178,136,61926,6,0,P|126:132|75:127,1,103.400003155518,4|0,0:0|0:0,0:0:0:0:
255,233,62247,2,0,P|203:228|152:223,1,103.400003155518,8|0,0:0|0:0,0:0:0:0:
364,98,62567,2,0,P|312:93|261:88,1,103.400003155518,8|0,0:0|0:0,0:0:0:0:
443,190,62888,2,0,P|391:185|340:180,1,103.400003155518,8|0,0:0|0:0,0:0:0:0:
161,354,63209,5,8,0:0:0:0:
125,315,63289,1,8,0:0:0:0:
124,263,63370,1,8,0:0:0:0:
152,223,63450,1,8,0:0:0:0:
181,191,63530,5,0,0:0:0:0:
209,159,63610,1,0,0:0:0:0:
210,118,63691,1,0,0:0:0:0:
188,86,63771,1,0,0:0:0:0:
145,64,63851,6,0,L|83:70,1,51.7000015777588,2|0,0:0|0:0,0:0:0:0:
209,159,64011,2,0,L|261:165,1,51.7000015777588,2|0,0:0|0:0,0:0:0:0:
364,59,64172,2,0,L|302:65,1,51.7000015777588,2|0,0:0|0:0,0:0:0:0:
451,211,64332,5,0,0:0:0:0:
451,211,64412,1,0,0:0:0:0:
451,211,64493,2,0,B|418:123|486:105|449:4,1,197.39999397583,4|0,0:0|0:0,0:0:0:0:
453,17,65134,5,8,0:0:0:0:
329,221,65295,1,8,0:0:0:0:
213,16,65455,1,8,0:0:0:0:
35,156,65616,2,0,P|134:150|249:142,1,206.800006311035,8|0,0:0|0:0,0:0:0:0:
241,142,66418,6,0,P|264:100|236:37,1,103.400003155518,4|0,0:0|0:0,0:0:0:0:
147,224,66739,2,0,P|131:269|170:326,1,103.400003155518,4|0,0:0|0:0,0:0:0:0:
356,364,67059,5,4,0:0:0:0:
413,186,67220,1,0,0:0:0:0:
356,364,67380,2,0,B|338:320|338:320|355:269,1,94,10|0,0:0|0:0,0:0:0:0:
501,182,67701,1,0,0:0:0:0:
323,125,67862,1,0,0:0:0:0:
501,182,68022,2,0,B|457:200|457:200|406:183,1,94,10|0,0:0|0:0,0:0:0:0:
245,65,68343,5,0,0:0:0:0:
274,249,68503,1,0,0:0:0:0:
87,191,68664,5,10,0:0:0:0:
290,147,68824,1,0,0:0:0:0:
112,83,68985,5,2,0:0:0:0:
290,147,69145,1,0,0:0:0:0:
141,290,69305,5,10,0:0:0:0:
290,147,69466,1,0,0:0:0:0:
437,303,69626,6,0,P|454:258|427:202,1,94
512,53,69947,2,0,P|467:59|408:67,1,94,10|0,0:0|0:0,0:0:0:0:
315,222,70268,1,0,0:0:0:0:
244,47,70428,1,0,0:0:0:0:
416,146,70589,1,10,0:0:0:0:
217,205,70749,6,0,P|200:248|225:298,1,94
290,147,71070,1,0,0:0:0:0:
100,227,71231,1,8,0:0:0:0:
253,303,71391,1,0,0:0:0:0:
127,117,71551,5,6,0:0:0:0:
144,315,71712,1,0,0:0:0:0:
42,105,71872,5,6,0:0:0:0:
62,341,72033,1,0,0:0:0:0:
238,201,72193,5,4,0:0:0:0:
48,225,72354,1,0,0:0:0:0:
238,201,72514,2,0,B|197:175|197:175|136:191,1,94,10|0,0:0|0:0,0:0:0:0:
311,77,72835,1,0,0:0:0:0:
335,267,72995,1,0,0:0:0:0:
311,77,73156,2,0,B|285:118|285:118|301:179,1,94,10|0,0:0|0:0,0:0:0:0:
487,247,73477,5,0,0:0:0:0:
311,311,73637,1,0,0:0:0:0:
428,152,73797,5,10,0:0:0:0:
391,356,73958,1,0,0:0:0:0:
334,178,74118,5,2,0:0:0:0:
391,356,74279,1,0,0:0:0:0:
512,190,74439,5,10,0:0:0:0:
391,356,74600,1,0,0:0:0:0:
213,237,74760,6,0,P|220:283|228:337,1,94
261,151,75081,2,0,P|225:128|158:145,1,94,10|0,0:0|0:0,0:0:0:0:
70,288,75402,1,0,0:0:0:0:
0,114,75562,1,0,0:0:0:0:
140,256,75723,1,10,0:0:0:0:
178,51,75883,6,0,L|170:97|162:143,1,94
21,222,76204,1,0,0:0:0:0:
216,285,76364,1,10,0:0:0:0:
66,366,76525,1,0,0:0:0:0:
206,189,76685,5,6,0:0:0:0:
286,372,76846,1,0,0:0:0:0:
310,140,77006,5,6,0:0:0:0:
211,351,77166,1,0,0:0:0:0:
459,288,77327,6,0,L|353:273,1,94,4|0,0:0|0:0,0:0:0:0:
161,172,77648,2,0,B|206:189|206:189|247:170,1,94,10|0,0:0|0:0,0:0:0:0:
413,41,77969,1,8,0:0:0:0:
247,170,78129,1,0,0:0:0:0:
82,16,78289,2,0,B|62:56|62:56|79:102,1,94,10|0,0:0|0:0,0:0:0:0:
235,265,78610,5,8,0:0:0:0:
311,73,78771,1,0,0:0:0:0:
108,175,78931,5,10,0:0:0:0:
324,239,79092,1,0,0:0:0:0:
150,71,79252,5,10,0:0:0:0:
177,317,79412,1,0,0:0:0:0:
387,152,79573,5,10,0:0:0:0:
128,202,79733,1,0,0:0:0:0:
388,313,79894,6,0,P|409:267|395:219,1,94,8|0,0:0|0:0,0:0:0:0:
288,29,80215,2,0,B|271:74|271:74|298:131,1,94,10|0,0:0|0:0,0:0:0:0:
483,195,80535,1,8,0:0:0:0:
287,271,80696,1,0,0:0:0:0:
500,344,80856,2,0,B|461:367|461:367|390:345,1,94,10|0,0:0|0:0,0:0:0:0:
245,205,81177,5,8,0:0:0:0:
430,136,81338,1,0,0:0:0:0:
302,322,81498,5,10,0:0:0:0:
330,100,81658,1,0,0:0:0:0:
512,267,81819,5,10,0:0:0:0:
270,230,81979,1,0,0:0:0:0:
477,61,82140,5,10,0:0:0:0:
376,302,82300,1,0,0:0:0:0:
166,86,82461,6,0,P|134:147|192:219,1,141.000005378723,4|2,0:0|0:0,0:0:0:0:
164,206,82942,1,0,0:0:0:0:
285,156,83102,2,0,L|205:145,1,70.5000026893617,0|0,3:0|0:0,0:0:0:0:
140,286,83423,2,0,L|211:279,1,70.5000026893617,2|0,0:0|0:0,0:0:0:0:
363,205,83744,5,0,3:0:0:0:
302,322,83904,1,0,0:0:0:0:
363,205,84065,2,0,L|374:286,1,70.5000026893617,2|0,0:0|0:0,0:0:0:0:
287,122,84386,2,0,L|277:191,1,70.5000026893617,2|0,0:0|0:0,0:0:0:0:
369,42,84707,2,0,L|380:123,1,70.5000026893617,2|0,0:0|0:0,0:0:0:0:
216,42,85027,6,0,P|159:17|92:58,1,141.000005378723,0|2,3:0|0:0,0:0:0:0:
94,53,85509,1,0,0:0:0:0:
154,164,85669,2,0,L|161:83,1,70.5000026893617,0|0,3:0|0:0,0:0:0:0:
13,38,85990,2,0,L|23:107,1,70.5000026893617,2|0,0:0|0:0,0:0:0:0:
101,258,86311,5,8,0:0:0:0:
248,150,86471,1,8,0:0:0:0:
37,182,86632,5,8,0:0:0:0:
238,243,86792,1,8,0:0:0:0:
45,98,86953,5,8,0:0:0:0:
175,299,87113,1,8,0:0:0:0:
346,100,87273,6,0,B|400:198|297:232|350:340,1,235,4|0,0:0|0:0,0:0:0:0:
