osu file format v13

[General]
AudioFilename: bladedanceed.mp3
AudioLeadIn: 2000
PreviewTime: 46525
Countdown: 0
SampleSet: Soft
StackLeniency: 0.2
Mode: 0
LetterboxInBreaks: 0
WidescreenStoryboard: 0

[Editor]
DistanceSpacing: 1
BeatDivisor: 4
GridSize: 4
TimelineZoom: 1

[Metadata]
Title:Blade Dance
TitleUnicode:精霊剣舞祭
Artist:Ni-Sokkususu
ArtistUnicode:にーそっくすす
Creator:CloudSplash16
Version:Very Hard
Source:精霊使いの剣舞
Tags:seirei tsukai no blade dance bladedance of elementalers anime ending tv size kneesocks knee socks kido ibuki yuuki kana ishigami shizuka oonishi saori kakuma ai
BeatmapID:475206
BeatmapSetID:200501

[Difficulty]
HPDrainRate:6
CircleSize:4
OverallDifficulty:6.5
ApproachRate:8.5
SliderMultiplier:1.7
SliderTickRate:1

[Events]
//Background and Video events
Video,140,"video.avi"
0,0,"bg.jpg",0,0
//Break Periods
//Storyboard Layer 0 (Background)
//Storyboard Layer 1 (Fail)
//Storyboard Layer 2 (Pass)
//Storyboard Layer 3 (Foreground)
//Storyboard Sound Samples
//Background Colour Transformations
3,100,163,162,255

[TimingPoints]
322,320.855614973262,4,2,2,40,1,0
5455,-100,4,2,1,60,0,0
9947,-100,4,2,1,40,0,0
10268,-100,4,2,1,60,0,0
15081,-100,4,2,1,40,0,0
15402,-100,4,2,1,60,0,0
15723,-100,4,2,2,60,0,0
15883,-100,4,2,2,40,0,0
20856,-100,4,2,1,60,0,0
25990,-100,4,2,2,60,0,0
26311,-100,4,2,2,40,0,0
31124,-100,4,2,1,60,0,0
33370,-100,4,2,1,40,0,0
33690,-100,4,2,1,60,0,0
36257,-133.333333333333,4,2,1,50,0,0
40749,-133.333333333333,4,2,1,40,0,0
40910,-133.333333333333,4,2,1,50,0,0
41551,-133.333333333333,4,2,1,40,0,0
42674,-133.333333333333,4,2,1,50,0,0
43958,-133.333333333333,4,2,1,60,0,0
45241,-100,4,2,1,70,0,0
46525,-100,4,2,1,70,0,1
63209,-100,4,2,1,50,0,1
64172,-100,4,2,1,70,0,1
65134,-100,4,2,1,50,0,1
65616,-100,4,2,1,70,0,0
67059,-100,4,2,1,65,0,0
82461,-100,4,2,2,50,0,0
86632,-100,4,2,1,60,0,0
87273,-100,4,2,1,70,0,0

[Colours]
Combo1 : 128,255,255
Combo2 : 255,128,128
Combo3 : 255,255,128
Combo4 : 255,128,255
Combo5 : 128,128,255

[HitObjects]
108,84,322,6,0,L|186:116,1,85,2|0,0:0|0:0,0:0:0:0:
268,84,642,1,8,0:0:0:0:
348,116,803,1,0,0:0:0:0:
428,216,963,6,0,L|349:248,1,85,2|0,0:0|0:0,0:0:0:0:
268,216,1284,1,8,0:0:0:0:
188,248,1444,1,0,0:0:0:0:
61,231,1605,2,0,L|49:146,1,85,2|0,0:0|0:0,0:0:0:0:
108,84,1926,1,8,0:0:0:0:
193,92,2086,1,0,0:0:0:0:
240,163,2247,2,0,L|214:244,1,85,8|0,0:0|0:0,0:0:0:0:
134,273,2567,1,8,0:0:0:0:
134,273,2888,6,0,L|213:243,1,85,2|0,0:0|0:0,0:0:0:0:
294,273,3209,1,8,0:0:0:0:
374,244,3370,1,0,0:0:0:0:
374,116,3530,6,0,L|294:86,1,85,2|0,0:0|0:0,0:0:0:0:
214,116,3851,1,8,0:0:0:0:
134,87,4011,1,0,0:0:0:0:
48,180,4172,5,2,0:0:0:0:
48,180,4332,1,0,0:0:0:0:
134,273,4493,2,0,L|218:277,1,85,8|0,0:0|0:0,0:0:0:0:
332,176,4813,2,0,L|248:180,1,85,8|0,0:0|0:0,0:0:0:0:
360,284,5134,2,0,L|444:288,1,85,8|0,0:0|0:0,0:0:0:0:
451,136,5455,6,0,P|372:149|324:85,1,170,6|0,0:0|0:0,0:0:0:0:
402,78,5936,1,0,0:0:0:0:
332,176,6097,2,0,L|336:260,1,85,8|0,0:0|0:0,0:0:0:0:
440,336,6418,2,0,L|444:252,1,85,0|0,0:0|0:0,0:0:0:0:
332,356,6739,1,2,0:0:0:0:
332,356,6899,2,0,L|160:348,1,170,2|0,0:0|0:0,0:0:0:0:
53,239,7380,2,0,L|57:323,1,85,8|0,0:0|0:0,0:0:0:0:
165,215,7701,2,0,L|169:131,1,85,0|0,0:0|0:0,0:0:0:0:
104,20,8022,6,0,P|151:85|231:72,1,170,6|0,0:0|0:0,0:0:0:0:
182,14,8503,1,0,0:0:0:0:
73,122,8664,2,0,L|77:206,1,85,8|0,0:0|0:0,0:0:0:0:
185,315,8985,2,0,L|189:231,1,85,0|0,0:0|0:0,0:0:0:0:
196,76,9305,1,2,0:0:0:0:
196,76,9466,2,0,L|365:83,1,170,2|0,0:0|0:0,0:0:0:0:
474,192,9947,1,12,0:0:0:0:
474,192,10268,2,0,L|390:196,1,85,0|0,0:0|0:0,0:0:0:0:
244,244,10589,6,0,P|231:284|244:324,1,85,6|0,0:0|0:0,0:0:0:0:
390,276,10910,2,0,P|402:236|389:196,1,85,0|0,0:0|0:0,0:0:0:0:
244,244,11231,2,0,P|204:257|164:244,1,85,8|0,0:0|0:0,0:0:0:0:
212,98,11551,2,0,P|252:86|292:99,1,85,0|0,0:0|0:0,0:0:0:0:
396,208,11872,1,2,0:0:0:0:
396,208,12033,2,0,L|227:215,1,170,2|0,0:0|0:0,0:0:0:0:
80,164,12514,2,0,L|76:80,1,85,8|0,0:0|0:0,0:0:0:0:
216,14,12835,2,0,L|212:98,1,85,0|0,0:0|0:0,0:0:0:0:
316,207,13156,6,0,P|356:220|396:208,1,85,6|0,0:0|0:0,0:0:0:0:
395,54,13477,2,0,P|355:41|315:53,1,85,0|0,0:0|0:0,0:0:0:0:
184,132,13797,2,0,P|223:144|263:132,1,85,8|0,0:0|0:0,0:0:0:0:
395,208,14118,2,0,P|356:220|316:207,1,85,0|0,0:0|0:0,0:0:0:0:
184,132,14439,1,2,0:0:0:0:
184,132,14600,2,0,L|177:301,1,170,2|0,0:0|0:0,0:0:0:0:
177,301,15081,1,12,0:0:0:0:
177,301,15402,1,0,0:0:0:0:
408,192,15723,5,4,0:1:0:0:
408,192,15883,1,0,0:0:0:0:
280,196,16043,2,0,L|284:280,1,85,8|0,0:0|0:0,0:0:0:0:
408,192,16364,2,0,P|440:118|389:56,1,170,2|8,0:0|0:0,0:0:0:0:
272,104,16846,2,0,P|233:116|193:103,1,85,0|2,0:0|0:0,0:0:0:0:
80,44,17166,1,0,0:0:0:0:
80,44,17327,2,0,L|84:128,1,85,8|0,0:0|0:0,0:0:0:0:
92,284,17648,1,8,0:0:0:0:
92,284,17969,2,0,L|176:288,1,85,8|0,0:0|0:0,0:0:0:0:
308,208,18289,6,0,L|304:292,1,85,2|0,0:0|0:0,0:0:0:0:
195,184,18610,1,8,0:0:0:0:
195,184,18931,2,0,L|191:100,1,85,2|0,0:0|0:0,0:0:0:0:
320,88,19252,1,8,0:0:0:0:
258,228,19412,2,0,P|183:259|121:208,1,170,0|0,0:0|0:0,0:0:0:0:
100,80,19894,1,8,0:0:0:0:
100,80,20054,1,0,0:0:0:0:
328,176,20215,1,8,0:3:0:0:
328,176,20535,2,0,L|244:180,1,85,2|0,0:0|0:0,0:0:0:0:
134,288,20856,6,0,P|173:301|213:287,1,85,6|0,0:0|0:0,0:0:0:0:
80,212,21177,2,0,P|40:199|0:212,1,85,8|0,0:0|0:0,0:0:0:0:
0,365,21498,2,0,P|39:377|79:364,1,85,2|0,0:0|0:0,0:0:0:0:
214,288,21819,1,8,0:0:0:0:
214,288,21979,2,0,L|207:119,1,170,0|0,0:0|0:0,0:0:0:0:
80,212,22461,2,0,P|119:225|159:212,1,85,8|0,0:0|0:0,0:0:0:0:
292,136,22781,1,8,0:0:0:0:
292,136,23102,2,0,L|288:220,1,85,8|0,0:0|0:0,0:0:0:0:
368,352,23423,6,0,P|407:365|447:352,1,85,6|0,0:0|0:0,0:0:0:0:
367,219,23744,2,0,P|327:206|288:220,1,85,8|0,0:0|0:0,0:0:0:0:
148,284,24065,2,0,P|109:297|69:284,1,85,2|0,0:0|0:0,0:0:0:0:
149,150,24386,2,0,P|188:137|228:151,1,85,8|0,0:0|0:0,0:0:0:0:
367,219,24707,1,2,0:0:0:0:
367,219,24867,1,0,0:0:0:0:
228,151,25027,2,0,L|232:235,1,85,8|0,0:0|0:0,0:0:0:0:
340,127,25348,1,8,0:0:0:0:
340,127,25669,2,0,L|344:43,1,85,8|0,0:0|0:0,0:0:0:0:
228,151,25990,6,0,P|153:182|91:131,1,170,4|8,0:1|0:0,0:0:0:0:
166,103,26471,1,0,0:0:0:0:
166,103,26632,2,0,L|159:272,1,170,2|8,0:0|0:0,0:0:0:0:
256,356,27113,2,0,L|340:360,1,85,0|2,0:0|0:0,0:0:0:0:
431,269,27434,1,0,0:0:0:0:
341,179,27594,2,0,L|257:183,1,85,8|0,0:0|0:0,0:0:0:0:
102,190,27915,1,8,0:0:0:0:
102,190,28236,2,0,L|106:274,1,85,8|0,0:0|0:0,0:0:0:0:
233,274,28557,6,0,P|284:211|253:136,1,170,2|8,0:0|0:0,0:0:0:0:
205,198,29038,1,0,0:0:0:0:
332,204,29199,2,0,L|416:208,1,85,2|0,0:0|0:0,0:0:0:0:
506,118,29519,1,8,0:0:0:0:
415,27,29680,2,0,L|331:31,1,85,0|2,0:0|0:0,0:0:0:0:
239,121,30001,2,0,L|235:37,1,85,0|8,0:0|0:0,0:0:0:0:
342,143,30321,1,8,0:3:0:0:
342,143,30482,2,0,L|338:227,1,85,2|0,0:0|0:0,0:0:0:0:
229,336,30803,2,0,L|225:252,1,85,2|0,0:0|0:0,0:0:0:0:
116,142,31124,6,0,P|76:156|36:143,1,85,6|0,0:0|0:0,0:0:0:0:
152,40,31444,2,0,P|191:25|231:38,1,85,8|0,0:0|0:0,0:0:0:0:
342,143,31765,2,0,P|302:157|262:144,1,85,2|2,0:0|0:0,0:0:0:0:
384,48,32086,1,8,0:0:0:0:
384,48,32247,2,0,L|377:217,1,170,0|0,0:0|0:0,0:0:0:0:
499,126,32728,2,0,P|460:113|420:126,1,85,8|0,0:0|0:0,0:0:0:0:
287,202,33049,1,8,0:0:0:0:
287,202,33370,2,0,L|291:118,1,85,12|0,0:0|0:0,0:0:0:0:
136,116,33690,6,0,P|124:157|138:196,1,85,6|0,0:0|0:0,0:0:0:0:
216,328,34011,2,0,P|228:288|214:248,1,85,8|0,0:0|0:0,0:0:0:0:
60,248,34332,2,0,P|47:287|61:327,1,85,2|2,0:0|0:0,0:0:0:0:
138,196,34653,2,0,P|150:156|136:116,1,85,8|0,0:0|0:0,0:0:0:0:
20,16,34974,1,2,0:0:0:0:
20,16,35134,1,0,0:0:0:0:
136,117,35295,2,0,L|220:121,1,85,8|0,0:0|0:0,0:0:0:0:
329,12,35616,1,8,0:0:0:0:
329,12,35936,2,0,L|245:16,1,85,8|0,0:0|0:0,0:0:0:0:
136,117,36257,6,0,L|139:244,1,127.500004863739,6|0,0:0|0:0,0:0:0:0:
139,244,36739,1,2,0:0:0:0:
312,184,36899,2,0,L|184:180,1,127.500004863739,8|2,0:0|0:0,0:0:0:0:
276,312,37380,2,0,L|339:309,1,63.7500024318696,8|2,0:0|0:0,0:0:0:0:
439,187,37701,2,0,L|312:184,1,127.500004863739,8|0,0:0|0:0,0:0:0:0:
139,244,38182,2,0,L|76:241,1,63.7500024318696,8|0,0:0|0:0,0:0:0:0:
165,150,38503,2,0,L|228:147,1,63.7500024318696,2|0,0:0|0:0,0:0:0:0:
439,187,38824,6,0,L|312:184,1,127.500004863739,6|0,0:0|0:0,0:0:0:0:
312,184,39305,1,2,0:0:0:0:
372,11,39466,2,0,L|376:139,1,127.500004863739,8|2,0:0|0:0,0:0:0:0:
436,250,39947,2,0,L|439:187,1,63.7500024318696,8|2,0:0|0:0,0:0:0:0:
312,184,40268,1,8,0:0:0:0:
312,184,40428,2,0,L|249:187,1,63.7500024318696,2|0,0:0|0:0,0:0:0:0:
112,268,40749,2,0,L|175:271,1,63.7500024318696,12|0,0:0|0:0,0:0:0:0:
332,196,41070,2,0,L|269:199,1,63.7500024318696,2|0,0:0|0:0,0:0:0:0:
248,348,41391,6,0,L|311:351,1,63.7500024318696,6|0,0:0|0:0,0:0:0:0:
440,356,41712,1,2,0:0:0:0:
440,356,41872,1,2,0:0:0:0:
368,268,42033,1,2,0:0:0:0:
368,268,42193,1,2,0:0:0:0:
440,180,42354,1,2,0:0:0:0:
440,180,42514,1,2,0:0:0:0:
312,184,42674,6,0,L|249:187,1,63.7500024318696,2|2,0:0|0:0,0:0:0:0:
120,196,42995,1,2,0:0:0:0:
120,196,43156,1,2,0:0:0:0:
178,96,43316,1,2,0:0:0:0:
178,96,43477,1,2,0:0:0:0:
64,80,43637,1,2,0:0:0:0:
64,80,43797,1,2,0:0:0:0:
120,196,43958,6,0,L|183:199,1,63.7500024318696,6|2,0:0|0:0,0:0:0:0:
311,205,44279,1,2,0:0:0:0:
311,205,44439,1,2,0:0:0:0:
426,210,44600,1,2,0:0:0:0:
426,210,44760,1,2,0:0:0:0:
362,305,44920,1,2,0:0:0:0:
362,305,45081,1,2,0:0:0:0:
202,313,45241,6,0,L|118:317,1,85,6|0,0:0|0:0,0:0:0:0:
226,201,45562,2,0,L|310:205,1,85,2|0,0:0|0:0,0:0:0:0:
202,313,45883,1,6,0:0:0:0:
202,313,46204,2,0,L|118:317,1,85,8|0,0:0|0:0,0:0:0:0:
8,208,46525,6,0,L|4:124,1,85,6|0,0:0|0:0,0:0:0:0:
128,68,46846,2,0,L|168:80,3,42.5,8|0|0|0,0:0|0:0|0:0|0:0,0:0:0:0:
208,92,47166,2,0,L|292:88,1,85,2|2,0:0|0:0,0:0:0:0:
416,28,47487,1,8,0:0:0:0:
347,164,47648,6,0,L|343:248,1,85,6|0,0:0|0:0,0:0:0:0:
428,356,47969,1,2,0:0:0:0:
343,249,48129,2,0,L|303:237,3,42.5,8|0|0|0,0:0|0:0|0:0|0:0,0:0:0:0:
263,225,48450,2,0,L|179:229,1,85,2|2,0:0|0:0,0:0:0:0:
40,236,48771,1,8,0:0:0:0:
132,125,48931,6,0,L|136:41,1,85,6|0,0:0|0:0,0:0:0:0:
27,148,49252,1,2,0:0:0:0:
88,288,49412,2,0,L|128:300,3,42.5,8|0|0|0,0:0|0:0|0:0|0:0,0:0:0:0:
168,312,49733,2,0,L|252:308,1,85,2|2,0:0|0:0,0:0:0:0:
388,304,50054,1,8,0:0:0:0:
298,194,50215,6,0,L|129:187,1,170,6|2,0:0|0:0,0:0:0:0:
236,78,50696,2,0,L|320:74,1,85,8|0,0:0|0:0,0:0:0:0:
456,148,51017,1,12,0:0:0:0:
456,148,51338,2,0,L|372:144,1,85,12|0,0:0|0:0,0:0:0:0:
228,192,51658,6,0,P|215:232|227:272,1,85,6|0,0:0|0:0,0:0:0:0:
360,348,51979,1,8,0:0:0:0:
360,348,52059,1,0,0:0:0:0:
360,348,52140,1,0,0:0:0:0:
460,232,52300,2,0,L|456:148,1,85,2|2,0:0|0:0,0:0:0:0:
456,148,52621,1,8,0:0:0:0:
298,194,52781,6,0,L|129:187,1,170,6|2,0:0|0:0,0:0:0:0:
18,77,53263,1,8,0:0:0:0:
18,77,53343,1,0,0:0:0:0:
18,77,53423,1,0,0:0:0:0:
172,72,53584,2,0,L|256:68,1,85,2|2,0:0|0:0,0:0:0:0:
256,68,53904,1,8,0:0:0:0:
148,176,54065,6,0,L|155:345,1,170,6|2,0:0|0:0,0:0:0:0:
263,237,54546,2,0,L|303:225,3,42.5,8|0|0|0,0:0|0:0|0:0|0:0,0:0:0:0:
343,213,54867,2,0,L|427:217,1,85,2|2,0:0|0:0,0:0:0:0:
425,61,55188,1,8,0:0:0:0:
425,61,55348,6,0,L|256:68,1,170,6|2,0:0|0:0,0:0:0:0:
145,177,55830,2,0,L|149:261,1,85,8|0,0:0|0:0,0:0:0:0:
257,370,56150,1,12,0:0:0:0:
257,370,56471,2,0,L|261:286,1,85,12|0,0:0|0:0,0:0:0:0:
369,176,56792,6,0,P|408:163|448:176,1,85,6|0,0:0|0:0,0:0:0:0:
340,286,57113,2,0,P|300:298|261:286,1,85,8|2,0:0|0:0,0:0:0:0:
140,192,57434,1,8,0:0:0:0:
280,132,57594,1,2,0:0:0:0:
261,285,57755,1,8,0:0:0:0:
140,192,57915,6,0,L|133:23,1,170,2|2,0:0|0:0,0:0:0:0:
284,48,58396,2,0,L|280:132,1,85,8|2,0:0|0:0,0:0:0:0:
140,192,58717,1,8,0:0:0:0:
140,192,59038,2,0,L|136:108,1,85,8|0,0:0|0:0,0:0:0:0:
240,220,59359,6,0,P|279:232|319:220,1,85,6|0,0:0|0:0,0:0:0:0:
428,111,59680,2,0,P|388:98|348:110,1,85,8|2,0:0|0:0,0:0:0:0:
240,220,60001,1,8,0:0:0:0:
348,109,60161,1,2,0:0:0:0:
200,72,60321,1,8,0:0:0:0:
240,220,60482,6,0,L|409:227,1,170,2|2,0:0|0:0,0:0:0:0:
301,335,60963,2,0,L|217:339,1,85,8|2,0:0|0:0,0:0:0:0:
64,348,61284,1,8,0:0:0:0:
64,348,61605,2,0,L|68:264,1,85,8|0,0:0|0:0,0:0:0:0:
164,144,61926,6,0,P|117:209|37:196,1,170,6|8,0:0|0:0,0:0:0:0:
86,138,62407,1,0,0:0:0:0:
194,246,62567,2,0,L|278:250,1,85,2|2,0:0|0:0,0:0:0:0:
386,142,62888,2,0,L|302:146,1,85,8|0,0:0|0:0,0:0:0:0:
296,292,63209,6,0,L|336:280,3,42.5,2|2|2|2,0:0|0:0|0:0|0:0,0:0:0:0:
409,254,63530,2,0,L|449:266,3,42.5,2|2|2|2,0:0|0:0|0:0|0:0,0:0:0:0:
449,343,63851,2,0,L|409:355,3,42.5,2|2|2|2,0:0|0:0|0:0|0:0,0:0:0:0:
331,355,64172,2,0,L|247:351,1,85,2|0,0:0|0:0,0:0:0:0:
92,344,64493,1,4,0:0:0:0:
200,96,65134,5,8,0:0:0:0:
256,240,65295,1,8,0:0:0:0:
136,204,65455,1,8,0:0:0:0:
336,124,65616,1,12,0:0:0:0:
336,124,66418,2,0,L|340:208,1,85,4|0,0:0|0:0,0:0:0:0:
448,317,66739,2,0,L|452:233,1,85,4|0,0:0|0:0,0:0:0:0:
336,124,67059,6,0,P|383:189|463:176,1,170,6|8,0:0|0:0,0:0:0:0:
414,118,67541,1,0,0:0:0:0:
305,226,67701,2,0,L|221:230,1,85,2|0,0:0|0:0,0:0:0:0:
111,121,68022,2,0,L|195:125,1,85,8|0,0:0|0:0,0:0:0:0:
87,233,68343,1,2,0:0:0:0:
87,233,68503,2,0,L|79:61,1,170,2|0,0:0|0:0,0:0:0:0:
187,171,68985,2,0,L|183:255,1,85,8|0,0:0|0:0,0:0:0:0:
291,147,69305,2,0,L|287:63,1,85,8|0,0:0|0:0,0:0:0:0:
133,62,69626,6,0,P|180:127|260:114,1,170,2|8,0:0|0:0,0:0:0:0:
211,56,70108,1,0,0:0:0:0:
102,164,70268,2,0,L|106:248,1,85,2|0,0:0|0:0,0:0:0:0:
214,357,70589,1,8,0:0:0:0:
214,357,70749,2,0,L|221:188,1,170,0|2,0:0|0:0,0:0:0:0:
329,78,71231,2,0,L|413:82,1,85,8|0,0:0|0:0,0:0:0:0:
413,234,71551,1,8,0:0:0:0:
413,234,71872,2,0,L|329:238,1,85,8|0,0:0|0:0,0:0:0:0:
182,287,72193,6,0,P|169:326|181:366,1,85,6|0,0:0|0:0,0:0:0:0:
329,318,72514,2,0,P|340:277|328:238,1,85,8|0,0:0|0:0,0:0:0:0:
182,287,72835,2,0,P|142:299|102:287,1,85,2|0,0:0|0:0,0:0:0:0:
151,140,73156,2,0,P|191:128|230:140,1,85,8|0,0:0|0:0,0:0:0:0:
335,251,73477,1,2,0:0:0:0:
335,251,73637,2,0,L|166:258,1,170,2|0,0:0|0:0,0:0:0:0:
56,149,74118,2,0,L|52:65,1,85,8|0,0:0|0:0,0:0:0:0:
205,64,74439,2,0,L|201:148,1,85,8|0,0:0|0:0,0:0:0:0:
200,302,74760,6,0,P|137:352|63:319,1,170,2|8,0:0|0:0,0:0:0:0:
126,276,75241,1,0,0:0:0:0:
279,276,75402,2,0,L|363:280,1,85,2|0,0:0|0:0,0:0:0:0:
472,171,75723,1,8,0:0:0:0:
472,171,75883,2,0,L|303:178,1,170,0|2,0:0|0:0,0:0:0:0:
194,70,76364,2,0,L|198:154,1,85,8|0,0:0|0:0,0:0:0:0:
89,263,76685,2,0,L|93:179,1,85,8|0,0:0|0:0,0:0:0:0:
201,286,77006,2,0,L|205:370,1,85,8|0,0:0|0:0,0:0:0:0:
358,370,77327,6,0,P|371:331|359:291,1,85,6|0,0:0|0:0,0:0:0:0:
280,160,77648,2,0,P|267:199|279:239,1,85,8|0,0:0|0:0,0:0:0:0:
388,131,77969,2,0,P|401:92|389:52,1,85,2|0,0:0|0:0,0:0:0:0:
280,160,78289,2,0,P|241:173|201:161,1,85,8|0,0:0|0:0,0:0:0:0:
91,51,78610,1,2,0:0:0:0:
91,51,78771,2,0,L|98:220,1,170,2|0,0:0|0:0,0:0:0:0:
206,329,79252,2,0,L|290:333,1,85,8|0,0:0|0:0,0:0:0:0:
399,224,79573,2,0,L|315:228,1,85,8|0,0:0|0:0,0:0:0:0:
205,119,79894,6,0,P|192:79|205:39,1,85,2|0,0:0|0:0,0:0:0:0:
315,148,80215,2,0,P|328:188|315:228,1,85,8|0,0:0|0:0,0:0:0:0:
206,329,80535,2,0,P|166:341|126:328,1,85,2|0,0:0|0:0,0:0:0:0:
17,219,80856,2,0,P|56:206|96:219,1,85,8|0,0:0|0:0,0:0:0:0:
206,329,81177,1,2,0:0:0:0:
206,329,81338,1,2,0:0:0:0:
313,221,81498,2,0,L|317:137,1,85,8|0,0:0|0:0,0:0:0:0:
208,27,81819,1,8,0:0:0:0:
208,27,82140,2,0,L|212:111,1,85,8|0,0:0|0:0,0:0:0:0:
212,265,82461,6,0,L|127:264,1,85,6|0,0:0|0:0,0:0:0:0:
84,191,82781,1,8,0:0:0:0:
127,117,82942,1,0,0:0:0:0:
254,191,83102,6,0,L|338:190,1,85,2|0,0:0|0:0,0:0:0:0:
382,117,83422,1,8,0:0:0:0:
339,43,83583,1,0,0:0:0:0:
254,191,83744,6,0,L|338:190,1,85,2|0,0:0|0:0,0:0:0:0:
382,264,84065,1,8,0:0:0:0:
339,337,84225,1,0,0:0:0:0:
254,337,84386,2,0,L|211:263,1,85,8|0,0:0|0:0,0:0:0:0:
254,191,84707,1,8,0:0:0:0:
254,191,85027,6,0,L|338:190,1,85,2|0,0:0|0:0,0:0:0:0:
382,117,85347,1,8,0:0:0:0:
339,43,85508,1,0,0:0:0:0:
254,191,85669,6,0,L|210:264,1,85,2|0,0:0|0:0,0:0:0:0:
125,264,85989,1,8,0:0:0:0:
83,190,86150,1,0,0:0:0:0:
254,191,86311,5,2,0:0:0:0:
254,191,86471,1,2,0:0:0:0:
362,299,86632,2,0,L|278:303,1,85,8|2,0:0|0:0,0:0:0:0:
170,185,86953,2,0,L|254:191,1,85,8|2,0:0|0:0,0:0:0:0:
464,204,87273,1,4,0:1:0:0:
