osu file format v13

[General]
AudioFilename: bladedanceed.mp3
AudioLeadIn: 2000
PreviewTime: 46525
Countdown: 0
SampleSet: Soft
StackLeniency: 0.7
Mode: 0
LetterboxInBreaks: 0
WidescreenStoryboard: 0

[Editor]
DistanceSpacing: 1.8
BeatDivisor: 4
GridSize: 4
TimelineZoom: 1

[Metadata]
Title:Blade Dance
TitleUnicode:精霊剣舞祭
Artist:Ni-Sokkususu
ArtistUnicode:にーそっくすす
Creator:CloudSplash16
Version:Hard
Source:精霊使いの剣舞
Tags:seirei tsukai no blade dance bladedance of elementalers anime ending tv size kneesocks knee socks kido ibuki yuuki kana ishigami shizuka oonishi saori kakuma ai
BeatmapID:475684
BeatmapSetID:200501

[Difficulty]
HPDrainRate:5.5
CircleSize:3.8
OverallDifficulty:6
ApproachRate:7.7
SliderMultiplier:1.5
SliderTickRate:1

[Events]
//Background and Video events
Video,140,"video.avi"
0,0,"bg.jpg",0,0
//Break Periods
//Storyboard Layer 0 (Background)
//Storyboard Layer 1 (Fail)
//Storyboard Layer 2 (Pass)
//Storyboard Layer 3 (Foreground)
//Storyboard Sound Samples
//Background Colour Transformations
3,100,163,162,255

[TimingPoints]
322,320.855614973262,4,2,2,40,1,0
5455,-100,4,2,1,60,0,0
9947,-100,4,2,1,40,0,0
10268,-100,4,2,1,60,0,0
15081,-100,4,2,1,40,0,0
15402,-100,4,2,1,60,0,0
15723,-100,4,2,2,60,0,0
16043,-100,4,2,2,40,0,0
20856,-100,4,2,1,60,0,0
25990,-100,4,2,2,60,0,0
26311,-100,4,2,2,40,0,0
31124,-100,4,2,1,60,0,0
33370,-100,4,2,1,40,0,0
33690,-100,4,2,1,60,0,0
36257,-133.333333333333,4,2,1,50,0,0
40749,-133.333333333333,4,2,1,40,0,0
41070,-133.333333333333,4,2,1,50,0,0
41391,-100,4,2,1,50,0,0
41551,-100,4,2,1,40,0,0
42674,-100,4,2,1,50,0,0
43958,-100,4,2,1,60,0,0
45241,-100,4,2,1,70,0,0
46525,-100,4,2,1,70,0,1
65134,-100,4,2,1,50,0,1
65616,-100,4,2,1,70,0,0
67059,-100,4,2,1,65,0,0
82461,-100,4,2,2,50,0,0
86632,-100,4,2,1,60,0,0
87273,-100,4,2,1,70,0,0

[Colours]
Combo1 : 128,255,255
Combo2 : 255,128,128
Combo3 : 255,255,128
Combo4 : 255,128,255
Combo5 : 128,128,255

[HitObjects]
118,87,322,6,0,P|165:95|203:88,1,75,2|0,0:0|0:0,0:0:0:0:
296,92,642,2,0,P|336:104|365:133,1,75,8|0,0:0|0:0,0:0:0:0:
352,232,963,2,0,P|346:273|359:325,1,75,2|0,0:0|0:0,0:0:0:0:
448,268,1284,2,0,P|457:230|449:193,1,75,8|0,0:0|0:0,0:0:0:0:
376,120,1605,2,0,P|336:132|288:125,1,75,2|0,0:0|0:0,0:0:0:0:
212,184,1926,2,0,P|220:225|210:264,1,75,8|0,0:0|0:0,0:0:0:0:
172,352,2247,1,8,0:0:0:0:
172,352,2567,1,8,0:0:0:0:
72,168,2888,6,0,P|73:124|91:88,1,75,2|0,0:0|0:0,0:0:0:0:
188,72,3209,2,0,P|247:79|285:68,1,75,8|0,0:0|0:0,0:0:0:0:
364,92,3530,2,0,P|413:109|433:139,1,75,2|0,0:0|0:0,0:0:0:0:
436,232,3851,2,0,P|397:246|370:282,1,75,8|0,0:0|0:0,0:0:0:0:
272,244,4172,2,0,P|239:217|227:181,1,75,2|0,0:0|0:0,0:0:0:0:
124,200,4493,2,0,P|154:240|161:278,1,75,8|0,0:0|0:0,0:0:0:0:
172,368,4813,1,8,0:0:0:0:
172,368,5134,1,8,0:0:0:0:
132,164,5455,6,0,P|79:189|59:283,1,150,6|0,0:0|0:0,0:0:0:0:
256,212,6097,2,0,P|263:163|258:110,1,75,8|0,0:0|0:0,0:0:0:0:
344,72,6418,2,0,P|400:69|433:83,1,75,0|0,0:0|0:0,0:0:0:0:
480,160,6739,1,2,0:0:0:0:
480,160,6899,2,0,L|336:220,1,150,2|0,0:0|0:0,0:0:0:0:
311,319,7380,2,0,P|347:331|384:331,1,75,8|0,0:0|0:0,0:0:0:0:
272,256,7701,2,0,P|234:254|198:264,1,75,0|0,0:0|0:0,0:0:0:0:
92,264,8022,6,0,P|44:221|46:140,1,150,6|0,0:0|0:0,0:0:0:0:
240,64,8664,2,0,P|305:73|338:62,1,75,8|0,0:0|0:0,0:0:0:0:
436,128,8985,2,0,P|387:128|358:138,1,75,0|0,0:0|0:0,0:0:0:0:
276,196,9305,1,2,0:0:0:0:
276,196,9466,2,0,L|414:263,1,150,2|0,0:0|0:0,0:0:0:0:
296,332,9947,1,12,0:0:0:0:
296,332,10268,2,0,P|252:319|202:322,1,75,0|0,0:0|0:0,0:0:0:0:
120,308,10589,6,0,P|93:256|130:174,1,150,6|0,0:0|0:0,0:0:0:0:
332,132,11231,2,0,P|379:139|422:133,1,75,8|0,0:0|0:0,0:0:0:0:
484,208,11551,2,0,P|508:249|504:296,1,75,0|0,0:0|0:0,0:0:0:0:
432,348,11872,1,2,0:0:0:0:
432,348,12033,2,0,L|274:337,1,150,2|0,0:0|0:0,0:0:0:0:
188,292,12514,2,0,P|179:249|184:212,1,75,8|0,0:0|0:0,0:0:0:0:
260,108,12835,2,0,P|268:152|261:187,1,75,0|0,0:0|0:0,0:0:0:0:
300,280,13156,6,0,P|348:306|442:276,1,150,6|0,0:0|0:0,0:0:0:0:
436,72,13797,2,0,P|393:87|350:80,1,75,8|0,0:0|0:0,0:0:0:0:
260,108,14118,2,0,P|237:148|231:185,1,75,0|0,0:0|0:0,0:0:0:0:
228,280,14439,1,2,0:0:0:0:
228,280,14600,1,2,0:0:0:0:
360,308,14760,6,0,L|437:314,1,75,0|0,0:0|0:0,0:0:0:0:
364,200,15081,2,0,L|270:201,1,75,12|0,0:0|0:0,0:0:0:0:
161,245,15402,2,0,P|153:281|163:318,1,75,0|0,0:0|0:0,0:0:0:0:
212,192,15723,6,0,P|223:135|161:60,1,150,4|8,0:1|0:0,0:0:0:0:
76,252,16364,2,0,P|39:259|3:251,1,75,2|0,0:0|0:0,0:0:0:0:
44,152,16685,1,8,0:0:0:0:
144,180,16846,2,0,P|216:197|290:185,1,150,0|0,0:0|0:0,0:0:0:0:
392,164,17327,1,8,0:0:0:0:
392,164,17648,2,0,L|378:249,1,75,8|0,0:0|0:0,0:0:0:0:
308,316,17969,2,0,L|383:320,1,75,8|0,0:0|0:0,0:0:0:0:
476,272,18289,6,0,P|510:212|482:138,1,150,2|8,0:0|0:0,0:0:0:0:
276,124,18931,2,0,P|216:132|116:117,1,150,2|8,0:0|0:0,0:0:0:0:
32,164,19412,2,0,P|22:209|30:251,1,75,0|2,0:0|0:0,0:0:0:0:
80,328,19733,1,0,0:0:0:0:
180,296,19894,2,0,P|249:296|285:302,1,75,8|0,0:0|0:0,0:0:0:0:
356,268,20215,2,0,L|368:190,1,75,8|0,0:3|0:0,0:0:0:0:
428,108,20535,2,0,L|334:118,1,75,2|0,0:0|0:0,0:0:0:0:
248,132,20856,6,0,P|211:138|161:130,1,75,6|0,0:0|0:0,0:0:0:0:
72,156,21177,2,0,P|52:189|50:236,1,75,8|0,0:0|0:0,0:0:0:0:
108,312,21498,2,0,P|150:314|186:330,1,75,2|0,0:0|0:0,0:0:0:0:
284,340,21819,1,8,0:0:0:0:
284,340,21979,2,0,P|360:316|381:241,1,150,0|0,0:0|0:0,0:0:0:0:
316,172,22461,2,0,P|271:177|218:170,1,75,8|0,0:0|0:0,0:0:0:0:
140,160,22781,1,8,0:0:0:0:
140,160,23102,2,0,L|145:243,1,75,8|0,0:0|0:0,0:0:0:0:
192,328,23423,6,0,P|237:334|290:321,1,75,6|0,0:0|0:0,0:0:0:0:
352,268,23744,2,0,P|360:214|378:188,1,75,8|0,0:0|0:0,0:0:0:0:
392,92,24065,2,0,P|358:65|316:55,1,75,2|0,0:0|0:0,0:0:0:0:
224,76,24386,2,0,P|182:83|140:74,1,75,8|0,0:0|0:0,0:0:0:0:
44,92,24707,1,2,0:0:0:0:
44,92,24867,1,0,0:0:0:0:
92,184,25027,6,0,L|175:192,1,75,8|0,0:0|0:0,0:0:0:0:
268,164,25348,2,0,L|242:242,1,75,8|0,0:0|0:0,0:0:0:0:
184,320,25669,2,0,L|271:312,1,75,8|0,0:0|0:0,0:0:0:0:
364,296,25990,6,0,P|406:238|372:150,1,150,4|8,0:1|0:0,0:0:0:0:
180,132,26632,2,0,P|134:132|100:120,1,75,2|0,0:0|0:0,0:0:0:0:
8,88,26953,1,8,0:0:0:0:
8,88,27113,2,0,L|20:251,1,150,0|0,0:0|0:0,0:0:0:0:
88,316,27594,1,8,0:0:0:0:
88,316,27755,1,0,0:0:0:0:
184,276,27915,2,0,P|232:267|265:273,1,75,8|0,0:0|0:0,0:0:0:0:
352,316,28236,2,0,P|387:303|413:277,1,75,8|0,0:0|0:0,0:0:0:0:
328,216,28557,6,0,P|313:172|358:77,1,150,2|8,0:0|0:0,0:0:0:0:
200,228,29199,2,0,P|161:234|115:226,1,75,2|0,0:0|0:0,0:0:0:0:
36,176,29519,1,8,0:0:0:0:
36,176,29680,2,0,P|41:226|30:264,1,75,0|2,0:0|0:0,0:0:0:0:
16,352,30001,1,0,0:0:0:0:
120,336,30161,1,8,0:0:0:0:
120,336,30321,1,8,0:3:0:0:
120,336,30482,2,0,L|204:334,1,75,2|0,0:0|0:0,0:0:0:0:
300,340,30803,2,0,L|346:276,1,75,2|0,0:0|0:0,0:0:0:0:
392,184,31124,6,0,P|337:156|303:158,1,75,6|0,0:0|0:0,0:0:0:0:
228,192,31444,2,0,P|188:201|141:192,1,75,8|0,0:0|0:0,0:0:0:0:
68,140,31765,2,0,P|58:100|73:60,1,75,2|2,0:0|0:0,0:0:0:0:
168,40,32086,1,8,0:0:0:0:
168,40,32247,2,0,P|215:56|333:35,1,150,0|0,0:0|0:0,0:0:0:0:
416,68,32728,2,0,P|435:102|437:148,1,75,8|0,0:0|0:0,0:0:0:0:
428,244,33049,1,8,0:0:0:0:
428,244,33370,2,0,L|352:260,1,75,12|0,0:0|0:0,0:0:0:0:
250,244,33690,6,0,P|210:237|169:244,1,75,6|0,0:0|0:0,0:0:0:0:
68,324,34011,2,0,P|105:334|150:327,1,75,8|0,0:0|0:0,0:0:0:0:
244,348,34332,2,0,P|287:342|327:353,1,75,2|2,0:0|0:0,0:0:0:0:
420,320,34653,2,0,P|440:288|446:252,1,75,8|0,0:0|0:0,0:0:0:0:
420,148,34974,1,2,0:0:0:0:
420,148,35134,1,0,0:0:0:0:
316,164,35295,6,0,L|231:175,1,75,8|0,0:0|0:0,0:0:0:0:
132,92,35616,2,0,L|227:98,1,75,8|0,0:0|0:0,0:0:0:0:
196,232,35936,2,0,L|120:237,1,75,8|0,0:0|0:0,0:0:0:0:
242,173,36257,6,0,P|296:176|334:216,1,112.500004291535,6|0,0:0|0:0,0:0:0:0:
348,296,36739,2,0,L|351:352,1,56.2500021457673,2|8,0:0|0:0,0:0:0:0:
172,340,37220,2,0,L|101:335,1,56.2500021457673,2|8,0:0|0:0,0:0:0:0:
56,252,37541,2,0,L|53:179,2,56.2500021457673,2|8|2,0:0|0:0|0:0,0:0:0:0:
256,268,38182,2,0,L|392:259,1,112.500004291535,8|2,0:0|0:0,0:0:0:0:
484,92,38824,6,0,P|439:69|370:90,1,112.500004291535,6|0,0:0|0:0,0:0:0:0:
332,144,39305,2,0,L|327:200,1,56.2500021457673,2|8,0:0|0:0,0:0:0:0:
180,252,39787,2,0,L|109:246,1,56.2500021457673,2|8,0:0|0:0,0:0:0:0:
64,164,40108,2,0,L|60:108,1,56.2500021457673,2|8,0:0|0:0,0:0:0:0:
56,28,40428,1,2,0:0:0:0:
188,168,40749,1,12,0:0:0:0:
376,124,41070,1,2,0:0:0:0:
376,124,41391,6,0,L|354:284,1,150,6|2,0:0|0:0,0:0:0:0:
276,340,41872,1,2,0:0:0:0:
155,281,42033,2,0,L|228:264,1,75,2|2,0:0|0:0,0:0:0:0:
352,204,42354,2,0,L|277:195,1,75,2|2,0:0|0:0,0:0:0:0:
168,116,42674,6,0,L|321:99,1,150,2|2,0:0|0:0,0:0:0:0:
424,88,43156,1,2,0:0:0:0:
488,168,43316,2,0,L|481:242,1,75,2|2,0:0|0:0,0:0:0:0:
376,224,43637,2,0,L|392:313,1,75,2|2,0:0|0:0,0:0:0:0:
480,352,43958,6,0,L|316:345,1,150,6|2,0:0|0:0,0:0:0:0:
224,344,44439,1,2,0:0:0:0:
144,276,44600,1,2,0:0:0:0:
144,276,44760,1,2,0:0:0:0:
192,184,44920,1,2,0:0:0:0:
192,184,45081,1,2,0:0:0:0:
100,136,45241,6,0,L|22:131,1,75,6|0,0:0|0:0,0:0:0:0:
140,60,45562,2,0,L|226:52,1,75,2|0,0:0|0:0,0:0:0:0:
340,108,45883,1,6,0:0:0:0:
340,108,46204,2,0,P|330:155|334:202,1,75,8|0,0:0|0:0,0:0:0:0:
388,304,46525,6,0,P|398:260|390:210,1,75,6|0,0:0|0:0,0:0:0:0:
288,312,46846,2,0,L|247:334,2,37.5,8|0|0,0:0|0:0|0:0,0:0:0:0:
212,240,47166,2,0,P|166:243|132:235,1,75,2|2,0:0|0:0,0:0:0:0:
108,136,47487,1,8,0:0:0:0:
108,136,47648,6,0,L|200:153,1,75,6|0,0:0|0:0,0:0:0:0:
284,124,47969,1,2,0:0:0:0:
372,68,48129,2,0,L|389:30,2,37.5,8|0|0,0:0|0:0|0:0,0:0:0:0:
348,172,48450,2,0,P|343:214|352:251,1,75,2|2,0:0|0:0,0:0:0:0:
388,344,48771,1,8,0:0:0:0:
388,344,48931,6,0,L|314:351,1,75,6|0,0:0|0:0,0:0:0:0:
216,312,49252,1,2,0:0:0:0:
168,220,49412,2,0,L|180:180,2,37.5,8|0|0,0:0|0:0|0:0,0:0:0:0:
72,260,49733,1,2,0:0:0:0:
12,172,49894,1,2,0:0:0:0:
76,92,50054,1,8,0:0:0:0:
76,92,50215,6,0,P|127:112|230:91,1,150,6|2,0:0|0:0,0:0:0:0:
320,128,50696,2,0,P|324:162|306:205,1,75,8|0,0:0|0:0,0:0:0:0:
220,252,51017,1,12,0:0:0:0:
220,252,51338,2,0,L|291:275,1,75,12|0,0:0|0:0,0:0:0:0:
236,160,51658,6,0,P|187:162|151:182,1,75,6|0,0:0|0:0,0:0:0:0:
84,240,51979,2,0,L|80:280,2,37.5,8|0|0,0:0|0:0|0:0,0:0:0:0:
60,136,52300,2,0,P|55:89|36:55,1,75,2|2,0:0|0:0,0:0:0:0:
148,52,52621,1,8,0:0:0:0:
148,52,52781,6,0,L|138:134,1,75,6|0,0:0|0:0,0:0:0:0:
184,220,53102,1,2,0:0:0:0:
272,164,53263,2,0,L|322:155,2,37.5,8|0|0,0:0|0:0|0:0,0:0:0:0:
184,220,53584,2,0,P|175:256|184:292,1,75,2|2,0:0|0:0,0:0:0:0:
252,372,53904,1,8,0:0:0:0:
252,372,54065,6,0,L|334:368,1,75,6|0,0:0|0:0,0:0:0:0:
424,332,54386,1,2,0:0:0:0:
380,236,54546,2,0,L|335:227,2,37.5,8|0|0,0:0|0:0|0:0,0:0:0:0:
468,180,54867,2,0,P|477:135|465:101,1,75,2|2,0:0|0:0,0:0:0:0:
384,44,55188,1,8,0:0:0:0:
384,44,55348,6,0,P|334:58|230:49,1,150,6|2,0:0|0:0,0:0:0:0:
168,132,55830,2,0,L|241:147,1,75,8|0,0:0|0:0,0:0:0:0:
352,224,56150,1,12,0:0:0:0:
352,224,56471,2,0,L|274:237,1,75,12|0,0:0|0:0,0:0:0:0:
156,292,56792,6,0,P|188:318|234:322,1,75,6|0,0:0|0:0,0:0:0:0:
324,328,57113,2,0,P|373:320|419:329,1,75,8|2,0:0|0:0,0:0:0:0:
480,256,57434,2,0,P|491:212|485:172,1,75,8|2,0:0|0:0,0:0:0:0:
432,96,57755,1,8,0:0:0:0:
432,96,57915,2,0,P|374:114|271:90,1,150,2|2,0:0|0:0,0:0:0:0:
192,52,58396,1,8,0:0:0:0:
192,52,58557,1,2,0:0:0:0:
212,156,58717,1,8,0:0:0:0:
212,156,59038,2,0,L|215:240,1,75,8|0,0:0|0:0,0:0:0:0:
272,320,59359,6,0,P|308:327|348:319,1,75,6|0,0:0|0:0,0:0:0:0:
448,304,59680,2,0,P|436:269|409:238,1,75,8|2,0:0|0:0,0:0:0:0:
308,221,60001,2,0,P|320:186|346:159,1,75,8|2,0:0|0:0,0:0:0:0:
448,132,60321,1,8,0:0:0:0:
448,132,60482,2,0,L|291:97,1,150,2|2,0:0|0:0,0:0:0:0:
200,124,60963,2,0,P|151:134|121:130,1,75,8|2,0:0|0:0,0:0:0:0:
24,100,61284,1,8,0:0:0:0:
24,100,61605,2,0,L|28:179,1,75,8|0,0:0|0:0,0:0:0:0:
76,268,61926,6,0,P|119:288|219:268,1,150,6|8,0:0|0:0,0:0:0:0:
308,216,62407,1,0,0:0:0:0:
308,216,62567,2,0,L|309:301,1,75,2|2,0:0|0:0,0:0:0:0:
412,264,62888,2,0,L|478:218,1,75,8|0,0:0|0:0,0:0:0:0:
408,136,63209,2,0,P|356:113|247:126,1,150,2|2,0:0|0:0,0:0:0:0:
164,210,63690,1,2,0:0:0:0:
164,210,63851,2,0,P|235:232|308:216,2,150,2|2|4,0:0|0:0|0:0,0:0:0:0:
353,314,65134,6,0,L|437:319,2,75,8|8|8,0:0|0:0|0:0,0:0:0:0:
248,308,65616,1,12,0:0:0:0:
248,308,66418,2,0,L|238:233,1,75,4|0,0:0|0:0,0:0:0:0:
312,160,66739,2,0,L|322:235,1,75,4|0,0:0|0:0,0:0:0:0:
412,284,67059,6,0,P|462:281|489:269,1,75,6|0,0:0|0:0,0:0:0:0:
480,168,67380,2,0,P|468:131|470:89,1,75,8|0,0:0|0:0,0:0:0:0:
384,36,67701,2,0,P|347:29|301:36,1,75,2|0,0:0|0:0,0:0:0:0:
216,80,68022,2,0,P|177:83|132:77,1,75,8|0,0:0|0:0,0:0:0:0:
60,144,68343,2,0,P|61:190|74:222,1,75,2|2,0:0|0:0,0:0:0:0:
132,300,68664,6,0,L|220:297,1,75,8|0,0:0|0:0,0:0:0:0:
316,220,68985,2,0,L|241:209,1,75,8|0,0:0|0:0,0:0:0:0:
324,316,69305,2,0,L|406:300,1,75,8|0,0:0|0:0,0:0:0:0:
472,228,69626,6,0,P|477:186|465:140,1,75,2|0,0:0|0:0,0:0:0:0:
412,68,69947,1,8,0:0:0:0:
412,68,70108,1,0,0:0:0:0:
336,140,70268,2,0,P|296:149|256:146,2,75,2|0|8,0:0|0:0|0:0,0:0:0:0:
288,48,70749,2,0,P|244:41|131:76,1,150,0|2,0:0|0:0,0:0:0:0:
80,152,71231,6,0,L|90:240,1,75,8|0,0:0|0:0,0:0:0:0:
156,308,71551,2,0,L|236:316,1,75,8|0,0:0|0:0,0:0:0:0:
288,228,71872,2,0,L|208:220,1,75,8|0,0:0|0:0,0:0:0:0:
320,304,72193,6,0,P|365:321|396:345,1,75,6|0,0:0|0:0,0:0:0:0:
488,304,72514,2,0,P|508:263|511:221,1,75,8|0,0:0|0:0,0:0:0:0:
468,140,72835,2,0,P|457:102|465:58,1,75,2|0,0:0|0:0,0:0:0:0:
356,52,73156,2,0,P|315:45|268:55,1,75,8|0,0:0|0:0,0:0:0:0:
242,147,73477,2,0,P|283:154|330:144,1,75,2|2,0:0|0:0,0:0:0:0:
392,220,73797,6,0,L|376:303,1,75,8|0,0:0|0:0,0:0:0:0:
272,304,74118,2,0,L|185:315,1,75,8|0,0:0|0:0,0:0:0:0:
112,208,74439,2,0,L|191:228,1,75,8|0,0:0|0:0,0:0:0:0:
284,196,74760,6,0,P|296:159|293:109,1,75,2|0,0:0|0:0,0:0:0:0:
256,24,75081,1,8,0:0:0:0:
256,24,75241,1,0,0:0:0:0:
160,72,75402,2,0,P|118:81|82:75,2,75,2|0|8,0:0|0:0|0:0,0:0:0:0:
256,24,75883,2,0,P|314:24|374:95,1,150,0|2,0:0|0:0,0:0:0:0:
392,192,76364,6,0,L|325:233,1,75,8|0,0:0|0:0,0:0:0:0:
228,268,76685,2,0,L|287:318,1,75,8|0,0:0|0:0,0:0:0:0:
256,184,77006,2,0,L|182:189,1,75,8|0,0:0|0:0,0:0:0:0:
84,152,77327,6,0,P|88:115|78:61,1,75,6|0,0:0|0:0,0:0:0:0:
176,28,77648,2,0,P|215:36|251:57,1,75,8|0,0:0|0:0,0:0:0:0:
344,88,77969,2,0,P|387:94|436:86,1,75,2|0,0:0|0:0,0:0:0:0:
476,176,78289,2,0,P|475:223|460:259,1,75,8|0,0:0|0:0,0:0:0:0:
368,284,78610,2,0,P|331:277|294:281,1,75,2|2,0:0|0:0,0:0:0:0:
192,256,78931,6,0,L|162:170,1,75,8|0,0:0|0:0,0:0:0:0:
240,108,79252,2,0,L|268:182,1,75,8|0,0:0|0:0,0:0:0:0:
294,282,79573,2,0,L|366:237,1,75,8|0,0:0|0:0,0:0:0:0:
420,160,79894,6,0,P|383:143|330:145,1,75,2|0,0:0|0:0,0:0:0:0:
244,140,80215,2,0,P|203:146|149:134,1,75,8|0,0:0|0:0,0:0:0:0:
76,184,80535,2,0,P|62:222|65:268,1,75,2|0,0:0|0:0,0:0:0:0:
136,328,80856,2,0,P|182:329|220:340,1,75,8|0,0:0|0:0,0:0:0:0:
316,324,81177,2,0,P|349:285|356:249,1,75,2|2,0:0|0:0,0:0:0:0:
336,160,81498,6,0,L|260:128,1,75,8|0,0:0|0:0,0:0:0:0:
168,96,81819,1,8,0:0:0:0:
168,96,82140,2,0,L|175:177,1,75,8|0,0:0|0:0,0:0:0:0:
176,276,82461,6,0,P|150:310|36:300,1,150,6|8,0:0|0:0,0:0:0:0:
260,316,83102,2,0,P|329:307|367:223,1,150,2|8,0:0|0:0,0:0:0:0:
320,36,83744,1,2,0:0:0:0:
196,204,84065,1,8,0:0:0:0:
40,64,84386,1,8,0:0:0:0:
244,108,84707,1,8,0:0:0:0:
428,208,85027,6,0,P|428:274|366:325,1,150,2|8,0:0|0:0,0:0:0:0:
196,204,85669,2,0,P|141:198|74:273,1,150,2|8,0:0|0:0,0:0:0:0:
288,276,86311,2,0,L|296:193,2,75,2|2|8,0:0|0:0|0:0,0:0:0:0:
152,116,86953,2,0,L|226:108,1,75,8|2,0:0|0:0,0:0:0:0:
360,96,87273,1,4,0:1:0:0:
