osu file format v14

[General]
AudioFilename: bladedanceed.mp3
AudioLeadIn: 0
PreviewTime: 46525
Countdown: 0
SampleSet: Soft
StackLeniency: 0.7
Mode: 0
LetterboxInBreaks: 0
WidescreenStoryboard: 1

[Editor]
DistanceSpacing: 1
BeatDivisor: 4
GridSize: 4
TimelineZoom: 1.7

[Metadata]
Title:Blade Dance
TitleUnicode:精霊剣舞祭
Artist:Ni-Sokkususu
ArtistUnicode:にーそっくすす
Creator:Bearizm
Version:Normal
Source:精霊使いの剣舞
Tags:Nardoxyribonucleic seirei tsukai no blade dance bladedance of elementalers anime ending tv size kneesocks knee socks kido ibuki yuuki kana ishigami shizuka oonishi saori kakuma ai
BeatmapID:821890
BeatmapSetID:372851

[Difficulty]
HPDrainRate:3
CircleSize:3
OverallDifficulty:3
ApproachRate:4
SliderMultiplier:0.9
SliderTickRate:1

[Events]
//Background and Video events
0,0,"Blade Dance.jpg",0,0
Video,140,"video.avi"
//Break Periods
//Storyboard Layer 0 (Background)
//Storyboard Layer 1 (Fail)
//Storyboard Layer 2 (Pass)
//Storyboard Layer 3 (Foreground)
//Storyboard Sound Samples

[TimingPoints]
322,320.855614973262,4,2,1,50,1,0
5455,-100,4,2,1,60,0,0
9947,-100,4,2,2,60,0,0
10268,-100,4,2,1,60,0,0
15081,-100,4,2,2,60,0,0
15402,-100,4,2,1,60,0,0
16043,-100,4,2,1,50,0,0
20856,-100,4,2,1,60,0,0
25990,-100,4,2,1,50,0,0
31124,-100,4,2,1,60,0,0
36257,-100,4,2,1,50,0,0
40749,-100,4,2,2,50,0,0
41070,-100,4,2,1,50,0,0
42674,-100,4,2,1,55,0,0
43958,-100,4,2,1,60,0,0
45241,-100,4,2,2,65,0,0
46525,-100,4,2,1,70,0,1
51017,-100,4,2,2,70,0,1
51338,-100,4,2,1,70,0,1
56150,-100,4,2,2,70,0,1
56471,-100,4,2,1,70,0,1
61284,-100,4,2,2,70,0,1
61605,-100,4,2,1,70,0,1
64493,-100,4,2,1,60,0,0
65134,-100,4,2,1,70,0,0
66418,-100,4,2,2,70,0,0
66739,-100,4,2,1,70,0,0
67059,-100,4,2,1,70,0,1
67140,-100,4,2,1,70,0,0
71551,-100,4,2,2,70,0,0
71712,-100,4,2,1,70,0,0
72193,-100,4,2,1,70,0,1
72273,-100,4,2,1,70,0,0
76685,-100,4,2,2,70,0,0
76846,-100,4,2,1,70,0,0
77327,-100,4,2,1,70,0,1
82140,-100,4,2,2,70,0,1
82461,-100,4,2,1,60,0,0
86311,-100,4,2,1,70,0,1
87273,-100,4,2,1,80,0,0

[Colours]
Combo1 : 255,255,0
Combo2 : 128,255,255
Combo3 : 0,64,128
Combo4 : 106,106,255

[HitObjects]
72,156,322,6,0,L|80:248,1,90,2|8,0:3|0:1,0:0:0:0:
168,248,963,2,0,L|160:156,1,90,2|8,0:3|0:1,0:0:0:0:
216,88,1605,2,0,P|260:76|304:84,1,90,2|8,0:3|0:1,0:0:0:0:
388,120,2247,1,8,0:1:0:0:
420,204,2567,1,8,0:1:0:0:
388,288,2888,6,0,L|299:294,1,90,2|8,0:3|0:1,0:0:0:0:
208,280,3530,2,0,P|184:320|180:368,2,90,2|8|2,0:3|0:1|0:3,0:0:0:0:
268,212,4493,1,8,0:1:0:0:
232,128,4813,1,8,0:1:0:0:
144,108,5134,1,8,0:1:0:0:
68,160,5455,6,0,L|76:252,1,90,12|8,0:0|0:0,0:0:0:0:
152,300,6097,2,0,B|200:292|200:292|240:300,1,90,0|8,1:0|0:0,0:0:0:0:
312,356,6739,2,0,P|263:274|298:201,1,180,8|0,0:0|1:0,0:0:0:0:
354,274,7701,1,8,0:0:0:0:
436,308,8022,6,0,P|460:268|472:224,1,90,12|8,0:0|0:0,0:0:0:0:
400,172,8664,2,0,L|396:80,1,90,0|8,1:0|0:0,0:0:0:0:
312,48,9305,2,0,P|220:59|182:130,1,180,8|4,0:0|1:2,0:0:0:0:
180,220,10268,1,0,1:0:0:0:
96,248,10589,6,0,L|4:240,1,90,12|8,0:0|0:0,0:0:0:0:
20,328,11231,2,0,L|112:336,1,90,0|8,1:0|0:0,0:0:0:0:
196,308,11872,2,0,B|240:304|240:304|328:324|328:324|376:320,1,180,8|0,0:0|1:0,0:0:0:0:
452,284,12835,1,8,0:0:0:0:
400,212,13156,6,0,P|392:168|396:124,1,90,12|8,0:0|0:0,0:0:0:0:
348,44,13797,2,0,L|252:52,1,90,0|8,1:0|0:0,0:0:0:0:
172,24,14439,1,8,0:0:0:0:
104,80,14760,2,0,P|96:124|108:168,2,90,8|4|0,0:0|1:2|1:0,0:0:0:0:
184,120,15723,5,12,0:0:0:0:
208,208,16043,2,0,L|28:204,1,180,8|8,0:1|0:1,0:0:0:0:
4,292,17006,1,2,0:3:0:0:
76,344,17327,2,0,P|112:318|155:308,1,90,8|8,0:1|0:1,0:0:0:0:
236,348,17969,2,0,L|328:360,1,90,8|2,0:1|0:3,0:0:0:0:
404,316,18610,6,0,B|408:272|408:272|392:180|392:180|396:136,1,180,8|8,0:1|0:1,0:0:0:0:
348,60,19573,2,0,P|304:48|260:56,1,90,2|8,0:3|0:1,0:0:0:0:
180,100,20215,2,0,P|136:112|92:104,1,90,0|0,1:0|1:0,0:0:0:0:
12,68,20856,5,12,0:0:0:0:
20,156,21177,2,0,L|32:336,1,180,0|0,1:0|1:0,0:0:0:0:
116,368,22140,1,8,0:0:0:0:
180,304,22461,2,0,B|228:296|228:296|272:304,2,90,0|0|0,1:0|1:0|1:0,0:0:0:0:
108,248,23423,5,12,0:0:0:0:
192,212,23744,2,0,L|208:32,1,180,0|0,1:0|1:0,0:0:0:0:
292,0,24707,1,8,0:0:0:0:
364,52,25027,2,0,P|416:44|452:24,2,90,0|0|0,1:0|1:0|1:0,0:0:0:0:
284,92,25990,5,12,0:0:0:0:
360,140,26311,2,0,L|344:320,1,180,8|8,0:1|0:1,0:0:0:0:
272,372,27273,1,2,0:3:0:0:
196,324,27594,2,0,L|104:316,2,90,8|8|8,0:1|0:1|0:1,0:0:0:0:
244,248,28557,5,2,0:3:0:0:
224,160,28878,2,0,P|136:128|64:172,1,180,8|8,0:1|0:1,0:0:0:0:
36,252,29840,2,0,L|44:348,1,90,2|8,0:3|0:1,0:0:0:0:
132,352,30482,2,0,L|124:256,1,90,0|0,1:0|1:0,0:0:0:0:
180,192,31124,5,12,0:0:0:0:
260,232,31444,2,0,B|348:216|348:216|392:224|392:224|440:216,1,180,0|0,1:0|1:0,0:0:0:0:
488,144,32407,1,8,0:0:0:0:
408,100,32728,2,0,P|424:56|424:8,2,90,0|0|0,1:0|1:0|1:0,0:0:0:0:
320,96,33690,5,12,0:0:0:0:
252,152,34011,2,0,L|268:332,1,180,0|0,1:0|1:0,0:0:0:0:
352,364,34974,1,8,0:0:0:0:
412,296,35295,2,0,P|456:288|500:300,2,90,0|0|0,1:0|1:0|1:0,0:0:0:0:
324,276,36257,6,0,L|308:140,2,135,12|8|8,0:0|0:0|0:0,0:0:0:0:
264,344,37541,2,0,P|220:328|176:328,1,90,8|8,0:0|0:0,0:0:0:0:
88,312,38182,2,0,L|76:216,1,90,0|8,1:0|0:0,0:0:0:0:
148,168,38824,6,0,L|160:32,2,135,12|8|8,0:0|0:0|0:0,0:0:0:0:
216,228,40108,2,0,P|260:236|304:224,1,90,8|8,0:0|0:0,0:0:0:0:
364,160,40749,2,0,L|452:180,1,90,4|8,1:2|0:0,0:0:0:0:
512,248,41391,6,0,L|500:108,2,135,12|8|8,0:0|0:0|0:0,0:0:0:0:
476,328,42674,2,0,P|432:344|388:340,1,90,8|8,0:0|0:0,0:0:0:0:
316,288,43316,2,0,L|224:304,1,90,8|8,0:0|0:0,0:0:0:0:
140,284,43958,6,0,P|100:228|108:160,2,135,12|8|12,0:0|0:0|0:0,0:0:0:0:
185,206,45241,2,0,L|200:20,2,180,12|12|12,0:0|0:0|0:0,0:0:0:0:
252,268,46846,6,0,P|344:260|381:188,1,180,0|0,1:0|1:0,0:0:0:0:
372,100,47808,1,0,0:0:0:0:
296,52,48129,2,0,L|112:84,1,180,0|0,1:0|1:0,0:0:0:0:
32,104,49092,5,0,0:0:0:0:
96,164,49412,2,0,B|104:208|104:208|96:300|96:300|102:344,1,180,0|0,1:0|1:0,0:0:0:0:
184,375,50375,2,0,P|228:363|264:335,1,90,0|0,0:0|1:0,0:0:0:0:
296,252,51017,1,4,1:2:0:0:
256,172,51338,1,0,1:0:0:0:
300,92,51658,5,12,0:0:0:0:
384,120,51979,2,0,L|400:300,1,180,0|0,1:0|1:0,0:0:0:0:
344,372,52942,1,0,0:0:0:0:
288,300,53263,2,0,B|240:292|212:264|212:264|213:312|164:344,1,180,0|0,1:0|1:0,0:0:0:0:
124,264,54225,5,0,0:0:0:0:
36,276,54546,2,0,P|72:192|152:180,1,180,0|0,1:0|1:0,0:0:0:0:
240,192,55509,1,0,0:0:0:0:
300,124,55830,2,0,P|316:80|320:36,2,90,0|4|0,1:0|1:2|1:0,0:0:0:0:
268,208,56792,5,12,0:0:0:0:
352,240,57113,2,0,L|444:248,2,90,0|8|0,1:0|0:0|1:0,0:0:0:0:
284,296,58076,2,0,L|192:304,1,90,8|0,0:0|1:0,0:0:0:0:
108,277,58717,1,0,1:0:0:0:
68,196,59038,1,4,1:2:0:0:
100,112,59359,5,8,0:0:0:0:
192,112,59680,2,0,L|200:204,2,90,0|8|0,1:0|0:0|1:0,0:0:0:0:
240,36,60642,2,0,P|282:24|328:32,1,90,8|0,0:0|1:0,0:0:0:0:
368,112,61284,2,0,B|360:156|360:156|368:200,1,90,12|12,0:0|0:0,0:0:0:0:
432,264,61926,6,0,P|348:232|280:288,1,180,8|8,0:0|0:0,0:0:0:0:
220,348,62888,1,0,1:0:0:0:
144,300,63209,2,0,L|136:120,1,180,0|8,1:0|0:0,0:0:0:0:
188,48,64172,1,8,0:0:0:0:
256,108,64493,6,0,B|300:104|300:104|388:128|388:128|436:124,1,180,12|0,0:0|1:0,0:0:0:0:
448,260,65616,2,0,P|388:292|324:280,1,135,0|0,1:0|0:0,0:0:0:0:
244,240,66418,2,0,L|156:256,1,90,12|8,0:0|0:0,0:0:0:0:
68,244,67059,6,0,P|48:200|40:156,1,90,12|0,0:0|1:0,0:0:0:0:
48,68,67701,1,8,0:0:0:0:
128,24,68022,1,0,1:0:0:0:
200,80,68343,2,0,P|248:88|288:80,1,90,8|0,0:0|1:0,0:0:0:0:
380,80,68985,2,0,L|372:172,1,90,8|0,0:0|1:0,0:0:0:0:
432,236,69626,5,8,0:0:0:0:
408,324,69947,1,0,1:0:0:0:
320,340,70268,2,0,B|228:328|228:328|184:340,2,135,8|0|0,0:0|0:0|1:0,0:0:0:0:
400,296,71551,2,0,P|416:252|416:208,1,90,4|0,1:2|1:0,0:0:0:0:
352,148,72193,6,0,L|260:144,1,90,12|0,0:0|1:0,0:0:0:0:
172,140,72835,1,8,0:0:0:0:
170,230,73156,1,0,1:0:0:0:
256,256,73477,2,0,P|272:296|268:344,1,90,8|0,0:0|1:0,0:0:0:0:
180,352,74118,2,0,L|88:360,1,90,8|0,0:0|1:0,0:0:0:0:
20,300,74760,6,0,P|8:256|4:212,1,90,8|0,0:0|1:0,0:0:0:0:
80,164,75402,2,0,B|92:72|92:72|84:28,2,135,8|0|0,0:0|0:0|1:0,0:0:0:0:
140,232,76685,1,4,1:2:0:0:
224,204,77006,1,0,1:0:0:0:
264,124,77327,6,0,L|256:32,1,90,12|0,0:0|1:0,0:0:0:0:
348,32,77969,2,0,L|356:124,1,90,0|0,1:0|1:0,0:0:0:0:
428,176,78610,2,0,P|440:220|436:264,1,90,0|0,1:0|1:0,0:0:0:0:
396,344,79252,1,0,1:0:0:0:
308,368,79573,1,0,1:0:0:0:
236,316,79894,6,0,L|144:328,1,90,4|0,1:2|1:0,0:0:0:0:
60,312,80535,2,0,P|40:272|28:228,1,90,0|0,1:0|1:0,0:0:0:0:
64,148,81177,2,0,P|84:104|96:64,1,90,0|0,1:0|1:0,0:0:0:0:
176,20,81819,1,0,1:0:0:0:
236,88,82140,1,4,1:2:0:0:
204,172,82461,5,12,0:0:0:0:
292,160,82781,2,0,L|476:144,2,180,2|2|2,0:0|0:0|0:0,0:0:0:0:
204,172,84386,2,0,P|196:216|208:260,2,90,2|2|0,0:0|0:0|0:0,0:0:0:0:
172,88,85348,2,0,P|96:68|24:128,1,180,2|2,0:0|0:0,0:0:0:0:
68,208,86311,6,0,L|56:300,1,90,12|8,1:2|0:0,0:0:0:0:
124,360,86953,1,12,1:2:0:0:
212,340,87273,1,12,0:0:0:0:
