osu file format v14

[General]
AudioFilename: bladedanceed.mp3
AudioLeadIn: 0
PreviewTime: 46525
Countdown: 0
SampleSet: Normal
StackLeniency: 0.7
Mode: 1
LetterboxInBreaks: 0
WidescreenStoryboard: 0

[Editor]
DistanceSpacing: 1.4
BeatDivisor: 4
GridSize: 32
TimelineZoom: 1.2

[Metadata]
Title:Blade Dance
TitleUnicode:精霊剣舞祭
Artist:Ni-Sokkususu
ArtistUnicode:にーそっくすす
Creator:Bearizm
Version:Nardo's Muzukashii
Source:精霊使いの剣舞
Tags:Nardoxyribonucleic seirei tsukai no blade dance bladedance of elementalers anime ending tv size kneesocks knee socks kido ibuki yuuki kana ishigami shizuka oonishi saori kakuma ai
BeatmapID:819315
BeatmapSetID:372851

[Difficulty]
HPDrainRate:5
CircleSize:5
OverallDifficulty:4
ApproachRate:5
SliderMultiplier:1.4
SliderTickRate:1

[Events]
//Background and Video events
0,0,"Blade Dance.jpg",0,45
Video,140,"video.avi"
//Break Periods
//Storyboard Layer 0 (Background)
//Storyboard Layer 1 (Fail)
//Storyboard Layer 2 (Pass)
//Storyboard Layer 3 (Foreground)
//Storyboard Sound Samples

[TimingPoints]
322,320.855614973262,4,1,0,50,1,0
5455,-100,4,1,0,75,0,0
15723,-100,4,1,0,60,0,0
20856,-100,4,1,0,75,0,0
25990,-100,4,1,0,60,0,0
31124,-100,4,1,0,75,0,0
36257,-100,4,1,0,70,0,0
41391,-100,4,1,0,80,0,0
46525,-100,4,1,0,90,0,1
67059,-100,4,1,0,80,0,0
82461,-100,4,1,0,70,0,0

[Colours]
Combo1 : 68,68,255
Combo2 : 128,255,255
Combo3 : 0,64,128
Combo4 : 192,192,192
Combo5 : 128,128,128
Combo6 : 128,128,255

[HitObjects]
256,192,322,5,0,0:0:0:0:
256,192,642,1,8,0:0:0:0:
256,192,803,1,0,0:0:0:0:
256,192,963,1,8,0:0:0:0:
256,192,1284,1,8,0:0:0:0:
256,192,1605,1,0,0:0:0:0:
256,192,1926,1,8,0:0:0:0:
256,192,2086,1,0,0:0:0:0:
256,192,2247,1,8,0:0:0:0:
256,192,2407,1,8,0:0:0:0:
256,192,2567,1,0,0:0:0:0:
256,192,2888,1,0,0:0:0:0:
256,192,3209,1,8,0:0:0:0:
256,192,3370,1,0,0:0:0:0:
256,192,3530,1,8,0:0:0:0:
256,192,3851,1,8,0:0:0:0:
256,192,4011,1,0,0:0:0:0:
256,192,4172,1,0,0:0:0:0:
256,192,4493,1,8,0:0:0:0:
256,192,4653,1,0,0:0:0:0:
256,192,4813,1,8,0:0:0:0:
256,192,5134,1,8,0:0:0:0:
256,192,5455,1,4,0:0:0:0:
256,192,5776,1,8,0:0:0:0:
256,192,5936,1,0,0:0:0:0:
256,192,6097,1,8,0:0:0:0:
256,192,6418,1,8,0:0:0:0:
256,192,6578,1,0,0:0:0:0:
256,192,6658,1,0,0:0:0:0:
256,192,6739,1,0,0:0:0:0:
256,192,6899,1,0,0:0:0:0:
256,192,7059,1,8,0:0:0:0:
256,192,7220,1,0,0:0:0:0:
256,192,7380,1,8,0:0:0:0:
256,192,7701,1,8,0:0:0:0:
256,192,8022,1,4,0:0:0:0:
256,192,8343,1,8,0:0:0:0:
256,192,8503,1,0,0:0:0:0:
256,192,8664,1,8,0:0:0:0:
256,192,8985,1,8,0:0:0:0:
256,192,9145,1,0,0:0:0:0:
256,192,9306,1,8,0:0:0:0:
256,192,9466,1,8,0:0:0:0:
256,192,9546,1,8,0:0:0:0:
256,192,9626,1,8,0:0:0:0:
256,192,9787,1,0,0:0:0:0:
256,192,9947,1,12,0:0:0:0:
256,192,10268,1,12,0:0:0:0:
256,192,10589,1,4,0:0:0:0:
256,192,10910,1,8,0:0:0:0:
256,192,11070,1,0,0:0:0:0:
256,192,11231,1,8,0:0:0:0:
256,192,11552,1,8,0:0:0:0:
256,192,11712,1,0,0:0:0:0:
256,192,11792,1,0,0:0:0:0:
256,192,11873,1,0,0:0:0:0:
256,192,12033,1,0,0:0:0:0:
256,192,12193,1,8,0:0:0:0:
256,192,12354,1,0,0:0:0:0:
256,192,12514,1,8,0:0:0:0:
256,192,12835,1,8,0:0:0:0:
256,192,13156,1,4,0:0:0:0:
256,192,13477,1,8,0:0:0:0:
256,192,13637,1,0,0:0:0:0:
256,192,13798,1,8,0:0:0:0:
256,192,14119,1,8,0:0:0:0:
256,192,14279,1,0,0:0:0:0:
256,192,14440,1,0,0:0:0:0:
256,192,14600,1,8,0:0:0:0:
256,192,14680,1,8,0:0:0:0:
256,192,14760,1,8,0:0:0:0:
256,192,14920,1,0,0:0:0:0:
256,192,15081,1,12,0:0:0:0:
256,192,15402,1,12,0:0:0:0:
256,192,15723,1,4,0:0:0:0:
256,192,16043,1,8,0:0:0:0:
256,192,16364,1,0,0:0:0:0:
256,192,16685,1,8,0:0:0:0:
256,192,16846,1,0,0:0:0:0:
256,192,17166,1,0,0:0:0:0:
256,192,17327,1,8,0:0:0:0:
256,192,17648,1,8,0:0:0:0:
256,192,17969,1,0,0:0:0:0:
256,192,18610,1,8,0:0:0:0:
256,192,18931,1,0,0:0:0:0:
256,192,19252,1,0,0:0:0:0:
256,192,19412,1,8,0:0:0:0:
256,192,19733,1,8,0:0:0:0:
256,192,19894,1,0,0:0:0:0:
256,192,20215,1,0,0:0:0:0:
256,192,20535,1,8,0:0:0:0:
256,192,20856,1,4,0:0:0:0:
256,192,21177,1,8,0:0:0:0:
256,192,21498,1,0,0:0:0:0:
256,192,21819,1,8,0:0:0:0:
256,192,21979,1,8,0:0:0:0:
256,192,22059,1,8,0:0:0:0:
256,192,22140,1,8,0:0:0:0:
256,192,22300,1,0,0:0:0:0:
256,192,22461,1,8,0:0:0:0:
256,192,22621,1,0,0:0:0:0:
256,192,22781,1,8,0:0:0:0:
256,192,23102,1,12,0:0:0:0:
256,192,23423,1,4,0:0:0:0:
256,192,23744,1,8,0:0:0:0:
256,192,24065,1,0,0:0:0:0:
256,192,24386,1,8,0:0:0:0:
256,192,24546,1,0,0:0:0:0:
256,192,24626,1,0,0:0:0:0:
256,192,24707,1,0,0:0:0:0:
256,192,24867,1,0,0:0:0:0:
256,192,25027,1,8,0:0:0:0:
256,192,25188,1,0,0:0:0:0:
256,192,25348,1,8,0:0:0:0:
256,192,25669,1,8,0:0:0:0:
256,192,25990,1,4,0:0:0:0:
256,192,26311,1,8,0:0:0:0:
256,192,26632,1,0,0:0:0:0:
256,192,26953,1,8,0:0:0:0:
256,192,27114,1,0,0:0:0:0:
256,192,27434,1,8,0:0:0:0:
256,192,27755,1,0,0:0:0:0:
256,192,27916,1,8,0:0:0:0:
256,192,28237,1,0,0:0:0:0:
256,192,28878,1,8,0:0:0:0:
256,192,29199,1,0,0:0:0:0:
256,192,29520,1,0,0:0:0:0:
256,192,29680,1,8,0:0:0:0:
256,192,30001,1,0,0:0:0:0:
256,192,30321,1,8,0:0:0:0:
256,192,30482,1,0,0:0:0:0:
256,192,30803,1,8,0:0:0:0:
256,192,31124,1,4,0:0:0:0:
256,192,31444,1,8,0:0:0:0:
256,192,31765,1,0,0:0:0:0:
256,192,32086,1,8,0:0:0:0:
256,192,32246,1,8,0:0:0:0:
256,192,32327,1,8,0:0:0:0:
256,192,32407,1,8,0:0:0:0:
256,192,32567,1,0,0:0:0:0:
256,192,32728,1,8,0:0:0:0:
256,192,32888,1,0,0:0:0:0:
256,192,33048,1,8,0:0:0:0:
256,192,33369,1,12,0:0:0:0:
256,192,33690,1,4,0:0:0:0:
256,192,34011,1,8,0:0:0:0:
256,192,34332,1,0,0:0:0:0:
256,192,34653,1,8,0:0:0:0:
256,192,34813,1,0,0:0:0:0:
256,192,34894,1,0,0:0:0:0:
256,192,34974,1,0,0:0:0:0:
256,192,35134,1,0,0:0:0:0:
256,192,35294,1,8,0:0:0:0:
256,192,35455,1,8,0:0:0:0:
256,192,35615,1,0,0:0:0:0:
256,192,35936,1,8,0:0:0:0:
256,192,36257,1,4,0:0:0:0:
256,192,36739,1,8,0:0:0:0:
256,192,37220,1,8,0:0:0:0:
256,192,37862,1,8,0:0:0:0:
256,192,38182,1,0,0:0:0:0:
256,192,38503,1,8,0:0:0:0:
256,192,38824,1,4,0:0:0:0:
256,192,39305,1,8,0:0:0:0:
256,192,39787,1,0,0:0:0:0:
256,192,40428,1,0,0:0:0:0:
256,192,40749,1,8,0:0:0:0:
256,192,41070,1,0,0:0:0:0:
256,192,41391,1,4,0:0:0:0:
256,192,41712,1,0,0:0:0:0:
256,192,41872,1,0,0:0:0:0:
256,192,42033,1,8,0:0:0:0:
256,192,42354,1,8,0:0:0:0:
256,192,42514,1,8,0:0:0:0:
256,192,42674,1,0,0:0:0:0:
256,192,42995,1,8,0:0:0:0:
256,192,43156,1,0,0:0:0:0:
256,192,43316,1,8,0:0:0:0:
256,192,43477,1,0,0:0:0:0:
256,192,43637,1,8,0:0:0:0:
256,192,43797,1,8,0:0:0:0:
256,192,43958,1,4,0:0:0:0:
256,192,44279,1,8,0:0:0:0:
256,192,44439,1,8,0:0:0:0:
256,192,44600,1,0,0:0:0:0:
256,192,44680,1,0,0:0:0:0:
256,192,44760,1,0,0:0:0:0:
256,192,44920,1,8,0:0:0:0:
256,192,45081,1,8,0:0:0:0:
256,192,45241,1,4,0:0:0:0:
256,192,45562,1,8,0:0:0:0:
256,192,45642,1,8,0:0:0:0:
256,192,45723,1,8,0:0:0:0:
256,192,45883,1,4,0:0:0:0:
256,192,46204,1,8,0:0:0:0:
256,192,46525,1,4,0:0:0:0:
256,192,46846,1,8,0:0:0:0:
256,192,46926,1,8,0:0:0:0:
256,192,47006,1,8,0:0:0:0:
256,192,47166,1,8,0:0:0:0:
256,192,47327,1,0,0:0:0:0:
256,192,47487,1,8,0:0:0:0:
256,192,47648,1,4,0:0:0:0:
256,192,47969,1,0,0:0:0:0:
256,192,48129,1,8,0:0:0:0:
256,192,48209,1,8,0:0:0:0:
256,192,48289,1,8,0:0:0:0:
256,192,48450,1,8,0:0:0:0:
256,192,48610,1,0,0:0:0:0:
256,192,48771,1,8,0:0:0:0:
256,192,48931,1,4,0:0:0:0:
256,192,49252,1,0,0:0:0:0:
256,192,49412,1,8,0:0:0:0:
256,192,49493,1,8,0:0:0:0:
256,192,49573,1,8,0:0:0:0:
256,192,49733,1,8,0:0:0:0:
256,192,49894,1,0,0:0:0:0:
256,192,50054,1,8,0:0:0:0:
256,192,50215,1,12,0:0:0:0:
256,192,50535,1,8,0:0:0:0:
256,192,50696,1,0,0:0:0:0:
256,192,50856,1,8,0:0:0:0:
256,192,51017,1,0,0:0:0:0:
256,192,51338,1,8,0:0:0:0:
256,192,51658,1,4,0:0:0:0:
256,192,51979,1,8,0:0:0:0:
256,192,52140,1,0,0:0:0:0:
256,192,52220,1,0,0:0:0:0:
256,192,52300,1,0,0:0:0:0:
256,192,52461,1,0,0:0:0:0:
256,192,52621,1,8,0:0:0:0:
256,192,52781,1,4,0:0:0:0:
256,192,53102,1,0,0:0:0:0:
256,192,53263,1,8,0:0:0:0:
256,192,53423,1,0,0:0:0:0:
256,192,53503,1,0,0:0:0:0:
256,192,53584,1,0,0:0:0:0:
256,192,53744,1,0,0:0:0:0:
256,192,53904,1,8,0:0:0:0:
256,192,54065,1,4,0:0:0:0:
256,192,54386,1,0,0:0:0:0:
256,192,54546,1,8,0:0:0:0:
256,192,54707,1,8,0:0:0:0:
256,192,54787,1,8,0:0:0:0:
256,192,54867,1,8,0:0:0:0:
256,192,55027,1,0,0:0:0:0:
256,192,55188,1,8,0:0:0:0:
256,192,55348,1,12,0:0:0:0:
256,192,55669,1,0,0:0:0:0:
256,192,55830,1,8,0:0:0:0:
256,192,55990,1,0,0:0:0:0:
256,192,56150,1,8,0:0:0:0:
256,192,56471,1,8,0:0:0:0:
256,192,56792,1,4,0:0:0:0:
256,192,57113,1,8,0:0:0:0:
256,192,57273,1,0,0:0:0:0:
256,192,57434,1,8,0:0:0:0:
256,192,57594,1,0,0:0:0:0:
256,192,57674,1,0,0:0:0:0:
256,192,57755,1,0,0:0:0:0:
256,192,57915,1,8,0:0:0:0:
256,192,58236,1,8,0:0:0:0:
256,192,58396,1,0,0:0:0:0:
256,192,58557,1,8,0:0:0:0:
256,192,58717,1,0,0:0:0:0:
256,192,59038,1,12,0:0:0:0:
256,192,59359,1,4,0:0:0:0:
256,192,59680,1,0,0:0:0:0:
256,192,59840,1,0,0:0:0:0:
256,192,60001,1,8,0:0:0:0:
256,192,60161,1,8,0:0:0:0:
256,192,60241,1,8,0:0:0:0:
256,192,60321,1,8,0:0:0:0:
256,192,60482,1,0,0:0:0:0:
256,192,60803,1,0,0:0:0:0:
256,192,60963,1,8,0:0:0:0:
256,192,61124,1,0,0:0:0:0:
256,192,61284,1,12,0:0:0:0:
256,192,61605,1,12,0:0:0:0:
256,192,61926,1,0,0:0:0:0:
256,192,62247,1,8,0:0:0:0:
256,192,62407,1,8,0:0:0:0:
256,192,62567,1,0,0:0:0:0:
256,192,62888,1,0,0:0:0:0:
256,192,63049,1,0,0:0:0:0:
256,192,63209,1,8,0:0:0:0:
256,192,63530,1,8,0:0:0:0:
256,192,63690,1,8,0:0:0:0:
256,192,63851,1,0,0:0:0:0:
256,192,63931,1,0,0:0:0:0:
256,192,64011,1,0,0:0:0:0:
256,192,64172,1,8,0:0:0:0:
256,192,64252,1,8,0:0:0:0:
256,192,64332,1,8,0:0:0:0:
256,192,64493,1,4,0:0:0:0:
256,192,65134,1,12,0:0:0:0:
256,192,65295,1,4,0:0:0:0:
256,192,65455,1,12,0:0:0:0:
256,192,65616,1,12,0:0:0:0:
256,192,65936,1,8,0:0:0:0:
256,192,66097,1,8,0:0:0:0:
256,192,66257,1,0,0:0:0:0:
256,192,66418,1,12,0:0:0:0:
256,192,66739,1,12,0:0:0:0:
256,192,67059,1,4,0:0:0:0:
256,192,67380,1,8,0:0:0:0:
256,192,67541,1,0,0:0:0:0:
256,192,67701,1,8,0:0:0:0:
256,192,68022,1,8,0:0:0:0:
256,192,68182,1,0,0:0:0:0:
256,192,68263,1,0,0:0:0:0:
256,192,68343,1,0,0:0:0:0:
256,192,68503,1,0,0:0:0:0:
256,192,68664,1,8,0:0:0:0:
256,192,68824,1,0,0:0:0:0:
256,192,68985,1,8,0:0:0:0:
256,192,69305,1,8,0:0:0:0:
256,192,69626,1,0,0:0:0:0:
256,192,69947,1,8,0:0:0:0:
256,192,70108,1,0,0:0:0:0:
256,192,70268,1,8,0:0:0:0:
256,192,70428,1,0,0:0:0:0:
256,192,70589,1,8,0:0:0:0:
256,192,70669,1,8,0:0:0:0:
256,192,70749,1,8,0:0:0:0:
256,192,71070,1,8,0:0:0:0:
256,192,71231,1,8,0:0:0:0:
256,192,71391,1,0,0:0:0:0:
256,192,71551,1,12,0:0:0:0:
256,192,71872,1,12,0:0:0:0:
256,192,72193,1,4,0:0:0:0:
256,192,72514,1,8,0:0:0:0:
256,192,72675,1,0,0:0:0:0:
256,192,72835,1,8,0:0:0:0:
256,192,73156,1,8,0:0:0:0:
256,192,73316,1,0,0:0:0:0:
256,192,73396,1,0,0:0:0:0:
256,192,73477,1,0,0:0:0:0:
256,192,73637,1,0,0:0:0:0:
256,192,73798,1,8,0:0:0:0:
256,192,73958,1,0,0:0:0:0:
256,192,74119,1,8,0:0:0:0:
256,192,74439,1,8,0:0:0:0:
256,192,74760,1,0,0:0:0:0:
256,192,75081,1,8,0:0:0:0:
256,192,75242,1,0,0:0:0:0:
256,192,75402,1,8,0:0:0:0:
256,192,75562,1,0,0:0:0:0:
256,192,75723,1,8,0:0:0:0:
256,192,75803,1,8,0:0:0:0:
256,192,75883,1,8,0:0:0:0:
256,192,76204,1,8,0:0:0:0:
256,192,76365,1,8,0:0:0:0:
256,192,76525,1,0,0:0:0:0:
256,192,76685,1,12,0:0:0:0:
256,192,77006,1,12,0:0:0:0:
256,192,77327,1,4,0:0:0:0:
256,192,77648,1,8,0:0:0:0:
256,192,77808,1,0,0:0:0:0:
256,192,77969,1,8,0:0:0:0:
256,192,78289,1,8,0:0:0:0:
256,192,78450,1,0,0:0:0:0:
256,192,78610,1,0,0:0:0:0:
256,192,78931,1,8,0:0:0:0:
256,192,79092,1,0,0:0:0:0:
256,192,79252,1,8,0:0:0:0:
256,192,79412,1,8,0:0:0:0:
256,192,79573,1,0,0:0:0:0:
256,192,79894,1,0,0:0:0:0:
256,192,80215,1,8,0:0:0:0:
256,192,80375,1,0,0:0:0:0:
256,192,80535,1,8,0:0:0:0:
256,192,80856,1,8,0:0:0:0:
256,192,81177,1,0,0:0:0:0:
256,192,81498,1,8,0:0:0:0:
256,192,81658,1,0,0:0:0:0:
256,192,81819,1,8,0:0:0:0:
256,192,81979,1,8,0:0:0:0:
256,192,82140,1,0,0:0:0:0:
256,192,82461,1,4,0:0:0:0:
256,192,82781,1,8,0:0:0:0:
256,192,83102,1,0,0:0:0:0:
256,192,83263,1,0,0:0:0:0:
256,192,83423,1,8,0:0:0:0:
256,192,83744,1,0,0:0:0:0:
256,192,84065,1,8,0:0:0:0:
256,192,84225,1,0,0:0:0:0:
256,192,84386,1,8,0:0:0:0:
256,192,84707,1,8,0:0:0:0:
256,192,85027,1,0,0:0:0:0:
256,192,85348,1,8,0:0:0:0:
256,192,85669,1,0,0:0:0:0:
256,192,85830,1,0,0:0:0:0:
256,192,85990,1,8,0:0:0:0:
256,192,86311,1,0,0:0:0:0:
256,192,86471,1,8,0:0:0:0:
256,192,86632,1,0,0:0:0:0:
256,192,86792,1,0,0:0:0:0:
256,192,86953,1,8,0:0:0:0:
256,192,87113,1,0,0:0:0:0:
256,192,87273,1,12,0:0:0:0:
