osu file format v14

[General]
AudioFilename: bladedanceed.mp3
AudioLeadIn: 0
PreviewTime: 46525
Countdown: 0
SampleSet: Soft
StackLeniency: 0.7
Mode: 0
LetterboxInBreaks: 0
WidescreenStoryboard: 0

[Editor]
DistanceSpacing: 1.4
BeatDivisor: 4
GridSize: 4
TimelineZoom: 1.7

[Metadata]
Title:Blade Dance
TitleUnicode:精霊剣舞祭
Artist:Ni-Sokkususu
ArtistUnicode:にーそっくすす
Creator:Bearizm
Version:Kneesocks
Source:精霊使いの剣舞
Tags:Nardoxyribonucleic seirei tsukai no blade dance bladedance of elementalers anime ending tv size kneesocks knee socks kido ibuki yuuki kana ishigami shizuka oonishi saori kakuma ai
BeatmapID:816600
BeatmapSetID:372851

[Difficulty]
HPDrainRate:6
CircleSize:4.2
OverallDifficulty:9
ApproachRate:9.4
SliderMultiplier:1.6
SliderTickRate:1

[Events]
//Background and Video events
0,0,"Blade Dance.jpg",0,0
Video,140,"video.avi"
//Break Periods
//Storyboard Layer 0 (Background)
//Storyboard Layer 1 (Fail)
//Storyboard Layer 2 (Pass)
//Storyboard Layer 3 (Foreground)
//Storyboard Sound Samples

[TimingPoints]
322,320.855614973262,4,2,1,50,1,0
4733,-100,4,2,1,5,0,0
4813,-100,4,2,1,50,0,0
5054,-100,4,2,1,5,0,0
5134,-100,4,2,1,50,0,0
5455,-100,4,2,1,60,0,0
7942,-100,4,2,1,5,0,0
8022,-100,4,2,1,60,0,0
9947,-100,4,2,2,60,0,0
10188,-100,4,2,2,5,0,0
10268,-100,4,2,1,60,0,0
15081,-100,4,2,2,60,0,0
15241,-100,4,2,1,60,0,0
16043,-100,4,2,1,50,0,0
20856,-100,4,2,1,60,0,0
25990,-100,4,2,1,50,0,0
31124,-100,4,2,1,60,0,0
36257,-133.333333333333,4,2,1,50,0,0
40749,-133.333333333333,4,2,2,50,0,0
40910,-133.333333333333,4,2,1,50,0,0
41391,-100,4,2,1,50,0,0
42674,-100,4,2,1,55,0,0
43958,-100,4,2,1,60,0,0
45241,-200,4,2,2,65,0,0
45482,-200,4,2,2,5,0,0
45562,-100,4,2,1,65,0,0
45883,-100,4,2,2,65,0,0
46525,-100,4,2,1,70,0,1
51017,-100,4,2,2,70,0,1
51177,-100,4,2,1,70,0,1
56150,-100,4,2,2,70,0,1
56311,-100,4,2,1,70,0,1
61284,-100,4,2,2,70,0,1
61444,-100,4,2,1,70,0,1
64493,-133.333333333333,4,2,1,60,0,0
65134,-100,4,2,1,70,0,0
66418,-100,4,2,2,70,0,0
66658,-100,4,2,2,5,0,0
66739,-100,4,2,1,70,0,0
66979,-100,4,2,1,5,0,0
67059,-100,4,2,1,70,0,1
67140,-100,4,2,1,70,0,0
71551,-100,4,2,2,70,0,0
71712,-100,4,2,1,70,0,0
72193,-100,4,2,1,70,0,1
72273,-100,4,2,1,70,0,0
76685,-100,4,2,2,70,0,0
76846,-100,4,2,1,70,0,0
77327,-100,4,2,1,70,0,1
82140,-100,4,2,2,70,0,1
82300,-100,4,2,1,70,0,1
82461,-133.333333333333,4,2,1,60,0,0
86311,-100,4,2,1,70,0,1
87273,-200,4,2,1,80,0,0
87354,-200,4,2,1,5,0,0
88076,-200,4,2,3,100,0,0

[Colours]
Combo1 : 255,255,0
Combo2 : 128,255,255
Combo3 : 0,64,128
Combo4 : 106,106,255

[HitObjects]
196,12,322,5,2,0:3:0:0:
264,80,482,1,0,0:0:0:0:
192,144,642,2,0,L|112:132,1,80,8|0,0:1|0:0,0:0:0:0:
252,284,963,2,0,B|260:244|260:244|256:204,1,80,2|0,0:3|0:0,0:0:0:0:
160,240,1284,1,8,0:1:0:0:
160,240,1444,1,0,0:0:0:0:
264,304,1605,6,0,L|344:296,2,80,2|0|8,0:3|0:0|0:1,0:0:0:0:
184,360,2086,1,0,0:0:0:0:
72,240,2247,1,8,0:1:0:0:
160,240,2407,1,0,0:0:0:0:
40,324,2567,1,8,0:1:0:0:
40,324,2888,69,2,0:3:0:0:
72,240,3049,1,0,0:0:0:0:
8,176,3209,1,8,0:1:0:0:
48,348,3370,1,0,0:0:0:0:
144,160,3530,2,0,P|156:120|160:80,1,80,2|0,0:3|0:0,0:0:0:0:
240,216,3851,2,0,P|248:256|264:296,1,80,8|0,0:1|0:0,0:0:0:0:
368,336,4172,5,2,0:3:0:0:
368,336,4332,1,0,0:0:0:0:
448,188,4493,2,0,P|408:176|340:212,1,120,8|0,0:1|0:0,0:0:0:0:
304,272,4813,2,0,L|296:152,1,120,8|0,0:1|0:0,0:0:0:0:
220,224,5134,2,0,B|180:232|180:232|140:224,1,80,8|0,0:1|0:0,0:0:0:0:
64,152,5455,5,12,0:0:0:0:
160,312,5616,1,0,0:0:0:0:
172,128,5776,1,8,0:0:0:0:
32,268,5936,1,0,0:0:0:0:
184,324,6097,2,0,L|264:316,1,80,0|0,1:0|0:0,0:0:0:0:
372,272,6418,2,0,L|360:352,1,80,8|0,0:0|0:0,0:0:0:0:
456,300,6739,5,8,0:0:0:0:
284,220,6899,1,0,1:0:0:0:
460,328,7059,1,8,0:0:0:0:
263,316,7220,1,0,0:0:0:0:
440,220,7380,2,0,L|428:140,1,80,0|0,1:0|0:0,0:0:0:0:
284,16,7701,2,0,P|324:24|352:92,1,120,8|0,0:0|0:0,0:0:0:0:
280,136,8022,70,0,P|240:128|200:128,1,80,12|0,0:0|0:0,0:0:0:0:
48,120,8343,2,0,P|28:84|16:48,1,80,8|0,0:0|0:0,0:0:0:0:
128,200,8664,2,0,P|124:244|116:280,1,80,0|0,1:0|0:0,0:0:0:0:
60,352,8985,1,8,0:0:0:0:
204,268,9145,1,0,1:0:0:0:
32,248,9305,5,8,0:0:0:0:
152,368,9466,1,0,1:0:0:0:
294,246,9626,2,0,P|292:286|280:324,1,80,8|0,0:0|0:0,0:0:0:0:
292,48,9947,2,0,P|328:32|400:68,1,120,4|0,1:2|0:0,0:0:0:0:
420,148,10268,1,0,1:0:0:0:
216,104,10428,1,0,0:0:0:0:
412,172,10589,70,0,P|420:212|436:248,1,80,12|0,0:0|0:0,0:0:0:0:
328,348,10910,2,0,L|248:356,1,80,8|0,0:0|0:0,0:0:0:0:
312,192,11231,2,0,B|316:232|316:232|308:272,1,80,0|0,1:0|0:0,0:0:0:0:
156,324,11551,2,0,B|148:284|148:284|153:243,1,80,8|0,0:0|0:0,0:0:0:0:
224,176,11872,5,8,0:0:0:0:
68,268,12033,1,0,1:0:0:0:
228,148,12193,1,8,0:0:0:0:
276,264,12354,1,0,0:0:0:0:
176,344,12514,2,0,L|92:352,1,80,0|0,1:0|0:0,0:0:0:0:
276,264,12835,2,0,L|356:272,1,80,8|0,0:0|0:0,0:0:0:0:
160,200,13156,70,0,B|144:164|144:164|140:120,1,80,12|0,0:0|0:0,0:0:0:0:
264,32,13477,2,0,L|344:40,1,80,8|0,0:0|0:0,0:0:0:0:
156,104,13797,2,0,L|76:116,1,80,0|0,1:0|0:0,0:0:0:0:
240,144,14118,1,8,0:0:0:0:
104,24,14279,1,0,1:0:0:0:
160,200,14439,5,8,0:0:0:0:
264,32,14600,1,0,1:0:0:0:
48,132,14760,2,0,L|60:216,1,80,8|0,0:0|0:0,0:0:0:0:
327,275,15081,2,0,L|339:195,1,80,4|8,1:2|0:0,0:0:0:0:
32,116,15402,2,0,L|44:200,1,80,0|0,1:0|0:0,0:0:0:0:
248,324,15723,37,12,0:0:0:0:
248,324,16043,2,0,L|240:244,1,80,8|0,0:1|0:0,0:0:0:0:
308,156,16364,2,0,P|352:160|384:176,1,80,2|0,0:3|0:0,0:0:0:0:
468,252,16685,1,8,0:1:0:0:
452,140,16846,2,0,L|440:60,1,80,0|2,0:0|0:3,0:0:0:0:
336,20,17166,5,0,0:0:0:0:
348,180,17327,2,0,P|312:196|272:204,1,80,8|0,0:1|0:0,0:0:0:0:
144,84,17648,2,0,P|175:107|202:137,1,80,8|0,0:1|0:0,0:0:0:0:
166,306,17969,2,0,P|170:266|183:228,1,80,8|0,0:1|0:0,0:0:0:0:
288,104,18289,69,2,0:3:0:0:
288,104,18610,2,0,L|368:112,1,80,8|0,0:1|0:0,0:0:0:0:
468,160,18931,2,0,P|480:200|484:240,1,80,2|0,0:3|0:0,0:0:0:0:
452,344,19252,1,8,0:1:0:0:
328,272,19412,2,0,L|248:280,1,80,0|2,0:0|0:3,0:0:0:0:
88,296,19733,5,0,0:0:0:0:
200,220,19894,1,8,0:1:0:0:
65,310,20054,1,8,0:0:0:0:
92,116,20215,1,0,1:0:0:0:
44,324,20375,1,8,0:0:0:0:
96,92,20535,1,0,1:0:0:0:
96,92,20856,5,12,0:0:0:0:
268,132,21017,1,0,0:0:0:0:
52,184,21177,1,0,1:0:0:0:
220,48,21338,1,0,0:0:0:0:
204,256,21498,2,0,P|164:252|124:240,1,80,8|8,0:0|0:0,0:0:0:0:
52,184,21819,1,0,1:0:0:0:
268,132,21979,6,0,B|280:172|280:172|280:212,1,80,0|8,0:0|0:0,0:0:0:0:
256,320,22300,1,0,0:0:0:0:
376,172,22461,1,0,1:0:0:0:
240,336,22621,1,8,0:0:0:0:
176,184,22781,1,0,1:0:0:0:
372,268,22942,1,8,0:0:0:0:
152,180,23102,2,0,L|72:196,1,80,0|0,1:0|0:0,0:0:0:0:
268,48,23423,6,0,L|352:64,1,80,12|0,0:0|0:0,0:0:0:0:
452,88,23744,1,0,1:0:0:0:
268,144,23904,1,0,0:0:0:0:
476,184,24065,1,8,0:0:0:0:
346,62,24225,1,8,0:0:0:0:
376,244,24386,1,0,1:0:0:0:
452,88,24546,1,0,0:0:0:0:
268,144,24707,6,0,P|224:136|192:120,1,80,8|0,0:0|0:0,0:0:0:0:
120,48,25027,1,0,1:0:0:0:
196,235,25188,1,8,0:0:0:0:
268,48,25348,1,0,1:0:0:0:
184,263,25509,1,8,0:0:0:0:
112,24,25669,2,0,P|76:36|32:40,1,80,0|0,1:0|0:0,0:0:0:0:
196,104,25990,5,12,0:0:0:0:
196,104,26311,2,0,L|188:184,1,80,8|0,0:1|0:0,0:0:0:0:
256,276,26632,2,0,P|293:288|333:289,1,80,2|0,0:3|0:0,0:0:0:0:
406,202,26953,1,8,0:1:0:0:
354,299,27113,2,0,L|345:380,1,80,0|2,0:0|0:3,0:0:0:0:
492,240,27434,5,0,0:0:0:0:
324,168,27594,1,8,0:1:0:0:
354,299,27755,1,0,0:0:0:0:
484,148,27915,2,0,P|496:108|504:64,1,80,8|0,0:1|0:0,0:0:0:0:
324,168,28236,2,0,P|332:208|352:248,1,80,8|0,0:1|0:0,0:0:0:0:
376,80,28557,69,2,0:3:0:0:
376,80,28878,2,0,L|296:88,1,80,8|0,0:1|0:0,0:0:0:0:
180,124,29199,2,0,L|100:116,1,80,2|0,0:3|0:0,0:0:0:0:
248,196,29519,1,8,0:1:0:0:
248,196,29680,2,0,B|256:236|256:236|252:280,1,80,0|2,0:0|0:3,0:0:0:0:
168,336,30001,5,0,0:0:0:0:
328,304,30161,1,8,0:1:0:0:
144,260,30321,1,8,0:0:0:0:
392,360,30482,2,0,P|408:324|420:280,1,80,0|8,1:0|0:0,0:0:0:0:
232,118,30803,2,0,P|236:162|248:198,1,80,0|0,1:0|0:0,0:0:0:0:
356,212,31124,5,12,0:0:0:0:
144,260,31284,1,0,0:0:0:0:
328,304,31444,1,0,1:0:0:0:
247,195,31605,1,0,0:0:0:0:
168,336,31765,2,0,B|128:344|128:344|88:340,1,80,8|8,0:0|0:0,0:0:0:0:
24,248,32086,1,0,1:0:0:0:
252,276,32247,6,0,L|244:356,1,80,0|8,0:0|0:0,0:0:0:0:
144,260,32567,1,0,0:0:0:0:
328,304,32728,1,0,1:0:0:0:
168,336,32888,1,8,0:0:0:0:
247,195,33049,1,0,1:0:0:0:
252,276,33209,1,8,0:0:0:0:
172,100,33370,2,0,P|180:60|200:24,1,80,0|0,1:0|0:0,0:0:0:0:
247,195,33690,70,0,L|168:200,1,80,12|0,0:0|0:0,0:0:0:0:
264,104,34011,1,0,1:0:0:0:
364,240,34172,1,0,0:0:0:0:
384,128,34332,1,8,0:0:0:0:
252,276,34493,1,8,0:0:0:0:
448,372,34653,2,0,P|456:336|456:292,1,80,0|0,1:0|0:0,0:0:0:0:
364,240,34974,5,8,0:0:0:0:
188,344,35134,1,0,0:0:0:0:
247,195,35295,1,0,1:0:0:0:
376,320,35455,1,8,0:0:0:0:
144,264,35616,1,0,1:0:0:0:
392,236,35776,1,8,0:0:0:0:
272,360,35936,1,0,1:0:0:0:
272,360,36257,6,0,L|260:240,1,120.000004577637,12|0,0:0|0:0,0:0:0:0:
312,172,36739,1,8,0:0:0:0:
312,172,36899,2,0,L|316:112,1,60.0000022888184,0|0,1:0|0:0,0:0:0:0:
208,88,37220,1,8,0:0:0:0:
240,12,37380,1,0,1:0:0:0:
184,100,37541,5,8,0:0:0:0:
140,28,37701,1,0,1:0:0:0:
152,176,37862,2,0,L|156:240,1,60.0000022888184,8|0,0:0|0:0,0:0:0:0:
220,288,38182,2,0,L|216:348,2,60.0000022888184,0|0|8,1:0|0:0|0:0,0:0:0:0:
276,224,38664,1,0,0:0:0:0:
304,336,38824,70,0,B|336:332|336:332|395:340|395:340|424:336,1,120.000004577637,12|0,0:0|0:0,0:0:0:0:
484,280,39305,1,8,0:0:0:0:
484,280,39466,2,0,P|492:248|492:220,1,60.0000022888184,0|0,1:0|0:0,0:0:0:0:
408,160,39787,1,8,0:0:0:0:
436,80,39947,1,0,1:0:0:0:
380,172,40108,5,8,0:0:0:0:
352,28,40268,1,0,1:0:0:0:
436,80,40428,2,0,L|500:76,1,60.0000022888184,8|0,0:0|0:0,0:0:0:0:
308,124,40749,2,0,L|248:120,1,60.0000022888184,4|0,1:2|0:0,0:0:0:0:
168,72,41070,1,8,0:0:0:0:
168,72,41391,6,0,L|176:152,1,80,12|8,0:0|0:0,0:0:0:0:
132,296,41712,1,8,0:0:0:0:
296,200,41873,1,8,0:0:0:0:
240,336,42033,1,8,0:0:0:0:
136,212,42194,1,8,0:0:0:0:
308,284,42354,1,8,0:0:0:0:
112,300,42514,1,8,0:0:0:0:
296,200,42674,6,0,P|308:160|312:120,1,80,8|8,0:0|0:0,0:0:0:0:
264,24,42995,1,8,0:0:0:0:
472,104,43156,1,8,0:0:0:0:
228,140,43316,1,8,0:0:0:0:
392,52,43477,1,8,0:0:0:0:
352,260,43637,1,8,0:0:0:0:
398,24,43797,1,8,0:0:0:0:
344,288,43958,6,0,L|264:296,1,80,12|8,0:0|0:0,0:0:0:0:
120,312,44279,1,8,0:0:0:0:
312,188,44439,1,8,0:0:0:0:
32,244,44600,1,8,0:0:0:0:
264,295,44760,1,8,0:0:0:0:
168,92,44920,1,12,0:0:0:0:
113,346,45081,1,8,0:0:0:0:
172,68,45241,6,0,P|164:28|156:8,1,60,12|0,0:0|0:0,0:0:0:0:
72,64,45562,5,0,1:0:0:0:
65,88,45642,1,8,0:0:0:0:
61,114,45722,1,8,0:0:0:0:
60,140,45802,1,8,0:0:0:0:
60,166,45883,2,0,L|70:269,1,80,12|0,0:0|0:0,0:0:0:0:
352,184,46204,2,0,L|360:104,1,80,12|0,0:0|0:0,0:0:0:0:
192,256,46525,6,0,P|232:248|272:248,1,80,12|0,0:0|0:0,0:0:0:0:
438,362,46846,1,0,1:0:0:0:
424,342,46926,1,0,0:0:0:0:
415,321,47006,1,0,0:0:0:0:
408,298,47086,1,0,0:0:0:0:
406,275,47166,1,8,0:0:0:0:
484,196,47327,1,8,0:0:0:0:
316,336,47487,1,0,1:0:0:0:
504,172,47648,6,0,L|512:92,1,80,12|0,0:0|0:0,0:0:0:0:
408,20,47969,1,8,0:0:0:0:
370,179,48129,1,0,1:0:0:0:
350,193,48209,1,0,0:0:0:0:
330,206,48289,1,0,0:0:0:0:
309,217,48369,1,0,0:0:0:0:
286,226,48449,1,8,0:0:0:0:
216,136,48610,1,8,0:0:0:0:
436,116,48771,1,0,1:0:0:0:
304,308,48931,70,0,L|224:300,1,80,12|0,0:0|0:0,0:0:0:0:
152,176,49252,1,8,0:0:0:0:
16,268,49412,1,0,1:0:0:0:
17,288,49492,1,0,0:0:0:0:
19,313,49572,1,0,0:0:0:0:
21,336,49652,1,0,0:0:0:0:
23,359,49732,1,8,0:0:0:0:
224,300,49894,1,8,0:0:0:0:
4,188,50054,1,0,1:0:0:0:
256,136,50215,6,0,L|244:216,1,80,12|0,0:0|0:0,0:0:0:0:
160,88,50535,1,8,0:0:0:0:
356,176,50696,1,0,1:0:0:0:
152,176,50856,1,8,0:0:0:0:
408,96,51017,1,4,1:2:0:0:
284,292,51177,1,8,0:0:0:0:
160,88,51338,2,0,P|172:48|192:16,1,80,0|0,1:0|0:0,0:0:0:0:
344,192,51658,70,0,L|264:180,1,80,12|0,0:0|0:0,0:0:0:0:
152,312,51979,1,0,1:0:0:0:
129,299,52059,1,0,0:0:0:0:
104,290,52139,1,0,0:0:0:0:
81,284,52219,1,0,0:0:0:0:
55,282,52299,1,8,0:0:0:0:
212,250,52461,1,8,0:0:0:0:
74,376,52621,1,0,1:0:0:0:
8,168,52781,6,0,P|0:128|0:88,1,80,12|0,0:0|0:0,0:0:0:0:
96,28,53102,1,8,0:0:0:0:
240,134,53263,1,0,1:0:0:0:
236,158,53343,1,0,0:0:0:0:
233,182,53423,1,0,0:0:0:0:
229,206,53503,1,0,0:0:0:0:
227,230,53583,1,8,0:0:0:0:
104,128,53744,1,8,0:0:0:0:
360,192,53904,1,0,1:0:0:0:
136,304,54065,70,0,P|96:316|56:320,1,80,12|0,0:0|0:0,0:0:0:0:
120,216,54386,1,8,0:0:0:0:
308,268,54546,1,0,1:0:0:0:
309,289,54626,1,0,0:0:0:0:
311,312,54706,1,0,0:0:0:0:
313,335,54786,1,0,0:0:0:0:
316,358,54866,1,8,0:0:0:0:
504,259,55027,1,8,0:0:0:0:
229,206,55188,1,0,1:0:0:0:
512,180,55348,6,0,L|504:260,1,80,12|0,0:0|0:0,0:0:0:0:
392,104,55669,1,8,0:0:0:0:
492,340,55830,1,0,1:0:0:0:
380,80,55990,1,8,0:0:0:0:
344,295,56150,2,0,L|424:287,1,80,4|0,1:2|0:0,0:0:0:0:
136,188,56471,2,0,B|116:224|116:224|104:264,1,80,0|0,1:0|0:0,0:0:0:0:
316,144,56792,70,0,B|308:104|308:104|288:68,1,80,12|0,0:0|0:0,0:0:0:0:
180,40,57113,1,0,1:0:0:0:
392,104,57273,1,0,0:0:0:0:
160,180,57434,1,8,0:0:0:0:
312,224,57594,1,8,0:0:0:0:
164,24,57755,1,0,1:0:0:0:
136,292,57915,6,0,L|216:284,1,80,8|0,0:0|0:0,0:0:0:0:
312,224,58236,1,8,0:0:0:0:
160,180,58396,1,0,1:0:0:0:
256,356,58557,1,0,0:0:0:0:
316,144,58717,2,0,P|328:104|332:64,1,80,0|0,1:0|0:0,0:0:0:0:
48,172,59038,2,0,P|60:216|76:248,1,80,4|0,1:2|0:0,0:0:0:0:
108,80,59359,69,8,0:0:0:0:
108,80,59680,1,0,1:0:0:0:
316,144,59840,1,0,0:0:0:0:
80,68,60001,1,8,0:0:0:0:
220,264,60161,1,8,0:0:0:0:
192,4,60321,1,0,1:0:0:0:
224,296,60482,6,0,L|304:288,1,80,8|0,0:0|0:0,0:0:0:0:
116,176,60803,1,8,0:0:0:0:
116,176,60963,2,0,P|118:216|132:254,1,80,0|0,1:0|0:0,0:0:0:0:
332,124,61284,2,0,P|344:88|348:44,1,80,12|0,0:0|0:0,0:0:0:0:
80,68,61605,2,0,L|0:76,1,80,12|0,0:0|0:0,0:0:0:0:
224,296,61926,70,0,L|384:308,1,160,8|0,0:0|1:0,0:0:0:0:
480,236,62407,1,0,0:0:0:0:
280,184,62567,2,0,P|284:225|294:263,1,80,8|8,0:0|0:0,0:0:0:0:
496,220,62888,2,0,P|506:179|510:140,1,80,0|0,1:0|0:0,0:0:0:0:
192,112,63209,5,0,1:0:0:0:
164,133,63289,1,0,1:0:0:0:
146,163,63369,1,0,1:0:0:0:
139,198,63449,1,0,1:0:0:0:
144,232,63529,1,4,0:3:0:0:
159,263,63610,1,4,0:3:0:0:
184,287,63690,1,4,0:3:0:0:
215,302,63770,1,4,0:3:0:0:
247,311,63850,5,8,0:0:0:0:
273,312,63931,1,8,0:0:0:0:
300,306,64011,1,8,0:0:0:0:
325,297,64091,1,8,0:0:0:0:
350,288,64171,1,8,0:0:0:0:
376,281,64252,1,8,0:0:0:0:
403,282,64332,1,8,0:0:0:0:
428,291,64412,1,8,0:0:0:0:
449,309,64493,6,0,L|467:251,1,60.0000022888184,12|0,0:0|0:0,0:0:0:0:
508,152,64813,1,0,0:0:0:0:
244,200,64974,1,0,0:0:0:0:
472,236,65135,5,0,1:0:0:0:
216,198,65295,1,0,1:0:0:0:
428,48,65456,1,8,0:0:0:0:
273,312,65616,1,0,1:0:0:0:
244,204,66418,6,0,L|252:84,1,120,12|0,0:0|0:0,0:0:0:0:
270,100,66739,2,0,B|230:112|230:112|150:100,1,120,8|0,0:0|0:0,0:0:0:0:
134,76,67059,6,0,B|138:116|138:116|130:156,1,80,12|0,0:0|0:0,0:0:0:0:
191,343,67380,2,0,L|271:335,1,80,0|0,1:0|0:0,0:0:0:0:
352,260,67701,1,8,0:0:0:0:
253,247,67862,1,8,0:0:0:0:
404,332,68022,2,0,L|484:340,1,80,0|0,1:0|0:0,0:0:0:0:
348,180,68343,6,0,B|344:220|344:220|352:260,1,80,8|0,0:0|0:0,0:0:0:0:
508,172,68664,2,0,B|512:132|512:132|504:92,1,80,0|0,1:0|0:0,0:0:0:0:
392,24,68985,1,8,0:0:0:0:
496,72,69145,1,8,0:0:0:0:
368,168,69305,2,0,L|288:160,1,80,0|0,1:0|0:0,0:0:0:0:
168,124,69626,70,0,L|176:204,1,80,8|0,0:0|0:0,0:0:0:0:
248,288,69947,1,0,1:0:0:0:
76,208,70108,1,0,0:0:0:0:
292,160,70268,1,8,0:0:0:0:
48,212,70428,1,8,0:0:0:0:
272,296,70589,1,0,1:0:0:0:
152,104,70749,6,0,P|144:64|144:24,1,80,0|8,0:0|0:0,0:0:0:0:
292,160,71070,1,0,0:0:0:0:
76,208,71231,1,0,1:0:0:0:
320,156,71391,1,8,0:0:0:0:
164,304,71551,2,0,L|84:296,1,80,4|8,1:2|0:0,0:0:0:0:
352,240,71872,2,0,L|432:232,1,80,0|0,1:0|0:0,0:0:0:0:
188,60,72193,70,0,B|188:100|188:100|200:140,1,80,12|0,0:0|0:0,0:0:0:0:
272,296,72514,2,0,B|268:336|268:336|256:376,1,80,0|0,1:0|0:0,0:0:0:0:
232,208,72835,1,8,0:0:0:0:
352,240,72995,1,8,0:0:0:0:
164,304,73156,2,0,L|84:296,1,80,0|0,1:0|0:0,0:0:0:0:
20,204,73477,6,0,P|8:164|4:124,1,80,8|0,0:0|0:0,0:0:0:0:
196,20,73797,2,0,P|192:60|176:100,1,80,0|0,1:0|0:0,0:0:0:0:
84,152,74118,1,8,0:0:0:0:
108,36,74279,1,8,0:0:0:0:
208,228,74439,2,0,L|128:220,1,80,0|0,1:0|0:0,0:0:0:0:
296,104,74760,6,0,B|304:144|304:144|300:184,1,80,8|0,0:0|0:0,0:0:0:0:
264,296,75081,1,0,1:0:0:0:
372,216,75241,1,0,0:0:0:0:
208,140,75402,1,8,0:0:0:0:
368,308,75562,1,8,0:0:0:0:
296,104,75723,1,0,1:0:0:0:
260,320,75883,1,0,0:0:0:0:
396,228,76043,5,8,0:0:0:0:
184,132,76204,1,8,0:0:0:0:
428,240,76364,1,0,1:0:0:0:
204,228,76525,1,8,0:0:0:0:
512,216,76685,2,0,P|508:252|496:296,1,80,4|0,1:2|0:0,0:0:0:0:
136,288,77006,2,0,B|118:248|116:211,1,80,0|0,1:0|0:0,0:0:0:0:
96,64,77327,5,12,0:0:0:0:
48,340,77487,1,8,0:0:0:0:
176,92,77648,5,0,1:0:0:0:
148,371,77808,1,8,0:0:0:0:
260,84,77969,69,0,1:0:0:0:
256,364,78129,1,8,0:0:0:0:
332,40,78289,5,0,1:0:0:0:
352,340,78450,1,8,0:0:0:0:
404,88,78610,5,0,1:0:0:0:
276,280,78771,1,8,0:0:0:0:
440,164,78931,5,0,1:0:0:0:
256,200,79092,1,8,0:0:0:0:
496,228,79252,5,0,1:0:0:0:
280,120,79412,1,8,0:0:0:0:
492,308,79573,5,0,1:0:0:0:
344,64,79733,1,8,0:0:0:0:
428,356,79894,5,4,1:2:0:0:
424,80,80054,1,8,0:0:0:0:
352,340,80215,5,0,1:0:0:0:
428,48,80375,1,8,0:0:0:0:
272,336,80535,5,0,1:0:0:0:
336,40,80696,1,8,0:0:0:0:
192,344,80856,5,0,1:0:0:0:
244,44,81017,1,8,0:0:0:0:
224,268,81177,5,0,1:0:0:0:
156,56,81338,1,8,0:0:0:0:
300,236,81498,5,0,1:0:0:0:
72,96,81658,1,8,0:0:0:0:
344,164,81819,5,0,1:0:0:0:
24,176,81979,1,8,0:0:0:0:
380,236,82140,6,0,L|460:240,1,80,4|0,1:2|0:0,0:0:0:0:
308,92,82461,6,0,L|184:100,1,120.000004577637,12|2,0:0|0:0,0:0:0:0:
104,112,82942,1,0,0:0:0:0:
108,196,83102,2,0,P|108:226|112:260,1,60.0000022888184,2|0,0:3|0:0,0:0:0:0:
176,312,83423,2,0,P|204:300|232:292,1,60.0000022888184,2|0,0:0|0:0,0:0:0:0:
312,316,83744,6,0,L|372:324,2,60.0000022888184,2|0|2,0:3|0:0|0:0,0:0:0:0:
280,236,84225,1,0,0:0:0:0:
344,180,84386,2,0,P|356:152|360:120,2,60.0000022888184,2|0|2,0:0|0:0|0:0,0:0:0:0:
180,228,85027,70,0,L|116:220,1,60.0000022888184,2|0,0:3|0:0,0:0:0:0:
40,244,85348,2,0,P|24:272|16:300,1,60.0000022888184,2|0,0:0|0:0,0:0:0:0:
60,164,85669,2,0,L|48:104,1,60.0000022888184,2|0,0:3|0:0,0:0:0:0:
120,60,85990,2,0,P|148:72|176:80,1,60.0000022888184,2|0,0:0|0:0,0:0:0:0:
340,52,86311,21,12,1:2:0:0:
180,228,86471,1,8,0:0:0:0:
413,178,86632,1,8,0:0:0:0:
196,83,86792,1,8,0:0:0:0:
313,288,86953,37,12,1:2:0:0:
255,7,87113,1,8,0:0:0:0:
330,374,87273,6,0,B|393:359|400:286|400:286|417:336|467:344,1,200,12|0,0:0|0:0,0:0:0:0:
