osu file format v14

[General]
AudioFilename: bladedanceed.mp3
AudioLeadIn: 0
PreviewTime: 46525
Countdown: 0
SampleSet: Soft
StackLeniency: 0.7
Mode: 0
LetterboxInBreaks: 0
WidescreenStoryboard: 1

[Editor]
DistanceSpacing: 2
BeatDivisor: 4
GridSize: 4
TimelineZoom: 1.7

[Metadata]
Title:Blade Dance
TitleUnicode:精霊剣舞祭
Artist:Ni-Sokkususu
ArtistUnicode:にーそっくすす
Creator:Bearizm
Version:Insane
Source:精霊使いの剣舞
Tags:Nardoxyribonucleic seirei tsukai no blade dance bladedance of elementalers anime ending tv size kneesocks knee socks kido ibuki yuuki kana ishigami shizuka oonishi saori kakuma ai
BeatmapID:816734
BeatmapSetID:372851

[Difficulty]
HPDrainRate:6
CircleSize:4
OverallDifficulty:8
ApproachRate:9
SliderMultiplier:1.5
SliderTickRate:1

[Events]
//Background and Video events
0,0,"Blade Dance.jpg",0,0
Video,140,"video.avi"
//Break Periods
//Storyboard Layer 0 (Background)
//Storyboard Layer 1 (Fail)
//Storyboard Layer 2 (Pass)
//Storyboard Layer 3 (Foreground)
//Storyboard Sound Samples

[TimingPoints]
322,320.855614973262,4,2,1,50,1,0
5455,-100,4,2,1,60,0,0
9947,-100,4,2,2,60,0,0
10268,-100,4,2,1,60,0,0
15081,-100,4,2,2,60,0,0
15241,-100,4,2,1,60,0,0
16043,-100,4,2,1,50,0,0
20856,-100,4,2,1,60,0,0
25990,-100,4,2,1,50,0,0
31124,-100,4,2,1,60,0,0
36257,-133.333333333333,4,2,1,50,0,0
40749,-133.333333333333,4,2,2,50,0,0
40910,-133.333333333333,4,2,1,50,0,0
41391,-100,4,2,1,50,0,0
42674,-100,4,2,1,55,0,0
43958,-100,4,2,1,60,0,0
45241,-100,4,2,2,65,0,0
46444,-100,4,2,1,5,0,0
46525,-100,4,2,1,70,0,1
51017,-100,4,2,2,70,0,1
51177,-100,4,2,1,70,0,1
56150,-100,4,2,2,70,0,1
56311,-100,4,2,1,70,0,1
61284,-100,4,2,2,70,0,1
61444,-100,4,2,1,70,0,1
64493,-133.333333333333,4,2,1,60,0,0
65134,-100,4,2,1,70,0,0
66418,-100,4,2,2,70,0,0
66658,-100,4,2,2,5,0,0
66739,-100,4,2,1,70,0,0
66979,-100,4,2,1,5,0,0
67059,-100,4,2,1,70,0,1
67140,-100,4,2,1,70,0,0
71551,-100,4,2,2,70,0,0
71712,-100,4,2,1,70,0,0
72193,-100,4,2,1,70,0,1
72273,-100,4,2,1,70,0,0
76685,-100,4,2,2,70,0,0
76846,-100,4,2,1,70,0,0
77327,-100,4,2,1,70,0,1
82140,-100,4,2,2,70,0,1
82300,-100,4,2,1,70,0,1
82461,-133.333333333333,4,2,1,60,0,0
86311,-100,4,2,1,70,0,1
87273,-200,4,2,1,80,0,0
87354,-200,4,2,1,5,0,0
88076,-200,4,2,3,100,0,0

[Colours]
Combo1 : 255,255,0
Combo2 : 128,255,255
Combo3 : 0,64,128
Combo4 : 106,106,255

[HitObjects]
220,40,322,5,2,0:3:0:0:
172,116,482,1,0,0:0:0:0:
216,196,642,1,8,0:1:0:0:
160,100,803,1,0,0:0:0:0:
300,168,963,2,0,L|376:164,1,75,2|0,0:3|0:0,0:0:0:0:
212,220,1284,2,0,L|136:212,1,75,8|0,0:1|0:0,0:0:0:0:
296,256,1605,6,0,B|300:296|300:296|296:332,2,75,2|0|8,0:3|0:0|0:1,0:0:0:0:
212,220,2086,1,0,0:0:0:0:
144,280,2247,1,8,0:1:0:0:
164,148,2407,1,0,0:0:0:0:
140,308,2567,1,8,0:1:0:0:
140,308,2888,6,0,L|64:304,2,75,2|0|8,0:3|0:0|0:1,0:0:0:0:
212,364,3370,1,0,0:0:0:0:
284,308,3530,2,0,P|296:272|300:232,1,75,2|0,0:3|0:0,0:0:0:0:
232,176,3851,2,0,L|224:100,1,75,8|0,0:1|0:0,0:0:0:0:
284,36,4172,5,2,0:3:0:0:
196,20,4332,1,0,0:0:0:0:
316,116,4493,2,0,B|356:120|356:120|392:112,1,75,8|0,0:1|0:0,0:0:0:0:
472,76,4813,1,8,0:1:0:0:
436,220,4974,1,0,0:0:0:0:
480,52,5134,1,8,0:1:0:0:
480,52,5455,6,0,L|488:128,1,75,12|0,0:0|0:0,0:0:0:0:
432,294,5776,2,0,L|436:220,1,75,8|0,0:0|0:0,0:0:0:0:
356,148,6097,2,0,P|320:164|284:176,1,75,0|0,1:0|0:0,0:0:0:0:
108,184,6418,2,0,P|144:192|180:208,1,75,8|0,0:0|0:0,0:0:0:0:
248,288,6739,5,8,0:0:0:0:
286,175,6899,1,0,1:0:0:0:
240,309,7059,2,0,L|252:385,1,75,8|0,0:0|0:0,0:0:0:0:
328,272,7380,1,0,1:0:0:0:
148,320,7541,1,0,0:0:0:0:
344,360,7701,2,0,L|424:352,1,75,8|0,0:0|0:0,0:0:0:0:
328,272,8022,5,12,0:0:0:0:
436,340,8182,1,0,0:0:0:0:
428,208,8343,2,0,L|424:132,1,75,8|0,0:0|0:0,0:0:0:0:
356,52,8664,2,0,P|320:40|280:36,1,75,0|0,1:0|0:0,0:0:0:0:
121,103,8985,2,0,L|196:96,1,75,8|0,0:0|1:0,0:0:0:0:
56,40,9305,5,8,0:0:0:0:
48,144,9466,1,0,1:0:0:0:
36,248,9626,2,0,P|44:284|60:320,1,75,8|0,0:0|0:0,0:0:0:0:
212,236,9947,2,0,P|224:204|228:164,1,75,4|0,1:2|0:0,0:0:0:0:
128,252,10268,1,0,1:0:0:0:
128,252,10428,1,0,0:0:0:0:
244,352,10589,6,0,L|324:344,1,75,12|0,0:0|0:0,0:0:0:0:
408,292,10910,1,8,0:0:0:0:
336,216,11070,1,0,0:0:0:0:
432,296,11231,2,0,P|452:260|464:228,1,75,0|0,1:0|0:0,0:0:0:0:
392,96,11551,2,0,L|316:104,1,75,8|0,0:0|0:0,0:0:0:0:
208,152,11872,5,8,0:0:0:0:
240,16,12033,1,0,1:0:0:0:
224,168,12193,2,0,P|236:204|244:240,1,75,8|0,0:0|0:0,0:0:0:0:
200,336,12514,1,0,1:0:0:0:
304,304,12674,1,0,0:0:0:0:
172,344,12835,2,0,L|96:340,1,75,8|0,0:0|0:0,0:0:0:0:
328,296,13156,6,0,L|404:292,1,75,12|0,0:0|0:0,0:0:0:0:
504,204,13477,2,0,P|484:172|472:136,1,75,8|0,0:0|0:0,0:0:0:0:
472,32,13797,1,0,1:0:0:0:
396,108,13958,1,0,0:0:0:0:
296,72,14118,2,0,L|220:80,1,75,8|0,0:0|1:0,0:0:0:0:
128,164,14439,5,8,0:0:0:0:
152,28,14600,1,0,1:0:0:0:
216,196,14760,1,8,0:0:0:0:
216,196,14920,1,0,0:0:0:0:
44,132,15081,2,0,P|32:96|28:60,1,75,4|8,1:2|0:0,0:0:0:0:
232,212,15402,2,0,P|228:252|216:288,1,75,0|0,1:0|0:0,0:0:0:0:
56,320,15723,5,12,0:0:0:0:
56,320,16043,2,0,L|132:324,1,75,8|0,0:1|0:0,0:0:0:0:
220,300,16364,2,0,L|296:296,1,75,2|0,0:3|0:0,0:0:0:0:
376,340,16685,1,8,0:1:0:0:
452,244,16846,2,0,P|460:208|464:168,1,75,0|2,0:0|0:3,0:0:0:0:
412,96,17166,5,0,0:0:0:0:
324,184,17327,2,0,L|248:188,1,75,8|0,0:1|0:0,0:0:0:0:
132,132,17648,2,0,P|116:96|108:60,1,75,8|0,0:1|0:0,0:0:0:0:
248,212,17969,2,0,P|244:252|236:288,1,75,8|0,0:1|0:0,0:0:0:0:
144,232,18289,5,2,0:3:0:0:
144,232,18610,2,0,B|104:228|104:228|68:236,1,75,8|0,0:1|0:0,0:0:0:0:
132,132,18931,2,0,P|152:96|164:64,1,75,2|0,0:3|0:0,0:0:0:0:
256,128,19252,1,8,0:1:0:0:
256,128,19412,2,0,L|332:132,1,75,0|2,0:0|0:3,0:0:0:0:
400,76,19733,5,0,0:0:0:0:
436,160,19894,1,8,0:1:0:0:
388,52,20054,1,8,0:0:0:0:
372,232,20215,1,0,1:0:0:0:
496,88,20375,1,8,0:0:0:0:
456,308,20535,1,0,1:0:0:0:
456,308,20856,6,0,L|380:316,1,75,12|0,0:0|0:0,0:0:0:0:
292,328,21177,1,0,1:0:0:0:
372,232,21338,1,0,0:0:0:0:
208,280,21498,1,8,0:0:0:0:
381,315,21658,1,8,0:0:0:0:
216,364,21819,1,0,1:0:0:0:
284,232,21979,6,0,P|292:196|296:156,1,75,0|8,0:0|0:0,0:0:0:0:
236,72,22300,1,0,0:0:0:0:
332,32,22461,1,0,1:0:0:0:
208,84,22621,1,8,0:0:0:0:
364,120,22781,2,0,L|444:112,1,75,0|8,1:0|0:0,0:0:0:0:
284,232,23102,2,0,L|208:220,1,75,0|0,1:0|0:0,0:0:0:0:
108,252,23423,5,12,0:0:0:0:
152,156,23584,1,0,0:0:0:0:
184,300,23744,1,0,1:0:0:0:
80,264,23904,1,0,0:0:0:0:
209,220,24065,1,8,0:0:0:0:
48,180,24225,1,8,0:0:0:0:
40,360,24386,2,0,L|120:348,1,75,0|0,1:0|0:0,0:0:0:0:
288,284,24707,6,0,P|328:296|356:316,2,75,8|0|0,0:0|0:0|1:0,0:0:0:0:
184,300,25188,1,8,0:0:0:0:
48,180,25348,2,0,P|32:144|28:108,1,75,0|8,1:0|0:0,0:0:0:0:
200,227,25669,2,0,P|195:264|184:299,1,75,0|0,1:0|0:0,0:0:0:0:
148,144,25990,5,12,0:0:0:0:
148,144,26311,2,0,L|224:132,1,75,8|0,0:1|0:0,0:0:0:0:
312,184,26632,2,0,P|352:168|380:144,1,75,2|0,0:3|0:0,0:0:0:0:
428,56,26953,1,8,0:1:0:0:
424,216,27113,2,0,L|420:292,1,75,0|2,0:0|0:3,0:0:0:0:
324,332,27434,5,0,0:0:0:0:
244,268,27594,1,8,0:1:0:0:
244,268,27755,1,0,0:0:0:0:
148,312,27915,2,0,P|136:352|132:384,1,75,8|0,0:1|0:0,0:0:0:0:
252,244,28236,2,0,P|248:204|240:168,1,75,8|0,0:1|0:0,0:0:0:0:
100,228,28557,5,2,0:3:0:0:
100,228,28878,2,0,L|24:236,1,75,8|0,0:1|0:0,0:0:0:0:
160,140,29199,2,0,L|236:148,1,75,2|0,0:3|0:0,0:0:0:0:
312,76,29519,1,8,0:1:0:0:
364,216,29680,2,0,P|352:252|344:292,1,75,0|2,0:0|0:3,0:0:0:0:
432,348,30001,5,0,0:0:0:0:
472,244,30161,1,8,0:1:0:0:
424,372,30321,1,8,0:0:0:0:
344,288,30482,1,0,1:0:0:0:
512,324,30643,1,8,0:0:0:0:
284,360,30803,1,0,1:0:0:0:
284,360,31124,6,0,L|208:352,1,75,12|0,0:0|0:0,0:0:0:0:
112,300,31444,1,0,1:0:0:0:
224,260,31605,1,0,0:0:0:0:
60,224,31765,1,8,0:0:0:0:
164,192,31926,1,8,0:0:0:0:
100,324,32086,1,0,1:0:0:0:
40,208,32247,6,0,P|32:172|32:132,1,75,0|8,0:0|0:0,0:0:0:0:
112,56,32567,1,0,0:0:0:0:
164,192,32728,2,0,L|240:184,1,75,0|8,1:0|0:0,0:0:0:0:
360,136,33049,2,0,L|344:212,1,75,0|8,1:0|0:0,0:0:0:0:
252,96,33370,1,0,1:0:0:0:
340,230,33530,1,0,0:0:0:0:
336,48,33690,5,12,0:0:0:0:
228,112,33851,1,0,0:0:0:0:
376,124,34011,2,0,P|416:132|448:148,1,75,0|0,1:0|0:0,0:0:0:0:
372,312,34332,2,0,L|296:304,1,75,8|8,0:0|0:0,0:0:0:0:
220,248,34653,1,0,1:0:0:0:
256,368,34813,1,0,0:0:0:0:
152,316,34974,5,8,0:0:0:0:
297,304,35134,1,0,0:0:0:0:
128,320,35295,2,0,P|104:288|92:256,1,75,0|8,1:0|0:0,0:0:0:0:
316,148,35616,2,0,P|312:188|300:220,1,75,0|8,1:0|0:0,0:0:0:0:
108,172,35936,1,0,1:0:0:0:
108,172,36257,6,0,L|120:60,1,112.500004291535,12|0,0:0|0:0,0:0:0:0:
184,4,36739,1,8,0:0:0:0:
248,60,36899,2,0,L|304:56,1,56.2500021457673,0|0,1:0|0:0,0:0:0:0:
444,104,37220,2,0,L|500:108,2,56.2500021457673,8|0|8,0:0|1:0|0:0,0:0:0:0:
380,160,37701,1,0,1:0:0:0:
444,216,37862,2,0,P|456:244|460:276,1,56.2500021457673,8|0,0:0|0:0,0:0:0:0:
420,344,38182,2,0,L|364:352,1,56.2500021457673,0|0,1:0|0:0,0:0:0:0:
228,320,38503,2,0,L|284:328,1,56.2500021457673,8|0,0:0|0:0,0:0:0:0:
136,258,38824,6,0,L|152:378,1,112.500004291535,12|0,0:0|0:0,0:0:0:0:
244,232,39305,1,8,0:0:0:0:
244,232,39466,2,0,L|252:176,1,56.2500021457673,0|0,1:0|0:0,0:0:0:0:
300,76,39787,2,0,L|296:20,2,56.2500021457673,8|0|8,0:0|1:0|0:0,0:0:0:0:
372,120,40268,1,0,1:0:0:0:
448,160,40428,2,0,L|512:156,1,56.2500021457673,8|0,0:0|0:0,0:0:0:0:
376,204,40749,2,0,L|320:200,1,56.2500021457673,4|0,1:2|0:0,0:0:0:0:
456,248,41070,2,0,B|460:276|460:276|456:304,1,56.2500021457673,8|0,0:0|0:0,0:0:0:0:
316,356,41391,6,0,B|204:344|204:344|168:352,1,150,12|8,0:0|0:0,0:0:0:0:
64,308,41872,1,8,0:0:0:0:
224,300,42033,2,0,P|236:264|244:224,1,75,8|8,0:0|0:0,0:0:0:0:
220,120,42354,1,8,0:0:0:0:
316,163,42514,1,8,0:0:0:0:
160,208,42674,6,0,L|84:200,1,75,8|8,0:0|0:0,0:0:0:0:
224,46,42995,1,8,0:0:0:0:
224,46,43156,2,0,B|227:83|227:83|219:119,1,75,8|8,0:0|0:0,0:0:0:0:
140,20,43477,1,8,0:0:0:0:
316,68,43637,1,8,0:0:0:0:
124,116,43797,1,8,0:0:0:0:
277,167,43958,6,0,L|353:159,1,75,12|8,0:0|0:0,0:0:0:0:
468,152,44279,1,8,0:0:0:0:
328,240,44439,1,8,0:0:0:0:
424,72,44600,1,8,0:0:0:0:
428,236,44760,1,8,0:0:0:0:
276,168,44920,1,12,0:0:0:0:
468,152,45081,1,8,0:0:0:0:
384,308,45241,5,12,0:0:0:0:
384,308,45562,5,0,1:0:0:0:
356,300,45642,1,8,0:0:0:0:
328,300,45722,1,8,0:0:0:0:
301,308,45802,1,8,0:0:0:0:
277,322,45883,2,0,P|240:332|204:332,1,75,12|0,0:0|0:0,0:0:0:0:
96,256,46204,2,0,L|112:368,1,112.5,12|0,0:0|0:0,0:0:0:0:
184,252,46525,6,0,L|192:176,1,75,12|0,0:0|0:0,0:0:0:0:
260,60,46846,1,0,1:0:0:0:
276,69,46926,1,0,0:0:0:0:
293,76,47006,1,0,0:0:0:0:
311,81,47086,1,0,0:0:0:0:
330,83,47166,2,0,L|403:75,1,75,8|8,0:0|0:0,0:0:0:0:
504,64,47487,1,0,1:0:0:0:
512,232,47648,6,0,L|362:216,1,150,12|8,0:0|0:0,0:0:0:0:
188,168,48129,1,0,1:0:0:0:
194,185,48209,1,0,0:0:0:0:
199,203,48289,1,0,0:0:0:0:
204,221,48369,1,0,0:0:0:0:
208,240,48450,2,0,L|200:316,1,75,8|8,0:0|0:0,0:0:0:0:
108,356,48771,1,0,1:0:0:0:
272,336,48931,6,0,B|312:332|312:332|382:350|382:350|420:348,1,150,12|8,0:0|0:0,0:0:0:0:
504,244,49412,1,0,1:0:0:0:
508,225,49492,1,0,0:0:0:0:
512,207,49572,1,0,0:0:0:0:
512,188,49652,1,0,0:0:0:0:
512,170,49732,1,8,0:0:0:0:
392,108,49894,1,8,0:0:0:0:
512,44,50054,1,0,1:0:0:0:
416,208,50215,6,0,L|264:216,1,150,12|8,0:0|0:0,0:0:0:0:
169,82,50696,1,0,1:0:0:0:
169,246,50856,1,8,0:0:0:0:
266,114,51017,1,4,1:2:0:0:
110,164,51177,1,8,0:0:0:0:
266,215,51338,2,0,P|276:252|280:292,1,75,0|0,1:0|0:0,0:0:0:0:
96,148,51658,6,0,P|104:112|120:76,1,75,12|0,0:0|0:0,0:0:0:0:
266,114,51979,1,0,1:0:0:0:
284,112,52059,1,0,0:0:0:0:
302,108,52139,1,0,0:0:0:0:
320,101,52219,1,0,0:0:0:0:
337,93,52300,2,0,P|376:100|408:116,1,75,8|8,0:0|0:0,0:0:0:0:
480,196,52621,1,0,1:0:0:0:
332,324,52781,6,0,L|348:172,1,150,12|8,0:0|0:0,0:0:0:0:
252,280,53263,1,0,1:0:0:0:
236,269,53343,1,0,0:0:0:0:
219,261,53423,1,0,0:0:0:0:
201,255,53503,1,0,0:0:0:0:
183,252,53584,2,0,L|108:264,1,75,8|8,0:0|0:0,0:0:0:0:
32,336,53904,1,0,1:0:0:0:
0,152,54065,6,0,P|68:136|124:188,1,150,12|8,0:0|0:0,0:0:0:0:
224,156,54546,1,0,1:0:0:0:
230,138,54626,1,0,0:0:0:0:
235,120,54706,1,0,0:0:0:0:
240,102,54786,1,0,0:0:0:0:
244,83,54866,1,8,0:0:0:0:
160,20,55027,1,8,0:0:0:0:
100,108,55188,1,0,1:0:0:0:
219,261,55348,6,0,L|367:241,1,150,12|8,0:0|0:0,0:0:0:0:
476,188,55830,2,0,L|464:268,1,75,0|8,1:0|0:0,0:0:0:0:
324,120,56150,2,0,L|316:44,1,75,4|0,1:2|0:0,0:0:0:0:
380,240,56471,2,0,L|304:232,1,75,0|0,1:0|0:0,0:0:0:0:
124,216,56792,5,12,0:0:0:0:
124,216,57113,1,0,1:0:0:0:
224,152,57273,1,0,0:0:0:0:
84,128,57434,1,8,0:0:0:0:
248,156,57594,1,8,0:0:0:0:
168,60,57755,1,0,1:0:0:0:
116,240,57915,6,0,L|124:316,1,75,8|0,0:0|0:0,0:0:0:0:
32,288,58236,1,8,0:0:0:0:
204,300,58396,2,0,L|280:304,1,75,0|0,1:0|0:0,0:0:0:0:
424,212,58717,2,0,L|348:220,1,75,0|0,1:0|0:0,0:0:0:0:
384,372,59038,2,0,P|396:336|400:296,1,75,4|0,1:2|0:0,0:0:0:0:
252,212,59359,5,8,0:0:0:0:
252,212,59680,1,0,1:0:0:0:
336,144,59840,1,0,0:0:0:0:
132,160,60001,1,8,0:0:0:0:
320,48,60161,1,8,0:0:0:0:
240,236,60321,1,0,1:0:0:0:
156,76,60482,6,0,L|172:0,1,75,8|0,0:0|0:0,0:0:0:0:
336,144,60803,1,8,0:0:0:0:
240,236,60963,2,0,L|164:228,1,75,0|0,1:0|0:0,0:0:0:0:
320,276,61284,2,0,P|340:312|348:348,1,75,12|0,0:0|0:0,0:0:0:0:
232,216,61605,2,0,P|240:180|256:144,1,75,12|0,0:0|0:0,0:0:0:0:
244,320,61926,6,0,L|92:304,1,150,8|0,0:0|1:0,0:0:0:0:
8,200,62407,1,0,0:0:0:0:
128,136,62567,2,0,L|112:212,1,75,8|8,0:0|0:0,0:0:0:0:
20,44,62888,2,0,L|28:120,1,75,0|0,1:0|0:0,0:0:0:0:
208,164,63209,6,0,L|244:156,3,37.5,0|0|0|0,1:0|1:0|1:0|1:0,0:0:0:0:
112,209,63530,2,0,L|72:205,3,37.5,4|4|4|4,0:3|0:3|0:3|0:3,0:0:0:0:
192,252,63851,1,8,0:0:0:0:
198,264,63931,1,8,0:0:0:0:
204,277,64011,1,8,0:0:0:0:
208,290,64091,1,8,0:0:0:0:
211,304,64171,1,8,0:0:0:0:
213,318,64252,1,8,0:0:0:0:
214,332,64332,1,8,0:0:0:0:
213,346,64412,1,8,0:0:0:0:
211,360,64493,6,0,L|324:352,1,112.500004291535,12|0,0:0|0:0,0:0:0:0:
323,352,65134,5,0,1:0:0:0:
496,248,65295,1,0,1:0:0:0:
292,268,65455,1,8,0:0:0:0:
480,360,65616,1,0,1:0:0:0:
480,360,66418,6,0,L|468:248,1,112.5,12|0,0:0|0:0,0:0:0:0:
456,228,66739,2,0,P|420:216|348:240,1,112.5,8|0,0:0|0:0,0:0:0:0:
328,236,67059,6,0,P|292:228|260:208,1,75,12|0,0:0|0:0,0:0:0:0:
180,140,67380,2,0,L|104:152,1,75,0|0,1:0|0:0,0:0:0:0:
32,228,67701,1,8,0:0:0:0:
88,140,67862,1,8,0:0:0:0:
128,320,68022,2,0,P|92:312|52:308,1,75,0|0,1:0|0:0,0:0:0:0:
188,256,68343,6,0,P|224:248|264:248,1,75,8|0,0:0|0:0,0:0:0:0:
368,260,68664,2,0,L|360:184,1,75,0|0,1:0|0:0,0:0:0:0:
440,284,68985,2,0,L|432:208,1,75,8|8,0:0|0:0,0:0:0:0:
512,304,69305,2,0,L|504:228,1,75,0|0,1:0|0:0,0:0:0:0:
488,124,69626,5,8,0:0:0:0:
488,124,69947,1,0,1:0:0:0:
352,80,70108,1,0,0:0:0:0:
472,40,70268,1,8,0:0:0:0:
404,148,70428,1,8,0:0:0:0:
484,20,70589,1,0,1:0:0:0:
392,168,70749,6,0,L|316:156,1,75,0|8,0:0|0:0,0:0:0:0:
236,92,71070,1,0,0:0:0:0:
172,176,71231,1,0,1:0:0:0:
160,52,71391,1,8,0:0:0:0:
176,200,71551,2,0,L|188:276,1,75,4|8,1:2|0:0,0:0:0:0:
28,376,71872,2,0,L|40:300,1,75,0|0,1:0|0:0,0:0:0:0:
212,348,72193,6,0,B|252:344|252:344|324:360|324:360|360:356,1,150,12|0,0:0|1:0,0:0:0:0:
464,340,72674,1,0,0:0:0:0:
352,256,72835,2,0,P|364:220|372:184,1,75,8|8,0:0|0:0,0:0:0:0:
228,116,73156,2,0,P|228:152|237:189,1,75,0|0,1:3|0:3,0:3:0:0:
316,84,73477,5,8,0:0:0:0:
200,28,73637,1,0,0:0:0:0:
120,112,73797,2,0,L|44:116,1,75,0|0,1:0|0:0,0:0:0:0:
144,188,74118,2,0,L|68:192,1,75,8|8,0:0|0:0,0:0:0:0:
168,264,74439,2,0,L|92:268,1,75,0|0,1:0|0:0,0:0:0:0:
196,336,74760,5,8,0:0:0:0:
196,336,75081,1,0,1:0:0:0:
336,304,75241,1,0,0:0:0:0:
168,344,75402,1,8,0:0:0:0:
260,228,75562,1,8,0:0:0:0:
280,372,75723,1,0,1:0:0:0:
256,204,75883,6,0,L|268:128,1,75,0|8,0:0|0:0,0:0:0:0:
368,92,76204,1,8,0:0:0:0:
180,140,76364,1,0,1:0:0:0:
368,192,76525,1,8,0:0:0:0:
236,40,76685,2,0,L|160:36,1,75,4|8,1:2|0:0,0:0:0:0:
36,180,77006,2,0,L|112:176,1,75,0|0,1:0|0:0,0:0:0:0:
232,168,77327,5,12,0:0:0:0:
87,273,77487,1,8,0:0:0:0:
245,181,77648,5,0,1:0:0:0:
159,341,77808,1,8,0:0:0:0:
269,191,77969,5,0,1:0:0:0:
250,370,78129,1,8,0:0:0:0:
289,191,78289,5,0,1:0:0:0:
347,365,78450,1,8,0:0:0:0:
308,186,78610,5,0,1:0:0:0:
434,316,78771,1,8,0:0:0:0:
323,177,78931,5,0,1:0:0:0:
492,239,79092,1,8,0:0:0:0:
347,365,79252,6,0,L|271:357,1,75,0|8,1:0|0:0,0:0:0:0:
72,304,79573,2,0,L|148:292,1,75,0|8,1:0|0:0,0:0:0:0:
260,272,79894,5,4,1:2:0:0:
98,191,80054,1,8,0:0:0:0:
270,254,80215,5,0,1:0:0:0:
158,112,80375,1,8,0:0:0:0:
288,241,80535,5,0,1:0:0:0:
242,63,80696,1,8,0:0:0:0:
306,233,80856,5,0,1:0:0:0:
338,55,81017,1,8,0:0:0:0:
328,232,81177,5,0,1:0:0:0:
433,88,81338,1,8,0:0:0:0:
348,236,81498,5,0,1:0:0:0:
503,158,81658,1,8,0:0:0:0:
332,144,81819,6,0,L|256:152,1,75,0|8,1:0|0:0,0:0:0:0:
428,280,82140,2,0,L|503:288,1,75,4|0,1:2|0:0,0:0:0:0:
308,376,82461,6,0,P|280:324|280:268,1,112.500004291535,12|2,0:0|0:0,0:0:0:0:
188,304,82942,1,0,0:0:0:0:
188,304,83102,2,0,L|132:308,1,56.2500021457673,2|0,0:3|0:0,0:0:0:0:
60,272,83423,2,0,P|48:244|44:216,1,56.2500021457673,2|0,0:0|0:0,0:0:0:0:
96,160,83744,6,0,L|104:104,2,56.2500021457673,2|0|2,0:3|0:0|0:0,0:0:0:0:
160,204,84225,1,0,0:0:0:0:
220,152,84386,2,0,P|248:144|280:144,2,56.2500021457673,2|0|2,0:0|0:0|0:0,0:0:0:0:
328,36,85027,5,2,0:3:0:0:
408,36,85188,1,0,0:0:0:0:
468,88,85348,2,0,P|484:120|488:140,1,56.2500021457673,2|0,0:0|0:0,0:0:0:0:
444,204,85669,2,0,L|436:260,1,56.2500021457673,2|0,0:3|0:0,0:0:0:0:
388,324,85990,2,0,P|360:336|332:340,1,56.2500021457673,2|0,0:0|0:0,0:0:0:0:
232,320,86311,21,12,1:2:0:0:
109,152,86471,1,8,0:0:0:0:
305,216,86632,1,8,0:0:0:0:
109,279,86792,1,8,0:0:0:0:
232,114,86953,38,0,P|240:67|240:19,1,75,12|8,1:2|0:0,0:0:0:0:
28,108,87273,6,0,B|0:168|43:216|43:216|18:238|16:291,1,187.5,12|0,0:0|0:0,0:0:0:0:
