osu file format v14

[General]
AudioFilename: bladedanceed.mp3
AudioLeadIn: 0
PreviewTime: 46525
Countdown: 0
SampleSet: Soft
StackLeniency: 0.7
Mode: 0
LetterboxInBreaks: 0
WidescreenStoryboard: 1

[Editor]
DistanceSpacing: 2
BeatDivisor: 4
GridSize: 4
TimelineZoom: 1.7

[Metadata]
Title:Blade Dance
TitleUnicode:精霊剣舞祭
Artist:Ni-Sokkususu
ArtistUnicode:にーそっくすす
Creator:Bearizm
Version:Hard
Source:精霊使いの剣舞
Tags:Nardoxyribonucleic seirei tsukai no blade dance bladedance of elementalers anime ending tv size kneesocks knee socks kido ibuki yuuki kana ishigami shizuka oonishi saori kakuma ai
BeatmapID:817269
BeatmapSetID:372851

[Difficulty]
HPDrainRate:5
CircleSize:4
OverallDifficulty:7
ApproachRate:8
SliderMultiplier:1.3
SliderTickRate:1

[Events]
//Background and Video events
0,0,"Blade Dance.jpg",0,0
Video,140,"video.avi"
//Break Periods
//Storyboard Layer 0 (Background)
//Storyboard Layer 1 (Fail)
//Storyboard Layer 2 (Pass)
//Storyboard Layer 3 (Foreground)
//Storyboard Sound Samples

[TimingPoints]
322,320.855614973262,4,2,1,50,1,0
5455,-100,4,2,1,60,0,0
9947,-100,4,2,2,60,0,0
10268,-100,4,2,1,60,0,0
15081,-100,4,2,2,60,0,0
15241,-100,4,2,1,60,0,0
16043,-100,4,2,1,50,0,0
20856,-100,4,2,1,60,0,0
25990,-100,4,2,1,50,0,0
31124,-100,4,2,1,60,0,0
36257,-100,4,2,1,50,0,0
40749,-100,4,2,2,50,0,0
41070,-100,4,2,1,50,0,0
42674,-100,4,2,1,55,0,0
43958,-100,4,2,1,60,0,0
45241,-100,4,2,2,65,0,0
46525,-100,4,2,1,70,0,1
51017,-100,4,2,2,70,0,1
51177,-100,4,2,1,70,0,1
56150,-100,4,2,2,70,0,1
56311,-100,4,2,1,70,0,1
61284,-100,4,2,2,70,0,1
61444,-100,4,2,1,70,0,1
64493,-100,4,2,1,60,0,0
65134,-100,4,2,1,70,0,0
66418,-100,4,2,2,70,0,0
66739,-100,4,2,1,70,0,0
67059,-100,4,2,1,70,0,1
67140,-100,4,2,1,70,0,0
71551,-100,4,2,2,70,0,0
71712,-100,4,2,1,70,0,0
72193,-100,4,2,1,70,0,1
72273,-100,4,2,1,70,0,0
76685,-100,4,2,2,70,0,0
76846,-100,4,2,1,70,0,0
77327,-100,4,2,1,70,0,1
82140,-100,4,2,2,70,0,1
82300,-100,4,2,1,70,0,1
82461,-100,4,2,1,60,0,0
82781,-133.333333333333,4,2,1,60,0,0
86311,-100,4,2,1,70,0,1
87273,-100,4,2,1,80,0,0

[Colours]
Combo1 : 255,255,0
Combo2 : 128,255,255
Combo3 : 0,64,128
Combo4 : 106,106,255

[HitObjects]
48,176,322,6,0,L|52:240,1,65,2|0,0:3|0:0,0:0:0:0:
112,308,642,2,0,P|148:316|176:316,1,65,8|0,0:1|0:0,0:0:0:0:
260,280,963,2,0,L|324:272,2,65,2|0|8,0:3|0:0|0:1,0:0:0:0:
208,204,1444,1,0,0:0:0:0:
280,148,1605,6,0,P|292:116|296:84,1,65,2|0,0:3|0:0,0:0:0:0:
380,44,1926,2,0,P|412:56|440:76,1,65,8|0,0:1|0:0,0:0:0:0:
500,140,2247,2,0,L|492:204,1,65,8|0,0:1|0:0,0:0:0:0:
476,292,2567,1,8,0:1:0:0:
476,292,2888,6,0,P|448:307|416:315,1,65,2|0,0:3|0:0,0:0:0:0:
328,288,3209,2,0,L|264:284,1,65,8|0,0:1|0:0,0:0:0:0:
176,312,3530,2,0,L|112:324,2,65,2|0|8,0:3|0:0|0:1,0:0:0:0:
248,256,4011,1,0,0:0:0:0:
172,208,4172,6,0,P|160:176|152:144,1,65,2|0,0:3|0:0,0:0:0:0:
172,56,4493,2,0,L|236:48,1,65,8|0,0:1|0:0,0:0:0:0:
316,88,4813,2,0,L|384:96,1,65,8|0,0:1|0:0,0:0:0:0:
460,52,5134,1,8,0:1:0:0:
460,52,5455,6,0,L|452:184,1,130,12|8,0:0|0:0,0:0:0:0:
392,248,5936,1,0,0:0:0:0:
392,248,6097,2,0,P|364:232|328:224,1,65,0|0,1:0|0:0,0:0:0:0:
248,260,6418,2,0,L|184:264,1,65,8|0,0:0|0:0,0:0:0:0:
100,228,6739,6,0,P|84:196|76:168,2,65,8|0|8,0:0|1:0|0:0,0:0:0:0:
112,320,7220,1,0,0:0:0:0:
112,320,7380,2,0,P|104:352|88:380,1,65,0|0,1:0|0:0,0:0:0:0:
12,332,7701,2,0,L|4:268,1,65,8|0,0:0|0:0,0:0:0:0:
36,180,8022,6,0,L|48:48,1,130,12|8,0:0|0:0,0:0:0:0:
128,4,8503,1,0,0:0:0:0:
196,64,8664,2,0,P|228:72|264:76,1,65,0|0,1:0|0:0,0:0:0:0:
352,76,8985,2,0,L|340:140,1,65,8|0,0:0|1:0,0:0:0:0:
312,228,9305,5,8,0:0:0:0:
400,200,9466,1,0,1:0:0:0:
384,280,9626,2,0,L|448:272,1,65,8|0,0:0|0:0,0:0:0:0:
304,316,9947,2,0,L|240:308,1,65,4|0,1:2|0:0,0:0:0:0:
160,352,10268,1,0,1:0:0:0:
160,352,10428,1,0,0:0:0:0:
100,284,10589,6,0,L|120:152,1,130,12|8,0:0|0:0,0:0:0:0:
192,100,11070,1,0,0:0:0:0:
208,188,11231,2,0,P|240:204|268:212,1,65,0|0,1:0|0:0,0:0:0:0:
348,168,11551,2,0,L|412:156,1,65,8|0,0:0|0:0,0:0:0:0:
496,192,11872,5,8,0:0:0:0:
440,264,12033,1,0,1:0:0:0:
492,336,12193,1,8,0:0:0:0:
420,276,12354,1,0,0:0:0:0:
352,336,12514,2,0,L|288:328,1,65,0|0,1:0|0:0,0:0:0:0:
200,352,12835,2,0,L|136:344,1,65,8|0,0:0|0:0,0:0:0:0:
48,368,13156,6,0,B|56:336|56:336|48:240,1,130,12|8,0:0|0:0,0:0:0:0:
96,164,13637,1,0,0:0:0:0:
164,224,13797,2,0,P|196:232|228:232,2,65,0|0|8,1:0|0:0|0:0,0:0:0:0:
108,152,14279,1,0,1:0:0:0:
172,88,14439,6,0,L|180:24,1,65,8|0,0:0|1:0,0:0:0:0:
240,144,14760,2,0,B|272:140|272:140|304:144,1,65,8|0,0:0|0:0,0:0:0:0:
388,104,15081,2,0,P|404:72|408:40,1,65,4|8,1:2|0:0,0:0:0:0:
324,168,15402,2,0,P|328:200|340:232,1,65,0|0,1:0|0:0,0:0:0:0:
396,300,15723,5,12,0:0:0:0:
396,300,16043,2,0,L|264:304,2,130,8|2|8,0:1|0:3|0:1,0:0:0:0:
472,252,16846,2,0,P|484:216|488:188,1,65,0|2,0:0|0:3,0:0:0:0:
452,105,17166,1,0,0:0:0:0:
376,156,17327,2,0,P|344:168|308:172,1,65,8|0,0:1|0:0,0:0:0:0:
228,136,17648,2,0,L|164:132,1,65,8|0,0:1|0:0,0:0:0:0:
80,96,17969,2,0,L|84:160,1,65,8|0,0:1|0:0,0:0:0:0:
136,236,18289,5,2,0:3:0:0:
136,236,18610,2,0,L|116:368,2,130,8|2|8,0:1|0:3|0:1,0:0:0:0:
212,188,19412,2,0,P|243:203|273:211,1,65,0|2,0:0|0:3,0:0:0:0:
328,136,19733,1,0,0:0:0:0:
412,168,19894,2,0,L|404:232,1,65,8|8,0:1|0:0,0:0:0:0:
488,200,20215,2,0,L|496:136,1,65,0|8,1:0|0:0,0:0:0:0:
448,60,20535,1,0,1:0:0:0:
448,60,20856,6,0,L|316:72,1,130,12|0,0:0|1:0,0:0:0:0:
244,16,21338,1,0,0:0:0:0:
192,88,21498,2,0,P|188:120|188:156,1,65,8|8,0:0|0:0,0:0:0:0:
244,224,21819,1,0,1:0:0:0:
168,272,21979,6,0,L|36:256,1,130,0|0,0:0|0:0,0:0:0:0:
96,368,22461,2,0,B|100:336|100:336|96:304,1,65,0|8,1:0|0:0,0:0:0:0:
44,228,22781,2,0,L|56:160,1,65,0|8,1:0|0:0,0:0:0:0:
132,112,23102,2,0,L|128:48,1,65,0|0,1:0|0:0,0:0:0:0:
208,156,23423,6,0,B|272:144|272:144|304:148|304:148|336:144,1,130,12|0,0:0|1:0,0:0:0:0:
424,124,23904,1,0,0:0:0:0:
404,212,24065,2,0,L|392:276,1,65,8|8,0:0|0:0,0:0:0:0:
312,320,24386,1,0,1:0:0:0:
312,320,24546,1,0,0:0:0:0:
392,364,24707,6,0,L|456:360,2,65,8|0|0,0:0|0:0|1:0,0:0:0:0:
304,332,25188,1,8,0:0:0:0:
216,360,25348,2,0,P|200:328|192:300,1,65,0|8,1:0|0:0,0:0:0:0:
268,180,25669,2,0,P|264:208|256:244,1,65,0|0,1:0|0:0,0:0:0:0:
180,196,25990,5,12,0:0:0:0:
180,196,26311,2,0,L|48:208,2,130,8|2|8,0:1|0:3|0:1,0:0:0:0:
268,180,27113,2,0,P|280:148|288:116,1,65,0|2,0:0|0:3,0:0:0:0:
272,28,27434,1,0,0:0:0:0:
316,108,27594,2,0,L|380:116,1,65,8|0,0:1|0:0,0:0:0:0:
460,160,27915,2,0,P|468:192|468:228,1,65,8|0,0:1|0:0,0:0:0:0:
432,308,28236,2,0,L|368:312,1,65,8|0,0:1|0:0,0:0:0:0:
280,344,28557,5,2,0:3:0:0:
280,344,28878,2,0,L|292:212,2,130,8|2|8,0:1|0:3|0:1,0:0:0:0:
212,284,29680,2,0,P|181:270|150:265,1,65,0|2,0:0|0:3,0:0:0:0:
60,276,30001,1,0,0:0:0:0:
48,188,30161,2,0,L|40:120,1,65,8|8,0:1|0:0,0:0:0:0:
112,68,30482,1,0,1:0:0:0:
197,99,30642,1,8,0:0:0:0:
268,40,30803,1,0,1:0:0:0:
268,40,31124,6,0,L|260:172,1,130,12|0,0:0|1:0,0:0:0:0:
316,248,31605,1,0,0:0:0:0:
376,180,31765,2,0,P|408:181|439:191,1,65,8|8,0:0|0:0,0:0:0:0:
504,256,32086,1,0,1:0:0:0:
452,332,32247,6,0,L|320:340,1,130,0|0,0:0|0:0,0:0:0:0:
240,304,32728,2,0,L|176:292,1,65,0|8,1:0|0:0,0:0:0:0:
116,224,33049,2,0,P|140:284|120:348,1,130,0|0,1:0|1:0,0:0:0:0:
34,367,33530,1,0,0:0:0:0:
8,280,33690,6,0,L|32:152,1,130,12|0,0:0|1:0,0:0:0:0:
96,84,34172,1,0,0:0:0:0:
164,144,34332,2,0,L|228:140,1,65,8|8,0:0|0:0,0:0:0:0:
308,96,34653,1,0,1:0:0:0:
360,20,34813,1,0,0:0:0:0:
328,104,34974,6,0,P|320:136|320:172,1,65,8|0,0:0|0:0,0:0:0:0:
380,236,35295,2,0,L|444:232,1,65,0|8,1:0|0:0,0:0:0:0:
308,264,35616,2,0,L|244:260,1,65,0|8,1:0|0:0,0:0:0:0:
368,312,35936,2,0,L|432:308,1,65,0|0,1:0|0:0,0:0:0:0:
296,340,36257,6,0,L|164:332,1,130,12|0,0:0|0:0,0:0:0:0:
84,368,36739,1,8,0:0:0:0:
32,296,36899,2,0,B|40:264|40:264|32:200|32:200|36:168,1,130,0|8,1:0|0:0,0:0:0:0:
96,100,37380,1,0,1:0:0:0:
164,164,37541,6,0,L|228:160,1,65,8|0,0:0|1:0,0:0:0:0:
244,252,37862,2,0,L|180:256,1,65,8|0,0:0|0:0,0:0:0:0:
204,344,38182,2,0,L|336:336,1,130,0|8,1:0|0:0,0:0:0:0:
333,336,38824,6,0,P|356:276|332:216,1,130,12|0,0:0|0:0,0:0:0:0:
262,159,39305,1,8,0:0:0:0:
188,214,39466,2,0,L|204:346,1,130,0|8,1:0|0:0,0:0:0:0:
120,376,39947,1,0,1:0:0:0:
52,312,40108,6,0,B|56:280|56:280|52:248,1,65,8|0,0:0|1:0,0:0:0:0:
16,164,40428,2,0,L|28:100,1,65,8|0,0:0|0:0,0:0:0:0:
96,40,40749,2,0,P|156:64|212:32,1,130,4|8,1:2|0:0,0:0:0:0:
209,34,41391,6,0,L|216:164,1,130,12|8,0:0|0:0,0:0:0:0:
292,212,41872,1,8,0:0:0:0:
356,148,42033,2,0,B|388:144|388:144|420:148,1,65,8|8,0:0|0:0,0:0:0:0:
492,204,42354,2,0,P|508:236|512:268,1,65,8|8,0:0|0:0,0:0:0:0:
436,316,42674,6,0,L|428:384,2,65,8|8|8,0:0|0:0|0:0,0:0:0:0:
372,252,43156,1,8,0:0:0:0:
304,312,43316,2,0,L|240:320,1,65,8|8,0:0|0:0,0:0:0:0:
152,288,43637,2,0,P|136:256|132:228,1,65,8|8,0:0|0:0,0:0:0:0:
224,160,43958,6,0,L|232:28,1,130,12|8,0:0|0:0,0:0:0:0:
316,60,44439,1,8,0:0:0:0:
392,8,44600,2,0,P|404:40|404:76,1,65,8|8,0:0|0:0,0:0:0:0:
356,148,44920,2,0,L|368:216,1,65,12|8,0:0|0:0,0:0:0:0:
456,320,45241,6,0,B|424:316|424:316|360:332|360:332|328:328,1,130,12|0,0:0|1:0,0:0:0:0:
296,320,45642,1,8,0:0:0:0:
296,320,45723,1,8,0:0:0:0:
192,296,45883,2,0,L|200:364,1,65,12|0,0:0|0:0,0:0:0:0:
260,244,46204,2,0,L|268:180,1,65,12|0,0:0|0:0,0:0:0:0:
228,56,46525,6,0,P|195:59|165:70,1,65,12|0,0:0|0:0,0:0:0:0:
104,136,46846,1,0,1:0:0:0:
32,80,47006,1,0,0:0:0:0:
88,152,47166,2,0,P|80:188|68:220,1,65,8|8,0:0|0:0,0:0:0:0:
12,284,47487,1,0,1:0:0:0:
76,352,47648,6,0,L|208:340,1,130,12|8,0:0|0:0,0:0:0:0:
244,260,48129,1,0,1:0:0:0:
296,332,48289,1,0,0:0:0:0:
336,248,48450,2,0,P|320:216|312:188,1,65,8|8,0:0|0:0,0:0:0:0:
372,120,48771,1,0,1:0:0:0:
296,168,48931,6,0,L|164:160,1,130,12|8,0:0|0:0,0:0:0:0:
76,152,49412,1,0,1:0:0:0:
32,72,49573,1,0,0:0:0:0:
60,160,49733,2,0,P|56:192|48:224,1,65,8|8,0:0|0:0,0:0:0:0:
8,304,50054,1,0,1:0:0:0:
96,360,50215,6,0,L|228:352,1,130,12|8,0:0|0:0,0:0:0:0:
292,288,50696,1,0,1:0:0:0:
292,288,50856,1,8,0:0:0:0:
208,196,51017,2,0,L|216:260,1,65,4|8,1:2|0:0,0:0:0:0:
308,184,51338,2,0,L|316:116,1,65,0|0,1:0|0:0,0:0:0:0:
232,20,51658,6,0,L|167:27,1,65,12|0,0:0|0:0,0:0:0:0:
76,40,51979,1,0,1:0:0:0:
100,128,52140,1,0,0:0:0:0:
100,128,52220,1,0,0:0:0:0:
100,128,52300,2,0,P|88:161|74:187,1,65,8|8,0:0|0:0,0:0:0:0:
12,252,52621,1,0,1:0:0:0:
92,296,52781,6,0,L|224:284,1,130,12|8,0:0|0:0,0:0:0:0:
288,220,53263,1,0,1:0:0:0:
360,276,53423,1,0,0:0:0:0:
360,276,53503,1,0,0:0:0:0:
360,276,53584,2,0,L|352:340,1,65,8|8,0:0|0:0,0:0:0:0:
436,372,53904,1,0,1:0:0:0:
492,300,54065,6,0,L|480:168,1,130,12|8,0:0|0:0,0:0:0:0:
468,80,54546,1,0,1:0:0:0:
388,128,54707,1,0,0:0:0:0:
388,128,54787,1,0,0:0:0:0:
388,128,54867,2,0,B|352:132|352:132|324:128,1,65,8|8,0:0|0:0,0:0:0:0:
232,112,55188,1,0,1:0:0:0:
244,224,55348,6,0,L|256:356,1,130,12|8,0:0|0:0,0:0:0:0:
336,308,55830,2,0,B|368:304|368:304|400:308,1,65,0|8,1:0|0:0,0:0:0:0:
476,260,56150,2,0,P|484:228|488:192,1,65,4|0,1:2|0:0,0:0:0:0:
388,128,56471,2,0,P|392:160|400:192,1,65,0|0,1:0|0:0,0:0:0:0:
464,76,56792,5,12,0:0:0:0:
464,76,57113,2,0,L|468:12,2,65,0|0|8,1:0|0:0|0:0,0:0:0:0:
388,128,57594,1,8,0:0:0:0:
312,80,57755,1,0,1:0:0:0:
288,168,57915,6,0,B|284:200|284:200|296:264|296:264|292:296,1,130,8|8,0:0|0:0,0:0:0:0:
216,348,58396,2,0,L|152:344,1,65,0|0,1:0|0:0,0:0:0:0:
60,360,58717,2,0,P|48:328|44:296,1,65,0|0,1:0|0:0,0:0:0:0:
128,196,59038,2,0,L|136:132,1,65,4|0,1:2|0:0,0:0:0:0:
80,60,59359,5,8,0:0:0:0:
80,60,59680,1,0,1:0:0:0:
156,112,59840,1,0,0:0:0:0:
232,60,60001,2,0,L|296:56,2,65,8|8|0,0:0|0:0|1:0,0:0:0:0:
172,128,60482,6,0,L|184:264,1,130,8|8,0:0|0:0,0:0:0:0:
192,348,60963,1,0,1:0:0:0:
192,348,61124,1,0,0:0:0:0:
308,292,61284,2,0,L|372:296,1,65,12|0,0:0|0:0,0:0:0:0:
492,224,61605,2,0,L|428:228,1,65,12|0,0:0|0:0,0:0:0:0:
376,148,61926,6,0,L|392:16,1,130,8|0,0:0|1:0,0:0:0:0:
308,56,62407,1,0,0:0:0:0:
228,16,62567,2,0,L|164:24,1,65,8|8,0:0|0:0,0:0:0:0:
96,88,62888,2,0,P|112:120|116:152,1,65,0|0,1:0|0:0,0:0:0:0:
95,237,63209,6,0,P|159:217|215:241,1,130,0|4,1:0|0:3,0:0:0:0:
280,304,63690,1,4,0:3:0:0:
280,304,63771,1,4,0:3:0:0:
280,304,63851,2,0,L|344:308,1,65,8|8,0:0|0:0,0:0:0:0:
436,308,64172,2,0,P|452:280|460:248,1,65,8|8,0:0|0:0,0:0:0:0:
436,120,64493,5,12,0:0:0:0:
436,120,64813,2,0,L|444:56,2,65,0|0|0,0:0|0:0|1:0,0:0:0:0:
352,152,65295,5,0,1:0:0:0:
284,60,65455,1,8,0:0:0:0:
236,168,65616,1,0,1:0:0:0:
236,168,66418,6,0,L|172:164,1,65,12|0,0:0|0:0,0:0:0:0:
92,208,66739,2,0,P|80:240|76:272,1,65,8|0,0:0|0:0,0:0:0:0:
160,352,67059,6,0,L|292:340,1,130,12|0,0:0|1:0,0:0:0:0:
380,332,67541,1,0,0:0:0:0:
324,260,67701,2,0,P|312:228|308:196,2,65,8|8|0,0:0|0:0|1:0,0:0:0:0:
396,316,68182,1,0,0:0:0:0:
468,260,68343,6,0,L|476:196,1,65,8|0,0:0|0:0,0:0:0:0:
412,128,68664,2,0,L|404:64,2,65,0|0|8,1:0|0:0|0:0,0:0:0:0:
344,188,69145,1,8,0:0:0:0:
253,180,69305,2,0,L|121:172,1,130,0|8,1:0|0:0,0:0:0:0:
123,172,69947,5,0,1:0:0:0:
64,240,70108,1,0,0:0:0:0:
104,160,70268,2,0,P|96:128|80:96,2,65,8|8|0,0:0|0:0|1:0,0:0:0:0:
48,232,70749,6,0,L|32:364,1,130
120,336,71231,2,0,B|156:332|156:332|184:336,1,65,0|8,1:0|0:0,0:0:0:0:
312,364,71551,2,0,L|376:356,1,65,4|8,1:2|0:0,0:0:0:0:
486,284,71872,2,0,L|422:276,1,65,0|0,1:0|0:0,0:0:0:0:
340,236,72193,6,0,L|352:104,1,130,12|0,0:0|1:0,0:0:0:0:
296,36,72674,1,0,0:0:0:0:
216,76,72835,2,0,P|184:84|152:84,1,65,8|8,0:0|0:0,0:0:0:0:
68,120,73156,2,0,B|64:152|64:152|68:184,1,65,0|0,1:0|0:0,0:0:0:0:
132,248,73477,6,0,P|124:284|112:312,2,65,8|0|0,0:0|0:0|1:0,0:0:0:0:
196,184,73958,1,0,0:0:0:0:
272,232,74118,2,0,L|336:224,1,65,8|8,0:0|0:0,0:0:0:0:
416,180,74439,2,0,L|408:312,1,130,0|8,1:0|0:0,0:0:0:0:
408,309,75081,5,0,1:0:0:0:
484,356,75241,1,0,0:0:0:0:
396,328,75402,2,0,P|360:332|332:344,1,65,8|8,0:0|0:0,0:0:0:0:
244,340,75723,1,0,1:0:0:0:
196,264,75883,6,0,L|208:132,1,130,0|8,0:0|0:0,0:0:0:0:
268,64,76364,1,0,1:0:0:0:
196,120,76525,1,8,0:0:0:0:
68,116,76685,2,0,L|4:112,1,65,4|8,1:2|0:0,0:0:0:0:
120,180,77006,2,0,B|124:212|124:212|120:244,1,65,0|0,1:0|0:0,0:0:0:0:
73,366,77327,5,12,0:0:0:0:
73,366,77487,1,8,0:0:0:0:
164,360,77648,2,0,L|228:348,1,65,0|8,1:0|0:0,0:0:0:0:
284,276,77969,1,0,1:0:0:0:
360,328,78129,1,8,0:0:0:0:
300,260,78289,1,0,1:0:0:0:
312,168,78450,1,8,0:0:0:0:
388,120,78610,6,0,L|452:128,2,65,0|8|0,1:0|0:0|1:0,0:0:0:0:
328,52,79092,1,8,0:0:0:0:
248,96,79252,2,0,L|180:100,1,65,0|8,1:0|0:0,0:0:0:0:
104,144,79573,2,0,P|96:176|96:208,1,65,0|8,1:0|0:0,0:0:0:0:
108,336,79894,5,4,1:2:0:0:
162,262,80054,1,8,0:0:0:0:
252,272,80215,2,0,L|316:260,1,65,0|8,1:0|0:0,0:0:0:0:
404,244,80535,1,0,1:0:0:0:
480,296,80696,2,0,P|492:328|496:360,2,65,8|0|8,0:0|1:0|0:0,0:0:0:0:
420,228,81177,6,0,L|428:164,1,65,0|8,1:0|0:0,0:0:0:0:
380,84,81498,1,0,1:0:0:0:
452,28,81658,1,8,0:0:0:0:
372,68,81819,2,0,P|340:80|308:88,1,65,0|8,1:0|0:0,0:0:0:0:
156,28,82140,2,0,P|188:32|220:40,1,65,4|0,1:2|0:0,0:0:0:0:
244,156,82461,6,0,L|252:220,1,65,12|0,0:0|0:0,0:0:0:0:
308,276,82781,6,0,P|216:244|152:304,2,195.00000743866,2|2|2,0:0|0:0|0:0,0:0:0:0:
352,376,84386,1,2,0:0:0:0:
316,256,84707,2,0,L|328:160,1,97.50000371933,2|0,0:0|0:0,0:0:0:0:
236,108,85348,2,0,B|188:100|188:100|92:124|92:124|44:116,1,195.00000743866,2|2,0:0|0:0,0:0:0:0:
108,288,86311,37,12,1:2:0:0:
194,190,86471,1,8,0:0:0:0:
181,321,86632,1,8,0:0:0:0:
115,207,86792,1,8,0:0:0:0:
236,261,86953,38,0,P|272:256|300:248,1,65,12|8,1:2|0:0,0:0:0:0:
194,190,87273,1,12,0:0:0:0:
