osu file format v14

[General]
AudioFilename: bladedanceed.mp3
AudioLeadIn: 0
PreviewTime: 46525
Countdown: 0
SampleSet: Soft
StackLeniency: 0.7
Mode: 0
LetterboxInBreaks: 0
WidescreenStoryboard: 1

[Editor]
DistanceSpacing: 1
BeatDivisor: 4
GridSize: 4
TimelineZoom: 1.7

[Metadata]
Title:Blade Dance
TitleUnicode:精霊剣舞祭
Artist:Ni-Sokkususu
ArtistUnicode:にーそっくすす
Creator:Bearizm
Version:Advanced
Source:精霊使いの剣舞
Tags:Nardoxyribonucleic seirei tsukai no blade dance bladedance of elementalers anime ending tv size kneesocks knee socks kido ibuki yuuki kana ishigami shizuka oonishi saori kakuma ai
BeatmapID:817908
BeatmapSetID:372851

[Difficulty]
HPDrainRate:4
CircleSize:3.5
OverallDifficulty:5
ApproachRate:6
SliderMultiplier:1.1
SliderTickRate:1

[Events]
//Background and Video events
0,0,"Blade Dance.jpg",0,0
Video,140,"video.avi"
//Break Periods
//Storyboard Layer 0 (Background)
//Storyboard Layer 1 (Fail)
//Storyboard Layer 2 (Pass)
//Storyboard Layer 3 (Foreground)
//Storyboard Sound Samples

[TimingPoints]
322,320.855614973262,4,2,1,50,1,0
5455,-100,4,2,1,60,0,0
9947,-100,4,2,2,60,0,0
10268,-100,4,2,1,60,0,0
15081,-100,4,2,2,60,0,0
15402,-100,4,2,1,60,0,0
16043,-100,4,2,1,50,0,0
20856,-100,4,2,1,60,0,0
25990,-100,4,2,1,50,0,0
31124,-100,4,2,1,60,0,0
36257,-100,4,2,1,50,0,0
40749,-100,4,2,2,50,0,0
41070,-100,4,2,1,50,0,0
42674,-100,4,2,1,55,0,0
43958,-100,4,2,1,60,0,0
45241,-100,4,2,2,65,0,0
46525,-100,4,2,1,70,0,1
51017,-100,4,2,2,70,0,1
51338,-100,4,2,1,70,0,1
56150,-100,4,2,2,70,0,1
56471,-100,4,2,1,70,0,1
61284,-100,4,2,2,70,0,1
61605,-100,4,2,1,70,0,1
64493,-100,4,2,1,60,0,0
65134,-100,4,2,1,70,0,0
66418,-100,4,2,2,70,0,0
66739,-100,4,2,1,70,0,0
67059,-100,4,2,1,70,0,1
67140,-100,4,2,1,70,0,0
71551,-100,4,2,2,70,0,0
71712,-100,4,2,1,70,0,0
72193,-100,4,2,1,70,0,1
72273,-100,4,2,1,70,0,0
76685,-100,4,2,2,70,0,0
76846,-100,4,2,1,70,0,0
77327,-100,4,2,1,70,0,1
82140,-100,4,2,2,70,0,1
82461,-100,4,2,1,60,0,0
86311,-100,4,2,1,70,0,1
87273,-100,4,2,1,80,0,0

[Colours]
Combo1 : 255,255,0
Combo2 : 128,255,255
Combo3 : 0,64,128
Combo4 : 106,106,255

[HitObjects]
44,216,322,6,0,L|156:204,1,110,2|8,0:3|0:1,0:0:0:0:
196,240,803,1,0,0:0:0:0:
196,240,963,2,0,L|308:248,1,110,2|8,0:3|0:1,0:0:0:0:
404,200,1605,2,0,P|420:148|408:92,1,110,2|8,0:3|0:1,0:0:0:0:
316,32,2247,1,8,0:1:0:0:
316,32,2567,1,8,0:1:0:0:
224,92,2888,6,0,L|112:88,1,110,2|8,0:3|0:1,0:0:0:0:
64,116,3370,1,0,0:0:0:0:
64,116,3530,2,0,P|48:168|60:224,2,110,2|8|2,0:3|0:1|0:3,0:0:0:0:
160,172,4493,1,8,0:1:0:0:
152,280,4813,1,8,0:1:0:0:
240,344,5134,1,8,0:1:0:0:
348,332,5455,6,0,L|460:320,2,110,12|8|0,0:0|0:0|1:0,0:0:0:0:
284,244,6418,2,0,P|264:188|272:140,1,110,8|8,0:0|0:0,0:0:0:0:
304,96,6899,1,0,1:0:0:0:
304,96,7059,1,8,0:0:0:0:
404,140,7380,2,0,L|392:252,1,110,0|8,1:0|0:0,0:0:0:0:
296,308,8022,6,0,B|268:304|268:304|215:313|215:313|188:309,1,110,12|8,0:0|0:0,0:0:0:0:
92,252,8664,2,0,P|76:200|84:144,1,110,0|8,1:0|0:0,0:0:0:0:
172,80,9305,2,0,L|164:24,2,55,8|0|8,0:0|1:0|0:0,0:0:0:0:
268,136,9947,2,0,L|380:124,1,110,4|0,1:2|1:0,0:0:0:0:
424,96,10428,1,0,0:0:0:0:
424,96,10589,6,0,B|416:180|416:180|420:208,1,110,12|8,0:0|0:0,0:0:0:0:
480,296,11231,1,0,1:0:0:0:
376,324,11551,2,0,L|264:312,1,110,8|8,0:0|0:0,0:0:0:0:
212,308,12033,1,0,1:0:0:0:
212,308,12193,1,8,0:0:0:0:
280,224,12514,2,0,P|304:172|300:116,1,110,0|8,1:0|0:0,0:0:0:0:
208,60,13156,6,0,L|96:72,1,110,12|8,0:0|0:0,0:0:0:0:
20,148,13797,1,0,1:0:0:0:
120,192,14118,2,0,B|128:248|128:248|116:300,1,110,8|8,0:0|0:0,0:0:0:0:
80,340,14600,1,0,1:0:0:0:
80,340,14760,1,8,0:0:0:0:
189,336,15081,1,4,1:2:0:0:
300,332,15402,1,0,1:0:0:0:
240,240,15723,6,0,P|224:184|240:132,1,110,12|8,0:0|0:1,0:0:0:0:
308,52,16364,2,0,L|420:60,1,110,2|8,0:3|0:1,0:0:0:0:
472,68,16846,2,0,B|460:124|460:124|464:152|464:152|460:184,1,110,0|0,0:0|0:0,0:0:0:0:
448,232,17327,1,8,0:1:0:0:
364,304,17648,2,0,P|308:316|260:296,1,110,8|8,0:1|0:1,0:0:0:0:
200,204,18289,5,2,0:3:0:0:
104,260,18610,2,0,L|112:372,2,110,8|2|8,0:1|0:3|0:1,0:0:0:0:
64,220,19412,2,0,L|80:108,1,110,0|0,0:0|0:0,0:0:0:0:
92,56,19894,1,8,0:1:0:0:
196,96,20215,2,0,L|252:88,1,55,0|8,1:0|0:0,0:0:0:0:
304,80,20535,1,0,1:0:0:0:
408,120,20856,6,0,P|424:172|412:228,1,110,12|0,0:0|1:0,0:0:0:0:
376,268,21338,1,0,0:0:0:0:
376,268,21498,2,0,L|268:252,1,110,8|0,0:0|1:0,0:0:0:0:
224,216,21979,2,0,P|236:272|232:324,1,110,0|0,0:0|0:0,0:0:0:0:
212,376,22461,1,0,1:0:0:0:
104,352,22781,2,0,L|116:240,1,110,0|0,1:0|1:0,0:0:0:0:
24,180,23423,6,0,L|20:68,1,110,12|0,0:0|1:0,0:0:0:0:
64,40,23904,1,0,0:0:0:0:
64,40,24065,2,0,B|96:36|96:36|152:44|152:44|180:40,1,110,8|0,0:0|1:0,0:0:0:0:
280,72,24707,2,0,P|300:124|292:176,1,110,8|0,0:0|1:0,0:0:0:0:
188,137,25348,1,0,1:0:0:0:
156,240,25669,1,0,1:0:0:0:
232,320,25990,6,0,L|344:312,1,110,12|8,0:0|0:1,0:0:0:0:
452,328,26632,2,0,P|424:280|412:228,1,110,2|8,0:3|0:1,0:0:0:0:
444,184,27113,2,0,B|456:128|456:128|448:72,1,110,0|0,0:0|0:0,0:0:0:0:
432,24,27594,1,8,0:1:0:0:
328,60,27915,2,0,L|216:48,1,110,8|8,0:1|0:1,0:0:0:0:
112,80,28557,6,0,P|96:132|104:188,1,110,2|8,0:3|0:1,0:0:0:0:
208,216,29199,2,0,L|200:328,1,110,2|8,0:3|0:1,0:0:0:0:
252,344,29680,2,0,B|308:336|308:336|360:348,1,110,0|0,0:0|0:0,0:0:0:0:
412,332,30161,2,0,P|424:308|428:280,1,55,8|8,0:1|0:0,0:0:0:0:
412,228,30482,2,0,L|424:172,2,55,0|8|0,1:0|0:0|1:0,0:0:0:0:
300,228,31124,6,0,P|280:172|288:124,1,110,12|0,0:0|1:0,0:0:0:0:
316,76,31605,1,0,0:0:0:0:
316,76,31765,2,0,L|204:64,1,110,8|0,0:0|1:0,0:0:0:0:
160,32,32247,2,0,L|164:144,1,110,0|0,0:0|0:0,0:0:0:0:
168,196,32728,1,0,1:0:0:0:
252,268,33049,2,0,P|308:276|356:256,1,110,0|0,1:0|1:0,0:0:0:0:
392,216,33530,1,0,0:0:0:0:
392,216,33690,6,0,L|504:228,1,110,12|0,0:0|1:0,0:0:0:0:
508,116,34332,2,0,L|396:104,1,110,8|0,0:0|1:0,0:0:0:0:
312,36,34974,1,8,0:0:0:0:
208,72,35295,2,0,P|192:124|208:180,2,110,0|0|0,1:0|1:0|1:0,0:0:0:0:
304,124,36257,6,0,L|288:288,1,165,12|8,0:0|0:0,0:0:0:0:
256,336,36899,2,0,B|200:328|200:328|148:336,1,110,0|8,1:0|0:0,0:0:0:0:
56,276,37541,2,0,L|0:272,2,55,8|0|8,0:0|1:0|0:0,0:0:0:0:
148,212,38182,2,0,P|164:160|152:104,1,110,0|8,1:0|0:0,0:0:0:0:
76,28,38824,6,0,P|184:60|228:28,1,165,12|8,0:0|0:0,0:0:0:0:
272,20,39466,2,0,L|260:132,1,110,0|8,1:0|0:0,0:0:0:0:
324,220,40108,2,0,L|332:276,2,55,8|0|8,0:0|1:0|0:0,0:0:0:0:
380,124,40749,1,4,1:2:0:0:
488,132,41070,1,8,0:0:0:0:
508,240,41391,6,0,L|500:352,1,110,12|8,0:0|0:0,0:0:0:0:
448,332,41872,2,0,B|392:324|392:324|340:336|340:336|284:328,1,165,8|8,0:0|0:0,0:0:0:0:
232,340,42514,1,8,0:0:0:0:
232,340,42674,2,0,L|224:228,1,110,8|8,0:0|0:0,0:0:0:0:
260,188,43156,2,0,B|204:184|204:184|150:195|150:195|96:192,1,165,8|8,0:0|0:0,0:0:0:0:
48,164,43797,1,8,0:0:0:0:
48,164,43958,6,0,P|32:112|44:56,1,110,12|8,0:0|0:0,0:0:0:0:
88,28,44439,2,0,L|200:36,1,110,8|8,0:0|0:0,0:0:0:0:
252,44,44920,1,12,0:0:0:0:
364,52,45241,2,0,P|380:108|368:160,1,110,12|0,0:0|1:0,0:0:0:0:
340,204,45723,1,8,0:0:0:0:
340,204,45883,1,12,0:0:0:0:
248,260,46204,1,12,0:0:0:0:
140,252,46525,6,0,L|28:244,1,110,12|0,0:0|1:0,0:0:0:0:
44,136,47166,2,0,P|28:112|20:88,2,55,8|8|0,0:0|0:0|1:0,0:0:0:0:
100,144,47648,2,0,L|212:136,1,110,12|8,0:0|0:0,0:0:0:0:
264,132,48129,1,0,1:0:0:0:
368,96,48450,2,0,P|388:76|416:60,2,55,8|8|0,0:0|0:0|1:0,0:0:0:0:
360,152,48931,6,0,B|372:205|372:205|364:260,1,110,12|8,0:0|0:0,0:0:0:0:
348,312,49412,1,0,1:0:0:0:
236,312,49733,2,0,L|248:368,2,55,8|8|0,0:0|0:0|1:0,0:0:0:0:
200,272,50215,2,0,P|144:264|96:288,1,110,12|8,0:0|0:0,0:0:0:0:
60,328,50696,1,0,1:0:0:0:
12,228,51017,2,0,L|20:116,1,110,4|0,1:2|1:0,0:0:0:0:
100,44,51658,6,0,P|144:80|196:88,1,110,12|0,0:0|1:0,0:0:0:0:
296,40,52300,2,0,L|352:32,2,55,8|8|0,0:0|0:0|1:0,0:0:0:0:
288,96,52781,2,0,B|284:152|284:152|296:204,1,110,12|8,0:0|0:0,0:0:0:0:
316,256,53263,1,0,1:0:0:0:
404,320,53584,2,0,L|460:324,2,55,8|8|0,0:0|0:0|1:0,0:0:0:0:
356,344,54065,6,0,L|248:360,1,110,12|8,0:0|0:0,0:0:0:0:
192,372,54546,1,0,1:0:0:0:
96,316,54867,2,0,L|40:312,2,55,8|8|0,0:0|0:0|1:0,0:0:0:0:
140,284,55348,2,0,P|160:232|144:176,1,110,12|8,0:0|0:0,0:0:0:0:
116,136,55830,1,0,1:0:0:0:
40,56,56150,2,0,L|156:48,1,110,4|0,1:2|1:0,0:0:0:0:
256,76,56792,6,0,P|272:128|260:184,1,110,12|0,0:0|1:0,0:0:0:0:
172,244,57434,2,0,L|116:236,2,55,8|8|0,0:0|0:0|1:0,0:0:0:0:
216,280,57915,2,0,L|328:272,1,110,8|8,0:0|0:0,0:0:0:0:
380,268,58396,1,0,1:0:0:0:
308,184,58717,1,0,1:0:0:0:
416,164,59038,1,4,1:2:0:0:
344,80,59359,6,0,L|232:88,1,110,8|0,0:0|1:0,0:0:0:0:
128,120,60001,2,0,L|72:112,2,55,8|8|0,0:0|0:0|1:0,0:0:0:0:
164,164,60482,2,0,B|160:192|160:192|168:248|168:248|164:272,1,110,8|8,0:0|0:0,0:0:0:0:
149,325,60963,1,0,1:0:0:0:
248,368,61284,1,12,0:0:0:0:
352,328,61605,1,12,0:0:0:0:
392,224,61926,6,0,L|380:112,1,110,8|0,0:0|1:0,0:0:0:0:
348,68,62407,1,8,0:0:0:0:
348,68,62567,2,0,P|296:56|240:76,1,110,8|0,0:0|1:0,0:0:0:0:
184,168,63209,2,0,L|72:160,1,110,0|4,1:0|0:3,0:0:0:0:
28,132,63690,1,4,0:3:0:0:
28,132,63851,2,0,P|40:188|40:240,1,110,8|8,0:0|0:0,0:0:0:0:
88,340,64493,6,0,L|200:328,1,110,12|0,0:0|0:0,0:0:0:0:
288,268,65134,2,0,L|344:276,2,55,0|0|8,1:0|1:0|0:0,0:0:0:0:
248,232,65616,1,0,1:0:0:0:
36,56,66418,1,12,0:0:0:0:
44,165,66739,1,8,0:0:0:0:
52,276,67059,5,12,0:0:0:0:
136,348,67380,2,0,P|187:318|236:318,1,110,0|8,1:0|0:0,0:0:0:0:
292,332,67862,1,8,0:0:0:0:
292,332,68022,1,0,1:0:0:0:
396,368,68343,1,8,0:0:0:0:
492,312,68664,1,0,1:0:0:0:
488,204,68985,2,0,L|480:92,1,110,8|0,0:0|1:0,0:0:0:0:
388,32,69626,6,0,P|331:33|283:58,1,110,8|0,0:0|1:0,0:0:0:0:
216,144,70268,2,0,P|184:140|160:132,2,55,8|8|0,0:0|0:0|1:0,0:0:0:0:
272,152,70749,2,0,B|280:264,1,110
284,316,71231,1,0,1:0:0:0:
180,352,71551,1,4,1:2:0:0:
76,324,71872,1,0,1:0:0:0:
48,216,72193,5,12,0:0:0:0:
154,245,72514,2,0,P|155:190|129:139,1,110,0|8,1:0|0:0,0:0:0:0:
94,105,72995,1,8,0:0:0:0:
94,105,73156,1,0,1:0:0:0:
200,72,73477,2,0,L|312:64,1,110,8|0,0:0|1:0,0:0:0:0:
420,84,74118,2,0,P|440:136|432:192,1,110,8|0,0:0|1:0,0:0:0:0:
344,256,74760,6,0,L|232:244,1,110,8|0,0:0|1:0,0:0:0:0:
132,204,75402,2,0,L|76:212,2,55,8|8|0,0:0|0:0|1:0,0:0:0:0:
176,172,75883,2,0,P|156:120|168:68,1,110,0|0,0:0|0:0,0:0:0:0:
204,28,76364,1,0,1:0:0:0:
312,56,76685,1,4,1:2:0:0:
420,44,77006,1,0,1:0:0:0:
500,116,77327,6,0,P|516:168|504:224,1,110,12|0,0:0|1:0,0:0:0:0:
464,260,77808,1,8,0:0:0:0:
464,260,77969,2,0,B|408:256|408:256|356:268,1,110,0|0,1:0|1:0,0:0:0:0:
304,288,78450,1,8,0:0:0:0:
304,288,78610,5,0,1:0:0:0:
208,343,78931,1,0,1:0:0:0:
126,270,79252,1,0,1:0:0:0:
171,170,79573,1,0,1:0:0:0:
281,181,79894,6,0,P|300:128|292:72,1,110,4|0,1:2|1:0,0:0:0:0:
256,36,80375,1,8,0:0:0:0:
256,36,80535,2,0,L|144:48,1,110,0|0,1:0|1:0,0:0:0:0:
92,56,81017,1,8,0:0:0:0:
92,56,81177,5,0,1:0:0:0:
1,115,81498,1,0,1:0:0:0:
30,222,81819,1,0,1:0:0:0:
140,228,82140,1,4,1:2:0:0:
179,125,82461,5,12,0:0:0:0:
288,116,82781,2,0,L|508:96,2,220,2|2|2,0:0|0:0|0:0,0:0:0:0:
244,216,84386,1,2,0:0:0:0:
332,280,84707,2,0,P|385:265|426:227,1,110,2|0,0:0|0:0,0:0:0:0:
428,120,85348,2,0,L|208:104,1,220,2|2,0:0|0:0,0:0:0:0:
100,96,86311,38,0,L|96:40,2,55,12|8|8,1:2|0:0|0:0,0:0:0:0:
72,144,86792,1,8,0:0:0:0:
72,144,86953,38,0,L|68:200,1,55,12|8,1:2|0:0,0:0:0:0:
64,252,87273,1,12,0:0:0:0:
