osu file format v12

[General]
AudioFilename: 01.KICKING TRICK.mp3
AudioLeadIn: 0
PreviewTime: 59961
Countdown: 0
SampleSet: Soft
StackLeniency: 0.7
Mode: 0
LetterboxInBreaks: 0
WidescreenStoryboard: 1

[Editor]
Bookmarks: 30538,104384,119153,133923,148692,163461,178230,193000,207769,222538,237307,252076,266846
DistanceSpacing: 1.6
BeatDivisor: 4
GridSize: 8
TimelineZoom: 1.2

[Metadata]
Title:KICKING TRICK
TitleUnicode:KICKING TRICK
Artist:Nhato ft. 3L
ArtistUnicode:Nhato ft. 3L
Creator:happy30
Version:Phantasm
Source:Touhou
Tags:XXX Necrofantasia Linjin ZYTOKINE
BeatmapID:428090
BeatmapSetID:177920

[Difficulty]
HPDrainRate:5
CircleSize:4
OverallDifficulty:8
ApproachRate:8
SliderMultiplier:1.4
SliderTickRate:2

[Events]
//Background and Video events
0,0,"PERFRECT.jpg",0,0
//Break Periods
2,30738,44557
2,148892,162711
//Storyboard Layer 0 (Background)
//Storyboard Layer 1 (Fail)
//Storyboard Layer 2 (Pass)
//Storyboard Layer 3 (Foreground)
//Storyboard Sound Samples
//Background Colour Transformations
3,100,163,162,255

[TimingPoints]
1000,461.538461538462,4,2,0,40,1,0
60076,-75.187969924812,4,2,0,55,0,0
85461,-133.333333333333,4,2,0,55,0,0
88000,-75.187969924812,4,2,0,70,0,0
89615,-75.187969924812,4,2,0,70,0,1
118692,-133.333333333333,4,2,0,70,0,1
119153,-75.187969924812,4,2,0,55,0,0
126538,-133.333333333333,4,2,0,55,0,0
127000,-75.187969924812,4,2,0,55,0,0
147769,-133.333333333333,4,2,0,55,0,0
178692,-100,4,2,0,55,0,0
193000,-75.187969924812,4,2,0,70,0,0
218846,-133.333333333333,4,2,0,70,0,0
222538,-75.187969924812,4,2,0,70,0,1
252076,-100,4,2,0,55,0,0

[Colours]
Combo1 : 128,255,128
Combo2 : 255,255,128
Combo3 : 255,255,255
Combo4 : 249,136,153

[HitObjects]
44,188,8384,5,4,0:0:0:0:
180,256,8846,1,0,0:0:0:0:
292,232,9192,1,0,3:2:0:0:
308,240,9307,2,0,L|332:316,1,70,0|0,0:0|3:0,0:0:0:0:
428,356,9769,2,0,L|404:280,1,70,0|0,2:0|3:0,0:0:0:0:
472,92,10230,5,0,0:0:0:0:
336,160,10692,1,0,0:0:0:0:
224,136,11038,1,0,3:0:0:0:
208,144,11153,2,0,L|184:220,1,70,0|0,0:0|3:0,0:0:0:0:
88,260,11615,2,0,L|112:184,1,70,0|0,0:0|3:0,0:0:0:0:
59,28,12076,6,0,P|128:24|184:64,1,140,0|0,2:3|0:0,0:0:0:0:
304,256,12884,1,0,3:0:0:0:
320,264,12999,2,0,L|344:340,1,70,0|0,0:0|3:0,0:0:0:0:
172,328,13461,2,0,L|193:261,1,70,0|0,0:0|3:0,0:0:0:0:
240,128,13923,6,0,P|296:88|372:96,1,140
496,272,14730,1,0,3:0:0:0:
488,288,14845,2,0,L|412:312,1,70,0|0,0:0|3:0,0:0:0:0:
316,324,15307,1,0,0:0:0:0:
232,260,15538,1,0,3:0:0:0:
208,156,15769,5,0,0:0:0:0:
256,64,16000,1,0,0:0:0:0:
304,156,16230,2,0,P|268:200|248:244,1,105,0|0,1:2|0:0,0:0:0:0:
232,260,16692,2,0,L|144:268,1,70,0|0,0:0|3:0,0:0:0:0:
36,336,17153,2,0,L|124:328,1,70,0|0,1:0|3:0,0:0:0:0:
192,176,17615,5,0,0:0:0:0:
296,348,18076,1,0,1:0:0:0:
396,176,18423,1,0,3:0:0:0:
408,196,18538,2,0,L|400:284,1,70,0|0,0:0|3:0,0:0:0:0:
472,360,19000,2,0,L|480:272,1,70,0|0,1:0|3:0,0:0:0:0:
304,228,19461,5,0,0:0:0:0:
256,320,19692,1,0,0:0:0:0:
208,228,19922,2,0,P|244:184|264:140,1,105,0|0,1:0|3:0,0:0:0:0:
280,124,20384,2,0,L|368:116,1,70,0|0,0:0|3:0,0:0:0:0:
476,48,20845,2,0,L|388:56,1,70,0|0,1:0|3:0,0:0:0:0:
320,208,21307,5,0,0:0:0:0:
216,36,21768,1,0,1:0:0:0:
116,208,22115,1,0,3:0:0:0:
104,188,22230,2,0,L|112:100,1,70,0|0,0:0|3:0,0:0:0:0:
40,24,22692,2,0,L|32:112,1,70,0|0,1:0|3:0,0:0:0:0:
208,196,23153,5,4,0:0:0:0:
8,272,23615,1,0,1:0:0:0:
140,360,23961,1,0,3:0:0:0:
152,336,24076,2,0,L|248:316,1,70,0|0,0:0|3:0,0:0:0:0:
120,208,24538,2,0,L|24:188,1,70,0|0,1:0|3:0,0:0:0:0:
16,116,25000,5,0,0:0:0:0:
256,248,25461,1,0,1:0:0:0:
468,176,25807,1,0,3:0:0:0:
460,193,25923,2,0,L|392:208,1,70,0|0,0:0|3:0,0:0:0:0:
164,156,26384,2,0,L|232:141,1,70,0|0,1:0|3:0,0:0:0:0:
280,80,26846,5,0,0:0:0:0:
316,148,27076,1,0,0:0:0:0:
288,220,27307,2,0,P|264:268|256:332,1,105,0|0,1:0|3:0,0:0:0:0:
260,336,27769,1,0,0:0:0:0:
352,272,28000,2,0,L|436:264,1,70,0|0,3:0|1:0,0:0:0:0:
192,192,28461,2,0,L|108:184,1,70,0|0,3:0|0:0,0:0:0:0:
36,176,29153,5,2,2:0:0:0:
36,176,29615,2,2,P|16:232|4:300,1,105,2|0,0:0|0:0,0:0:0:0:
6,276,30076,1,4,3:1:0:0:
6,276,30538,1,4,0:0:0:0:
112,48,45307,5,0,3:0:0:0:
248,120,45769,1,0,1:0:0:0:
352,232,46230,1,0,3:0:0:0:
352,232,46692,1,0,1:0:0:0:
336,304,46923,1,2,0:0:0:0:
384,120,47153,5,0,3:0:0:0:
248,192,47615,1,0,1:0:0:0:
144,304,48076,1,0,3:0:0:0:
144,304,48538,1,0,1:0:0:0:
160,376,48769,1,2,0:0:0:0:
40,256,49000,5,0,3:0:0:0:
128,112,49461,1,0,1:0:0:0:
216,248,49923,1,0,3:0:0:0:
32,144,50384,1,0,1:0:0:0:
192,56,50615,1,2,0:0:0:0:
112,168,50846,6,0,P|120:232|128:328,1,140,0|0,3:0|1:0,0:0:0:0:
126,307,51769,1,0,3:0:0:0:
312,352,52230,1,0,1:0:0:0:
352,256,52461,1,2,0:0:0:0:
328,152,52692,5,0,3:0:0:0:
480,272,53153,1,0,1:0:0:0:
256,296,53615,2,0,P|216:320|192:344,1,70,0|2,3:0|0:0,0:0:0:0:
160,160,54076,5,0,1:0:0:0:
168,240,54307,1,0,0:0:0:0:
96,96,54538,5,0,3:0:0:0:
72,312,54999,1,0,1:0:0:0:
280,232,55461,2,0,P|320:256|344:280,1,70,0|2,3:0|0:0,0:0:0:0:
376,96,55922,5,0,1:0:0:0:
368,176,56153,1,0,0:0:0:0:
456,40,56384,5,0,3:0:0:0:
264,96,56615,1,2,0:0:0:0:
448,208,56846,1,0,1:0:0:0:
440,288,57076,2,0,P|352:312|296:352,1,140,2|2,0:0|0:0,0:0:0:0:
240,376,57769,1,0,1:0:0:0:
200,312,58000,6,0,B|136:296|112:328|40:304,1,140,2|2,0:0|0:0,0:0:0:0:
128,120,58692,1,0,1:0:0:0:
24,232,58923,1,2,0:0:0:0:
104,208,59153,2,0,L|232:216,1,105,0|0,1:0|1:0,0:0:0:0:
208,214,59615,1,0,1:0:0:0:
384,280,59846,1,0,1:0:0:0:
384,280,60076,6,0,P|400:224|416:160,1,93.0999961643983,4|0,1:0|0:0,0:0:0:0:
272,320,60538,2,0,P|288:264|304:200,1,93.0999961643983,0|0,1:0|0:0,0:0:0:0:
208,216,61000,2,0,P|224:160|240:96,1,93.0999961643983,0|0,1:0|0:0,0:0:0:0:
264,40,61461,1,0,1:0:0:0:
136,128,61692,1,2,0:0:0:0:
290,199,61923,5,0,1:0:0:0:
328,288,62153,1,0,0:0:0:0:
232,280,62384,1,0,1:0:0:0:
376,176,62615,1,0,0:0:0:0:
216,352,62846,5,0,1:0:0:0:
216,240,63076,1,0,0:0:0:0:
304,288,63307,1,0,1:0:0:0:
136,376,63538,1,2,2:2:0:0:
16,232,63769,6,0,P|40:136|96:72,1,186.199992328797,0|0,1:0|1:0,0:0:0:0:
288,200,64461,2,0,P|312:256|328:320,1,93.0999961643983,0|0,0:0|1:0,0:0:0:0:
192,360,64923,2,0,P|206:315|225:273,1,93.0999961643983,0|0,0:0|1:0,0:0:0:0:
384,192,65384,1,2,0:0:0:0:
136,288,65615,6,0,P|40:296|-32:240,1,186.199992328797,0|0,1:0|1:0,0:0:0:0:
8,160,66307,1,0,0:0:0:0:
88,208,66538,1,0,1:0:0:0:
136,288,66769,1,0,0:0:0:0:
200,168,67000,1,0,1:0:0:0:
128,64,67230,1,2,0:0:0:0:
96,192,67461,6,0,P|200:256|304:144,1,279.299988493195,0|0,1:0|0:0,0:0:0:0:
312,80,68384,1,0,1:0:0:0:
200,168,68615,1,0,0:0:0:0:
240,304,68846,1,0,1:0:0:0:
336,208,69076,1,2,0:0:0:0:
312,80,69307,6,0,L|192:64,1,93.0999961643983,0|0,1:0|0:0,0:0:0:0:
352,184,69769,2,0,L|472:168,1,93.0999961643983,0|0,1:0|0:0,0:0:0:0:
496,104,70230,1,0,1:0:0:0:
320,256,70461,2,0,P|296:304|288:352,1,93.0999961643983,0|0,0:0|1:0,0:0:0:0:
288,342,70923,1,2,0:0:0:0:
208,264,71153,6,0,L|16:248,1,186.199992328797,0|0,1:0|1:0,0:0:0:0:
56,176,71846,1,0,0:0:0:0:
56,176,72307,1,0,0:0:0:0:
136,336,72538,1,0,1:0:0:0:
200,184,72769,1,2,0:0:0:0:
176,96,73000,6,0,P|240:64|280:64,1,93.0999961643983,0|0,1:0|0:0,0:0:0:0:
260,62,73346,2,0,L|360:72,1,93.0999961643983,0|0,1:0|0:0,0:0:0:0:
424,112,73692,2,0,L|324:102,1,93.0999961643983,0|0,1:0|1:0,0:0:0:0:
232,160,74153,1,2,0:0:0:0:
344,352,74384,1,0,1:0:0:0:
432,240,74615,6,0,P|398:207|360:180,1,93.0999961643983,0|4,1:0|1:0,0:0:0:0:
288,232,75076,1,0,0:0:0:0:
240,312,75307,1,0,1:0:0:0:
240,312,75538,1,2,0:0:0:0:
240,312,75769,1,0,1:0:0:0:
368,256,76000,1,0,0:0:0:0:
400,128,76230,1,0,1:0:0:0:
400,128,76461,1,2,0:0:0:0:
400,128,76692,6,0,P|352:136|288:112,1,93.0999961643983,0|0,1:0|0:0,0:0:0:0:
264,24,77153,2,0,P|312:16|376:40,1,93.0999961643983,0|0,1:0|0:0,0:0:0:0:
288,208,77615,1,0,1:0:0:0:
160,160,77846,1,0,0:0:0:0:
152,24,78076,1,0,1:0:0:0:
264,104,78307,1,0,0:0:0:0:
248,240,78538,6,0,P|224:288|208:336,1,93.0999961643983,0|0,1:0|0:0,0:0:0:0:
296,360,79000,1,0,1:0:0:0:
296,360,79230,1,2,0:0:0:0:
296,360,79461,1,0,1:0:0:0:
168,304,79692,1,0,0:0:0:0:
136,176,79922,1,0,1:0:0:0:
136,176,80153,1,2,0:0:0:0:
136,176,80384,6,0,P|184:184|248:160,1,93.0999961643983,0|0,1:0|0:0,0:0:0:0:
392,216,80845,2,0,P|344:208|280:232,1,93.0999961643983,0|0,1:0|0:0,0:0:0:0:
232,264,81307,1,0,1:0:0:0:
336,136,81538,1,0,0:0:0:0:
288,320,81768,1,0,1:0:0:0:
440,288,81999,1,0,0:0:0:0:
512,168,82230,5,0,1:0:0:0:
508,152,82461,1,0,1:0:0:0:
392,208,82692,1,0,1:0:0:0:
396,192,82923,1,2,1:2:0:0:
264,168,83153,1,0,1:0:0:0:
260,152,83384,1,0,1:0:0:0:
144,208,83615,1,0,1:0:0:0:
148,192,83846,1,2,1:2:0:0:
16,136,84076,5,0,1:0:0:0:
18,154,84192,1,0,1:0:0:0:
20,172,84307,1,0,1:0:0:0:
22,190,84423,1,0,1:0:0:0:
24,208,84538,2,0,L|26:232,16,23.2749990410996,0|0|0|0|0|0|0|0|0|0|0|0|0|0|0|0|0,1:0|1:0|1:0|1:0|1:0|1:0|1:0|1:0|1:0|1:0|1:0|1:0|1:0|1:0|1:0|1:0|1:0,1:0:0:0:
48,320,85923,6,0,B|223:420|273:219|448:320,1,420.000016021729,0|4,0:0|0:0,0:0:0:0:
101,188,88230,5,4,1:0:0:0:
411,188,88692,1,4,1:0:0:0:
411,188,88923,1,0,0:0:0:0:
239,218,89153,1,8,1:3:0:0:
218,358,89384,1,0,0:0:0:0:
160,280,89615,6,0,P|160:232|152:184,1,93.0999961643983,4|2,1:2|0:0,0:0:0:0:
16,48,90076,2,0,P|16:96|24:144,1,93.0999961643983,4|0,1:2|0:0,0:0:0:0:
48,208,90423,1,0,1:0:0:0:
64,216,90538,2,0,L|168:232,1,93.0999961643983,0|2,1:0|1:2,0:0:0:0:
272,336,91000,2,0,P|216:352|168:320,1,93.0999961643983,0|2,1:2|0:0,0:0:0:0:
224,168,91461,6,0,P|280:152|328:184,1,93.0999961643983,4|2,1:2|0:0,0:0:0:0:
352,256,91923,1,4,1:2:0:0:
136,160,92153,1,0,0:0:0:0:
136,160,92269,1,0,1:0:0:0:
136,160,92384,1,0,1:0:0:0:
256,32,92615,1,2,1:2:0:0:
184,240,92846,1,0,1:0:0:0:
64,104,93076,1,2,1:2:0:0:
224,168,93307,6,0,L|336:184,1,93.0999961643983,4|2,1:2|0:0,0:0:0:0:
488,160,93769,2,0,L|376:144,1,93.0999961643983,4|0,1:2|0:0,0:0:0:0:
336,96,94115,1,0,1:0:0:0:
320,88,94230,2,0,P|296:40|288:-8,1,93.0999961643983,0|2,1:0|1:2,0:0:0:0:
416,56,94692,1,0,1:0:0:0:
464,240,94923,1,2,0:0:0:0:
328,352,95153,6,0,L|224:344,1,93.0999961643983,4|2,1:2|0:0,0:0:0:0:
64,280,95615,2,0,L|168:288,1,93.0999961643983,4|0,1:2|0:0,0:0:0:0:
224,248,95961,1,0,1:0:0:0:
240,240,96076,2,0,P|264:192|272:144,1,93.0999961643983,0|2,1:0|1:2,0:0:0:0:
112,40,96538,2,0,P|72:96|64:200,1,139.649994246598,4|0,1:2|0:0,0:0:0:0:
64,184,97000,6,0,P|112:184|160:192,1,93.0999961643983,4|2,1:2|0:0,0:0:0:0:
336,344,97461,2,0,P|288:344|240:336,1,93.0999961643983,4|0,1:2|0:0,0:0:0:0:
288,272,97808,1,0,1:0:0:0:
296,256,97923,2,0,L|312:152,1,93.0999961643983,0|2,1:0|1:2,0:0:0:0:
448,232,98385,2,0,P|464:288|432:336,1,93.0999961643983,0|2,1:2|0:0,0:0:0:0:
224,176,98846,6,0,P|208:120|240:72,1,93.0999961643983,4|2,1:2|0:0,0:0:0:0:
288,32,99308,1,4,1:2:0:0:
376,224,99538,1,0,0:0:0:0:
376,224,99654,1,0,1:0:0:0:
376,224,99769,1,0,1:0:0:0:
256,352,100000,1,2,1:2:0:0:
328,144,100231,1,0,1:0:0:0:
448,280,100461,1,2,1:2:0:0:
248,272,100692,6,0,L|136:256,1,93.0999961643983,4|2,1:2|0:0,0:0:0:0:
16,168,101154,2,0,L|128:184,1,93.0999961643983,4|0,1:2|0:0,0:0:0:0:
184,160,101500,1,0,1:0:0:0:
200,152,101615,2,0,P|224:104|232:56,1,93.0999961643983,0|2,1:0|1:2,0:0:0:0:
80,64,102077,1,0,1:0:0:0:
32,248,102308,1,2,0:0:0:0:
168,360,102538,6,0,L|272:352,1,93.0999961643983,4|2,1:2|0:0,0:0:0:0:
448,144,103000,2,0,L|344:136,1,93.0999961643983,4|0,1:2|0:0,0:0:0:0:
288,176,103346,1,0,1:0:0:0:
272,184,103461,2,0,P|248:232|240:280,1,93.0999961643983,0|2,1:0|1:2,0:0:0:0:
192,136,103923,2,0,P|136:96|32:88,1,139.649994246598,4|0,1:2|0:0,0:0:0:0:
48,88,104384,5,4,0:0:0:0:
72,272,104615,1,0,0:0:0:0:
216,168,104846,1,4,0:0:0:0:
48,176,105076,2,0,P|40:224|48:272,1,93.0999961643983,2|4,0:0|0:0,0:0:0:0:
152,368,105538,1,0,0:0:0:0:
304,184,105769,1,4,0:0:0:0:
168,280,106000,1,2,0:0:0:0:
312,368,106230,6,0,L|416:352,1,93.0999961643983,4|0,0:0|0:0,0:0:0:0:
504,264,106692,2,0,L|400:280,1,93.0999961643983,4|2,0:0|0:0,0:0:0:0:
328,288,107038,1,0,1:0:0:0:
312,280,107153,2,0,P|288:232|280:184,1,93.0999961643983,0|2,1:0|1:2,0:0:0:0:
320,32,107615,1,0,1:0:0:0:
400,184,107846,1,2,0:0:0:0:
232,312,108076,6,0,P|184:336|128:328,1,93.0999961643983,4|0,0:0|0:0,0:0:0:0:
16,240,108538,1,4,0:0:0:0:
48,88,108769,1,2,0:0:0:0:
192,144,109000,2,0,P|208:192|200:256,1,93.0999961643983,4|0,0:0|0:0,0:0:0:0:
40,344,109461,2,0,P|24:296|32:232,1,93.0999961643983,4|2,0:0|0:0,0:0:0:0:
288,192,109923,6,0,L|416:176,1,93.0999961643983,4|0,0:0|0:0,0:0:0:0:
512,240,110384,2,0,L|384:256,1,93.0999961643983,4|2,0:0|0:0,0:0:0:0:
336,264,110730,1,0,1:0:0:0:
320,272,110845,2,0,P|296:320|288:368,1,93.0999961643983,0|2,1:0|1:2,0:0:0:0:
472,168,111307,2,0,P|462:122|440:81,1,93.0999961643983,0|2,1:0|1:2,0:0:0:0:
352,48,111769,5,4,0:0:0:0:
272,272,112000,1,0,0:0:0:0:
128,168,112231,1,4,0:0:0:0:
296,176,112461,2,0,P|304:224|296:272,1,93.0999961643983,2|4,0:0|0:0,0:0:0:0:
192,368,112923,1,0,0:0:0:0:
40,184,113154,1,4,0:0:0:0:
176,280,113385,1,2,0:0:0:0:
232,80,113615,6,0,L|128:96,1,93.0999961643983,4|0,0:0|0:0,0:0:0:0:
40,184,114077,2,0,L|144:168,1,93.0999961643983,4|2,0:0|0:0,0:0:0:0:
216,160,114423,1,0,1:0:0:0:
232,168,114538,2,0,P|256:216|264:264,1,93.0999961643983,0|2,1:0|1:2,0:0:0:0:
192,352,115000,1,0,1:0:0:0:
112,200,115231,1,2,0:0:0:0:
280,72,115461,6,0,P|328:48|384:56,1,93.0999961643983,4|0,0:0|0:0,0:0:0:0:
496,144,115923,1,4,0:0:0:0:
464,296,116154,1,2,0:0:0:0:
320,240,116385,2,0,P|304:192|312:128,1,93.0999961643983,4|0,0:0|0:0,0:0:0:0:
472,40,116846,2,0,P|488:88|480:152,1,93.0999961643983,4|2,0:0|0:0,0:0:0:0:
224,192,117308,6,0,L|96:208,1,93.0999961643983,4|0,0:0|0:0,0:0:0:0:
0,144,117769,2,0,L|128:128,1,93.0999961643983,4|2,0:0|0:0,0:0:0:0:
176,120,118115,1,0,1:0:0:0:
192,112,118230,2,0,P|208:64|200:8,1,93.0999961643983,0|2,1:0|1:2,0:0:0:0:
64,216,118692,6,0,P|48:264|56:328,1,105.000004005432,0|4,1:0|1:1,0:0:0:0:
240,256,119500,5,0,3:0:0:0:
256,240,119615,2,0,L|272:128,1,93.0999961643983,0|2,1:1|0:0,0:0:0:0:
336,192,119961,1,0,3:0:0:0:
352,200,120076,2,0,P|368:248|360:304,1,93.0999961643983,0|0,3:0|3:2,0:0:0:0:
176,360,120538,2,0,P|160:312|168:256,1,93.0999961643983,0|2,1:0|0:2,0:0:0:0:
336,192,121000,6,0,L|352:80,1,93.0999961643983,0|0,3:0|0:0,0:0:0:0:
360,16,121461,1,0,1:0:0:0:
448,136,121692,1,2,0:0:0:0:
256,184,121923,2,0,P|208:216|184:248,1,93.0999961643983,0|0,3:0|0:0,0:0:0:0:
352,328,122384,2,0,P|322:292|282:268,1,93.0999961643983,0|2,1:0|0:0,0:0:0:0:
136,184,122846,6,0,L|0:208,1,93.0999961643983,0|0,3:0|0:0,0:0:0:0:
160,104,123307,2,0,L|304:80,1,139.649994246598,0|0,1:0|3:0,0:0:0:0:
317,76,123769,1,0,3:0:0:0:
384,168,124000,1,0,3:0:0:0:
408,280,124230,1,0,1:0:0:0:
472,184,124461,1,2,3:2:0:0:
320,296,124692,6,0,L|296:392,1,93.0999961643983,0|0,3:0|0:0,0:0:0:0:
232,304,125153,2,0,L|256:208,1,93.0999961643983,0|2,1:0|0:0,0:0:0:0:
232,136,125500,1,0,3:0:0:0:
224,117,125615,2,0,P|184:88|104:109,1,93.0999961643983,0|0,3:0|3:0,0:0:0:0:
64,240,126076,2,0,P|104:269|184:248,1,93.0999961643983,0|2,1:0|0:0,0:0:0:0:
350,244,126538,6,0,P|302:212|238:220,1,105.000004005432,0|4,0:0|1:0,0:0:0:0:
160,64,127346,5,0,3:0:0:0:
144,80,127461,2,0,L|128:192,1,93.0999961643983,0|0,3:1|0:0,0:0:0:0:
32,256,127923,2,0,L|48:144,1,93.0999961643983,0|2,1:1|0:0,0:0:0:0:
208,128,128384,5,0,3:0:0:0:
288,272,128615,1,0,0:0:0:0:
144,360,128846,2,0,P|128:320|144:264,1,93.0999961643983,0|2,1:0|0:0,0:0:0:0:
192,216,129192,1,0,3:0:0:0:
208,208,129307,2,0,L|312:192,1,93.0999961643983,0|0,3:0|3:0,0:0:0:0:
400,96,129769,2,0,L|296:112,1,93.0999961643983,0|2,1:0|0:0,0:0:0:0:
360,272,130230,6,0,P|328:328|320:400,1,93.0999961643983,0|0,3:0|0:0,0:0:0:0:
512,256,130692,2,0,P|498:211|473:172,1,93.0999961643983,0|2,1:0|0:0,0:0:0:0:
400,192,131038,1,0,3:0:0:0:
384,184,131153,2,0,L|280:200,1,93.0999961643983,0|0,3:0|3:0,0:0:0:0:
208,216,131615,1,0,1:0:0:0:
96,368,131846,1,2,0:0:0:0:
88,184,132076,6,0,L|72:64,1,93.0999961643983,0|0,3:0|0:0,0:0:0:0:
0,144,132538,1,0,1:0:0:0:
128,272,132769,1,2,3:2:0:0:
128,272,132884,1,0,3:0:0:0:
128,272,133000,1,0,1:0:0:0:
208,120,133230,2,0,L|216:96,3,23.2749990410996,0|0|0|0,3:0|3:0|3:0|3:0,0:0:0:0:
208,120,133461,2,0,P|248:144|304:144,1,93.0999961643983,0|0,3:0|1:0,0:0:0:0:
464,160,133923,6,0,P|417:162|378:186,1,93.0999961643983,4|0,1:0|0:0,0:0:0:0:
368,200,134269,2,0,L|344:344,1,139.649994246598,0|2,0:0|0:0,0:0:0:0:
424,360,134730,1,0,3:0:0:0:
440,352,134846,2,0,P|456:304|448:264,1,93.0999961643983,0|0,3:0|3:0,0:0:0:0:
272,160,135307,2,0,P|256:208|264:248,1,93.0999961643983,0|2,1:0|0:0,0:0:0:0:
432,136,135769,6,0,P|429:89|405:50,1,93.0999961643983,0|0,1:0|3:0,0:0:0:0:
392,40,136115,2,0,L|248:16,1,139.649994246598,0|2,3:0|3:2,0:0:0:0:
200,80,136576,1,0,3:0:0:0:
217,85,136692,2,0,L|320:106,1,93.0999961643983,0|0,3:0|3:0,0:0:0:0:
368,328,137153,2,0,P|328:352|264:344,1,93.0999961643983,0|2,1:0|0:0,0:0:0:0:
72,184,137615,6,0,P|112:160|176:168,1,93.0999961643983,0|0,1:0|3:0,0:0:0:0:
168,176,137961,2,0,L|192:320,1,139.649994246598,0|2,3:0|3:2,0:0:0:0:
272,336,138423,1,0,3:0:0:0:
269,319,138538,2,0,L|252:226,1,93.0999961643983,0|0,3:0|3:0,0:0:0:0:
64,224,139000,1,0,1:0:0:0:
176,360,139230,1,2,0:0:0:0:
336,256,139461,6,0,P|352:200|344:160,1,93.0999961643983,0|0,1:0|0:0,0:0:0:0:
152,80,139923,2,0,P|136:136|144:176,1,93.0999961643983,0|2,1:0|0:0,0:0:0:0:
150,185,140269,1,0,3:0:0:0:
164,195,140384,1,0,3:0:0:0:
232,128,140615,1,0,3:0:0:0:
32,168,140846,1,0,1:0:0:0:
192,288,141076,1,0,3:0:0:0:
408,248,141307,6,0,P|405:201|381:162,1,93.0999961643983,4|0,1:0|0:0,0:0:0:0:
368,152,141653,2,0,L|224:128,1,139.649994246598,0|2,0:0|0:0,0:0:0:0:
144,120,142114,1,0,3:0:0:0:
128,128,142230,2,0,P|112:176|120:216,1,93.0999961643983,0|0,3:0|3:0,0:0:0:0:
224,360,142691,2,0,P|240:312|232:272,1,93.0999961643983,0|2,1:0|0:0,0:0:0:0:
352,344,143153,6,0,P|398:341|437:317,1,93.0999961643983,0|0,1:0|3:0,0:0:0:0:
448,304,143499,2,0,L|472:160,1,139.649994246598,0|2,3:0|3:2,0:0:0:0:
408,88,143960,1,0,3:0:0:0:
403,105,144076,2,0,L|382:208,1,93.0999961643983,0|0,3:0|3:0,0:0:0:0:
192,176,144537,2,0,P|232:152|296:160,1,93.0999961643983,0|2,1:0|0:0,0:0:0:0:
280,328,144999,6,0,P|240:352|176:344,1,93.0999961643983,4|0,1:0|3:0,0:0:0:0:
96,232,145461,1,0,1:0:0:0:
168,96,145692,2,0,L|360:64,1,186.199992328797,2|0,0:0|0:0,0:0:0:0:
440,40,146384,1,0,1:0:0:0:
320,152,146615,6,0,P|288:208|272:256,1,93.0999961643983,2|0,2:0|3:0,0:0:0:0:
352,368,147076,1,0,0:0:0:0:
488,344,147307,2,0,P|470:301|445:261,1,93.0999961643983,0|2,1:0|0:0,0:0:0:0:
445,261,147653,1,0,3:0:0:0:
445,261,147769,6,0,L|328:288,1,105.000004005432,4|0,3:2|0:0,0:0:0:0:
343,284,148461,1,0,0:0:0:0:
256,312,148692,1,4,1:0:0:0:
80,192,163461,6,0,P|120:240|256:232,1,210.000008010865,4|0,1:0|0:0,0:0:0:0:
200,160,164615,1,0,0:0:0:0:
256,312,164846,1,0,0:0:0:0:
312,160,165076,1,0,0:0:0:0:
448,336,165307,6,0,L|320:320,1,105.000004005432,2|0,0:0|0:0,0:0:0:0:
64,336,166230,2,0,L|192:320,1,105.000004005432,2|0,0:0|0:0,0:0:0:0:
360,224,167153,5,2,0:0:0:0:
432,280,167384,1,0,0:0:0:0:
448,192,167615,2,0,P|457:141|480:88,1,105.000004005432
288,168,168307,1,0,0:0:0:0:
272,256,168538,2,0,P|262:306|240:360,1,105.000004005432,0|2,0:0|0:0,0:0:0:0:
168,304,169230,5,0,0:0:0:0:
352,280,169461,2,0,L|472:264,1,105.000004005432,0|2,0:0|0:0,0:0:0:0:
368,192,170153,1,0,0:0:0:0:
184,168,170384,2,0,L|64:152,1,105.000004005432,0|2,0:0|0:0,0:0:0:0:
24,64,171076,5,0,0:0:0:0:
128,72,171307,1,0,0:0:0:0:
104,248,171538,2,0,L|88:368,1,105.000004005432
192,320,172230,1,0,0:0:0:0:
208,216,172461,1,0,0:0:0:0:
288,280,172692,5,2,0:0:0:0:
96,360,173153,1,0,0:0:0:0:
8,168,173615,1,2,0:0:0:0:
160,24,174076,1,0,0:0:0:0:
224,80,174307,1,0,0:0:0:0:
272,152,174538,6,0,L|272:224,1,52.5000020027161,2|0,0:0|0:0,0:0:0:0:
272,204,174884,2,0,P|336:223|368:223,1,78.7500030040742
432,200,175461,1,2,0:0:0:0:
480,264,175692,2,0,L|488:368,1,105.000004005432
400,288,176384,6,0,L|392:184,1,105.000004005432,2|0,0:0|0:0,0:0:0:0:
144,224,177307,2,0,L|152:328,1,105.000004005432,2|0,0:0|0:0,0:0:0:0:
432,112,178230,5,0,3:0:0:0:
432,112,178692,2,0,P|384:152|344:208,1,105,0|0,1:0|3:0,0:0:0:0:
344,208,179153,2,0,L|264:224,1,70,0|0,3:0|3:0,0:0:0:0:
192,232,179615,1,0,1:0:0:0:
328,296,179846,2,0,L|496:272,1,140
280,144,180538,6,0,P|256:104|208:64,1,105,0|0,1:0|3:0,0:0:0:0:
195,59,181000,1,0,3:0:0:0:
152,176,181230,1,0,3:0:0:0:
208,288,181461,1,0,1:0:0:0:
328,328,181692,6,0,P|392:304|464:304,1,140
360,232,182384,2,0,P|344:184|344:120,1,105,0|0,1:0|3:0,0:0:0:0:
352,112,182846,1,0,3:0:0:0:
440,192,183076,1,0,3:0:0:0:
424,320,183307,1,0,1:0:0:0:
312,360,183538,6,0,L|160:336,1,140
128,240,184230,1,0,1:0:0:0:
168,136,184461,1,0,0:0:0:0:
168,136,184576,1,0,3:0:0:0:
168,136,184692,2,0,L|160:56,1,70,0|0,3:0|3:0,0:0:0:0:
72,0,185153,2,0,L|80:80,1,70,0|0,1:0|3:0,0:0:0:0:
248,152,185615,6,0,P|312:176|360:240,1,140,0|0,3:0|1:0,0:0:0:0:
384,312,186307,1,0,0:0:0:0:
384,312,186423,1,0,3:0:0:0:
384,312,186538,2,0,L|392:240,1,70,0|0,3:0|3:0,0:0:0:0:
408,152,187000,1,0,1:0:0:0:
232,256,187230,5,0,3:0:0:0:
232,256,187692,2,0,L|80:288,1,140,0|0,3:0|0:0,0:0:0:0:
95,284,188269,1,0,3:0:0:0:
95,284,188384,1,0,3:0:0:0:
8,216,188615,2,0,P|8:152|64:88,1,140,0|0,3:0|0:0,0:0:0:0:
53,94,189307,6,0,L|200:112,1,140,0|0,3:0|1:0,0:0:0:0:
264,264,190115,1,0,3:0:0:0:
272,280,190230,2,0,L|368:272,1,70,0|0,3:0|3:0,0:0:0:0:
456,256,190692,1,0,1:0:0:0:
504,152,190923,6,0,L|352:168,1,140,0|0,3:0|3:0,0:0:0:0:
272,104,191615,1,0,1:0:0:0:
200,184,191846,2,0,P|152:256|136:320,1,140,0|0,3:0|3:0,0:0:0:0:
248,304,192538,1,0,1:0:0:0:
304,208,192769,1,0,3:0:0:0:
272,104,193000,6,0,P|216:88|152:72,1,93.0999961643983,4|0,1:1|0:0,0:0:0:0:
0,128,193462,2,0,P|56:144|120:160,1,93.0999961643983,4|0,1:2|0:0,0:0:0:0:
208,296,193924,2,0,P|152:280|88:264,1,93.0999961643983,4|0,1:2|0:0,0:0:0:0:
32,248,194385,1,4,1:2:0:0:
136,368,194616,1,2,0:0:0:0:
264,224,194847,5,4,1:2:0:0:
302,135,195077,1,0,0:0:0:0:
206,143,195308,1,4,1:2:0:0:
320,336,195539,1,0,0:0:0:0:
424,160,195770,5,4,1:2:0:0:
394,268,196000,1,0,3:0:0:0:
491,244,196231,1,4,3:2:0:0:
384,64,196462,1,2,2:2:0:0:
248,168,196693,6,8,P|212:260|221:344,1,186.199992328797,4|4,1:2|1:2,0:0:0:0:
320,336,197385,2,0,P|376:312|440:296,1,93.0999961643983,0|4,0:0|1:2,0:0:0:0:
336,160,197847,2,0,P|322:205|303:247,1,93.0999961643983,0|4,0:0|1:2,0:0:0:0:
136,336,198308,1,2,0:0:0:0:
32,144,198539,6,0,P|128:128|192:192,1,186.199992328797,4|4,1:2|1:2,0:0:0:0:
224,328,199231,1,0,0:0:0:0:
112,232,199462,1,4,1:2:0:0:
176,96,199693,1,0,0:0:0:0:
256,224,199924,1,4,1:2:0:0:
424,248,200154,1,2,0:0:0:0:
472,112,200385,6,0,P|368:48|264:160,1,279.299988493195,4|0,1:2|0:0,0:0:0:0:
256,224,201308,1,4,1:2:0:0:
368,136,201539,1,0,0:0:0:0:
328,0,201770,1,4,1:2:0:0:
232,96,202000,1,2,0:0:0:0:
336,240,202231,6,0,L|456:256,1,93.0999961643983,4|0,1:2|0:0,0:0:0:0:
504,184,202693,2,0,L|384:168,1,93.0999961643983,4|0,1:2|0:0,0:0:0:0:
296,328,203154,1,4,1:2:0:0:
168,248,203385,2,0,P|144:200|136:152,1,93.0999961643983,0|4,0:0|1:2,0:0:0:0:
136,162,203847,1,2,0:0:0:0:
280,120,204077,6,0,L|472:136,1,186.199992328797,4|4,1:2|1:2,0:0:0:0:
432,208,204770,1,0,0:0:0:0:
432,208,205231,1,0,0:0:0:0:
368,48,205462,1,4,1:2:0:0:
304,200,205693,1,2,0:0:0:0:
336,288,205924,6,0,P|272:320|232:320,1,93.0999961643983,4|0,1:2|0:0,0:0:0:0:
252,322,206270,2,0,L|152:312,1,93.0999961643983,0|0,1:0|0:0,0:0:0:0:
88,272,206616,2,0,L|188:282,1,93.0999961643983,0|4,1:0|1:2,0:0:0:0:
280,224,207077,1,2,0:0:0:0:
168,32,207308,1,4,1:2:0:0:
80,144,207539,6,0,P|114:177|152:204,1,93.0999961643983,0|4,1:0|1:0,0:0:0:0:
224,152,208000,1,0,0:0:0:0:
272,72,208231,1,0,1:0:0:0:
272,72,208462,1,2,0:0:0:0:
272,72,208693,1,0,1:0:0:0:
144,128,208924,1,0,0:0:0:0:
112,256,209154,1,0,1:0:0:0:
112,256,209385,1,2,0:0:0:0:
112,256,209616,6,0,P|160:248|224:272,1,93.0999961643983,4|0,1:2|0:0,0:0:0:0:
248,360,210077,2,0,P|200:368|136:344,1,93.0999961643983,4|0,1:2|0:0,0:0:0:0:
224,176,210539,1,4,1:2:0:0:
352,224,210770,1,0,0:0:0:0:
360,360,211000,1,4,1:2:0:0:
248,280,211231,1,0,0:0:0:0:
264,144,211462,6,0,P|288:96|304:48,1,93.0999961643983,4|0,1:2|0:0,0:0:0:0:
216,24,211924,1,0,1:0:0:0:
216,24,212154,1,2,0:0:0:0:
216,24,212385,1,0,1:0:0:0:
344,80,212616,1,0,0:0:0:0:
376,208,212846,1,0,1:0:0:0:
376,208,213077,1,2,0:0:0:0:
376,208,213308,6,0,P|328:200|264:224,1,93.0999961643983,4|0,1:2|0:0,0:0:0:0:
120,168,213769,2,0,P|168:176|232:152,1,93.0999961643983,4|0,1:2|0:0,0:0:0:0:
280,120,214231,1,4,1:2:0:0:
176,248,214462,1,0,0:0:0:0:
224,64,214692,1,4,1:2:0:0:
72,96,214923,1,0,0:0:0:0:
0,216,215154,5,4,1:2:0:0:
4,232,215385,1,0,1:2:0:0:
120,360,215616,1,4,1:2:0:0:
124,344,215847,1,2,1:2:0:0:
248,216,216077,1,4,1:2:0:0:
252,232,216308,1,0,1:2:0:0:
376,368,216539,1,4,1:2:0:0:
380,352,216770,1,2,1:2:0:0:
352,168,217000,5,4,2:0:0:0:
350,186,217116,1,0,1:0:0:0:
348,204,217231,1,0,1:0:0:0:
346,222,217347,1,0,1:0:0:0:
344,240,217462,2,0,L|342:264,16,23.2749990410996,4|0|0|0|0|0|0|0|4|0|0|0|0|0|0|0|0,1:2|1:0|1:0|1:0|1:0|1:0|1:0|1:0|1:2|1:0|1:0|1:0|1:0|1:0|1:0|1:0|2:0,1:0:0:0:
424,144,218846,6,0,P|256:38|88:144,1,420.000016021729,0|4,0:0|0:0,0:0:0:0:
256,360,221153,6,0,L|248:264,1,78.7500030040742
240,208,221615,1,4,1:0:0:0:
336,320,221846,1,0,0:0:0:0:
152,224,222076,1,8,1:3:0:0:
352,136,222307,1,0,0:0:0:0:
152,320,222538,6,0,P|104:320|56:312,1,93.0999961643983,4|2,1:2|0:0,0:0:0:0:
240,208,222999,2,0,P|288:208|336:216,1,93.0999961643983,4|0,1:2|0:0,0:0:0:0:
400,240,223346,1,0,1:0:0:0:
408,256,223461,2,0,L|424:360,1,93.0999961643983,0|2,1:0|1:2,0:0:0:0:
480,192,223923,2,0,P|496:136|464:88,1,93.0999961643983,0|2,1:2|0:0,0:0:0:0:
328,0,224384,6,0,P|312:56|344:104,1,93.0999961643983,4|2,1:2|0:0,0:0:0:0:
408,128,224846,1,4,1:2:0:0:
224,32,225076,1,0,0:0:0:0:
224,32,225192,1,0,1:0:0:0:
224,32,225307,1,0,1:0:0:0:
176,256,225538,1,2,1:2:0:0:
328,160,225769,1,0,1:0:0:0:
112,104,225999,1,2,1:2:0:0:
259,242,226230,6,0,L|352:256,1,93.0999961643983,4|2,1:2|0:0,0:0:0:0:
144,144,226692,2,0,L|256:160,1,93.0999961643983,4|0,1:2|0:0,0:0:0:0:
312,120,227038,1,0,1:0:0:0:
328,112,227153,2,0,P|352:64|360:16,1,93.0999961643983,0|2,1:0|1:2,0:0:0:0:
200,72,227615,1,0,1:0:0:0:
256,240,227846,1,2,0:0:0:0:
200,304,228076,6,0,L|96:312,1,93.0999961643983,4|2,1:2|0:0,0:0:0:0:
360,360,228538,2,0,L|256:368,1,93.0999961643983,4|0,1:2|0:0,0:0:0:0:
328,288,228884,1,0,1:0:0:0:
344,280,228999,2,0,P|368:232|376:184,1,93.0999961643983,0|2,1:0|1:2,0:0:0:0:
368,112,229461,1,0,1:0:0:0:
448,288,229692,1,0,0:0:0:0:
264,208,229923,6,0,P|216:208|168:216,1,93.0999961643983,4|2,1:2|0:0,0:0:0:0:
8,184,230384,2,0,P|56:184|104:176,1,93.0999961643983,4|0,1:2|0:0,0:0:0:0:
160,120,230731,1,0,1:0:0:0:
168,104,230846,2,0,L|184:0,1,93.0999961643983,0|2,1:0|1:2,0:0:0:0:
48,256,231308,2,0,P|32:312|64:360,1,93.0999961643983,0|2,1:2|0:0,0:0:0:0:
264,208,231769,6,0,P|280:152|248:104,1,93.0999961643983,4|2,1:2|0:0,0:0:0:0:
136,232,232231,1,4,1:2:0:0:
280,352,232461,1,0,0:0:0:0:
280,352,232577,1,0,1:0:0:0:
280,352,232692,1,0,1:0:0:0:
456,136,232923,1,2,1:2:0:0:
384,344,233154,1,0,1:0:0:0:
264,208,233384,1,2,1:2:0:0:
392,264,233615,6,0,L|504:280,1,93.0999961643983,4|2,1:2|0:0,0:0:0:0:
328,128,234077,2,0,L|216:112,1,93.0999961643983,4|0,1:2|0:0,0:0:0:0:
160,96,234423,1,0,1:0:0:0:
144,88,234538,2,0,P|120:40|112:-8,1,93.0999961643983,0|2,1:0|1:2,0:0:0:0:
304,56,235000,1,0,1:0:0:0:
184,192,235231,1,2,0:0:0:0:
296,272,235461,6,0,L|304:376,1,93.0999961643983,4|2,1:2|0:0,0:0:0:0:
376,256,235923,2,0,L|368:152,1,93.0999961643983,4|0,1:2|0:0,0:0:0:0:
408,96,236269,1,0,1:0:0:0:
416,80,236384,2,0,P|464:56|512:48,1,93.0999961643983,0|2,1:0|1:2,0:0:0:0:
464,240,236846,1,0,0:0:0:0:
288,160,237076,1,2,0:0:0:0:
144,320,237307,5,4,0:0:0:0:
168,136,237538,1,0,0:0:0:0:
312,240,237769,1,4,0:0:0:0:
88,224,237999,2,0,P|80:176|88:128,1,93.0999961643983,2|4,0:0|0:0,0:0:0:0:
128,64,238461,1,0,0:0:0:0:
312,240,238692,1,4,0:0:0:0:
256,120,238923,1,2,0:0:0:0:
368,16,239153,6,0,L|472:32,1,93.0999961643983,4|0,0:0|0:0,0:0:0:0:
504,120,239615,2,0,L|400:104,1,93.0999961643983,4|2,0:0|0:0,0:0:0:0:
328,96,239961,1,0,1:0:0:0:
312,104,240076,2,0,P|288:152|280:200,1,93.0999961643983,0|2,1:0|1:2,0:0:0:0:
320,352,240538,1,0,1:0:0:0:
400,200,240769,1,2,0:0:0:0:
232,72,240999,6,0,L|128:56,1,93.0999961643983,4|0,0:0|0:0,0:0:0:0:
16,144,241461,1,4,0:0:0:0:
48,296,241692,1,2,0:0:0:0:
192,240,241923,2,0,P|208:192|200:128,1,93.0999961643983,4|0,0:0|0:0,0:0:0:0:
40,40,242384,2,0,P|24:88|32:152,1,93.0999961643983,4|2,0:0|0:0,0:0:0:0:
288,192,242846,6,0,L|416:208,1,93.0999961643983,4|0,0:0|0:0,0:0:0:0:
512,144,243307,2,0,L|384:128,1,93.0999961643983,4|2,0:0|0:0,0:0:0:0:
336,120,243653,1,0,1:0:0:0:
320,112,243768,2,0,P|296:64|288:16,1,93.0999961643983,0|2,1:0|1:2,0:0:0:0:
472,216,244230,2,0,P|462:262|440:303,1,93.0999961643983,0|2,1:0|1:2,0:0:0:0:
352,336,244692,5,4,0:0:0:0:
272,112,244923,1,0,0:0:0:0:
128,216,245154,1,4,0:0:0:0:
280,304,245384,2,0,P|288:256|280:208,1,93.0999961643983,2|4,0:0|0:0,0:0:0:0:
120,112,245846,1,0,0:0:0:0:
8,264,246077,1,4,0:0:0:0:
160,368,246308,1,2,0:0:0:0:
280,232,246538,6,0,L|384:216,1,93.0999961643983,4|0,0:0|0:0,0:0:0:0:
504,128,247000,2,0,L|400:144,1,93.0999961643983,4|2,0:0|0:0,0:0:0:0:
336,144,247346,1,0,1:0:0:0:
328,128,247461,2,0,P|280:104|232:96,1,93.0999961643983,0|2,1:0|1:2,0:0:0:0:
160,264,247923,1,0,1:0:0:0:
320,360,248154,1,2,0:0:0:0:
464,248,248384,6,0,P|416:224|360:232,1,93.0999961643983,4|0,0:0|0:0,0:0:0:0:
272,304,248846,1,4,0:0:0:0:
208,192,249077,1,2,0:0:0:0:
80,176,249308,2,0,P|64:128|72:64,1,93.0999961643983,4|0,0:0|0:0,0:0:0:0:
224,16,249769,2,0,P|240:64|232:128,1,93.0999961643983,4|2,0:0|0:0,0:0:0:0:
160,304,250231,6,0,L|32:288,1,93.0999961643983,4|0,0:0|0:0,0:0:0:0:
232,224,250692,2,0,L|360:240,1,93.0999961643983,4|2,0:0|0:0,0:0:0:0:
448,344,251153,2,0,L|320:328,1,93.0999961643983,4|2,0:0|0:0,0:0:0:0:
304,144,251615,5,0,0:0:0:0:
304,144,251846,1,2,0:0:0:0:
304,144,252076,2,0,L|400:136,1,70,4|0,1:2|0:0,0:0:0:0:
512,200,252538,2,0,L|382:210,1,105,0|0,1:0|3:0,0:0:0:0:
384,210,253000,1,0,3:0:0:0:
312,272,253230,1,0,3:0:0:0:
280,360,253461,2,0,L|184:352,1,70,0|2,1:0|3:2,0:0:0:0:
72,216,253923,6,0,L|168:224,1,70,0|0,3:0|0:0,0:0:0:0:
112,312,254384,1,0,1:0:0:0:
64,232,254615,2,0,L|56:88,1,140,2|0,0:0|3:0,0:0:0:0:
56,92,255307,1,0,1:0:0:0:
144,40,255538,2,0,L|152:184,1,140,2|0,0:0|0:0,0:0:0:0:
151,179,256230,6,0,P|208:192|280:176,1,105,0|0,1:0|3:0,0:0:0:0:
272,184,256692,1,0,3:0:0:0:
352,240,256923,1,0,3:0:0:0:
392,328,257153,1,0,1:0:0:0:
456,248,257384,1,2,3:2:0:0:
416,160,257615,6,0,L|400:88,1,70,0|0,0:0|0:0,0:0:0:0:
256,192,258076,2,0,L|279:296,1,105,0|0,1:0|3:0,0:0:0:0:
284,310,258538,1,0,3:0:0:0:
88,320,258769,1,0,3:0:0:0:
176,248,259000,1,0,1:0:0:0:
184,360,259230,1,2,0:0:0:0:
32,248,259461,6,0,P|28:212|40:176,1,70,0|0,3:0|0:0,0:0:0:0:
128,144,259923,2,0,P|136:88|120:40,1,105,0|0,1:0|3:0,0:0:0:0:
112,32,260384,1,0,3:0:0:0:
24,104,260615,1,0,3:0:0:0:
128,144,260846,2,0,L|208:152,1,70,0|2,1:0|0:0,0:0:0:0:
312,232,261307,6,0,L|232:224,1,70,0|0,3:0|3:0,0:0:0:0:
216,80,261769,1,0,1:0:0:0:
336,8,262000,2,0,P|376:72|384:144,1,140,2|0,0:0|0:0,0:0:0:0:
384,134,262692,1,0,1:0:0:0:
208,192,262923,2,0,P|168:256|160:328,1,140,2|0,0:0|0:0,0:0:0:0:
240,360,263615,5,0,1:0:0:0:
336,200,263846,1,2,0:0:0:0:
336,200,263961,1,0,3:0:0:0:
336,200,264076,1,0,3:0:0:0:
320,328,264307,1,0,3:0:0:0:
456,256,264538,1,0,1:0:0:0:
432,104,264769,1,2,3:2:0:0:
256,192,265000,12,4,266846,0:0:0:0:
