osu file format v9

[General]
AudioFilename: Star Trail.mp3
AudioLeadIn: 0
PreviewTime: 92406
Countdown: 0
SampleSet: Soft
StackLeniency: 0.7
Mode: 0
LetterboxInBreaks: 0

[Editor]
DistanceSpacing: 1
BeatDivisor: 4
GridSize: 4

[Metadata]
Title:Star Trail
Artist:Nhato
Creator:Makar8000
Version:Beginner
Source:Beatmania IIDX 19 Lincle
Tags:xcherry Nyquill Haruka Sweet_Serenitee Tatsuya Fukumuro Dubstep

[Difficulty]
HPDrainRate:2
CircleSize:3
OverallDifficulty:2
ApproachRate:3
SliderMultiplier:1
SliderTickRate:1

[Events]
//Background and Video events
0,0,"spacething.jpg"
//Break Periods
2,68281,73128
//Storyboard Layer 0 (Background)
//Storyboard Layer 1 (Fail)
//Storyboard Layer 2 (Pass)
//Storyboard Layer 3 (Foreground)
//Storyboard Sound Samples
//Background Colour Transformations
3,100,0,0,0

[TimingPoints]
3217,405.405405405405,4,2,1,70,1,0
42135,-100,4,2,1,70,0,1
48622,-100,4,2,1,70,0,0
55108,-100,4,2,1,70,0,1
61595,-100,4,2,1,70,0,0
81054,-100,4,2,1,70,0,0
94027,-100,4,2,1,70,0,1
105480,-100,4,2,1,25,0,1
107000,-100,4,2,1,25,0,0

[Colours]
Combo1 : 176,176,255
Combo2 : 0,0,170
Combo3 : 81,81,255
SliderBorder : 220,220,220

[HitObjects]
180,96,3217,6,0,B|96:96|96:96|32:128|40:192,2,200,14|8|2
280,96,5244,1,2
224,180,5649,2,0,B|124:180,1,100,8|0
172,268,6460,6,0,B|256:268|256:268|320:236|312:172,2,200,2|8|2
124,180,8487,1,2
224,180,8892,2,0,B|228:100|304:64|368:108,1,200,8|14
368,308,10514,5,8
172,268,11325,1,2
108,192,11730,1,2
100,92,12135,2,0,B|128:88|168:100|196:128|206:172|206:172|260:172,1,200,0|10
436,75,13757,5,8
465,272,14568,1,2
404,192,14973,1,2
344,272,15379,2,0,B|300:272|300:272|292:248|256:228|220:248|212:272|212:272|168:272,1,200,8|14
68,272,16595,5,8
128,192,17000,2,0,B|176:192|176:192|204:168|232:168,1,100,2|8
206,70,17811,1,2
306,70,18216,1,8
290,168,18622,2,0,B|308:168|336:192|336:192|384:192,1,100,2|8
432,280,19433,5,2
348,336,19838,2,0,B|304:336|304:336|288:328|288:328|248:328,1,100,8|2
156,288,20649,1,8
96,208,21054,2,0,B|120:140|172:116|224:124|256:148|256:148|288:124|340:116|392:140|416:208,1,400,0|14
316,228,23081,5,8
256,308,23487,1,2
196,228,23892,1,8
256,148,24298,2,0,B|212:112|152:136,1,100,2|8
100,212,25108,2,0,B|88:264|132:304,1,100,2|8
224,336,25919,6,0,B|272:308|320:332|320:332|376:320|388:268,2,200,2|2|2
256,192,27744,12,14,29162
352,88,29973,6,0,B|396:180|396:180|348:168|304:204,1,200,2|2
256,116,31189,1,0
160,88,31595,2,0,B|116:180|116:180|164:168|208:204,1,200,2|2
168,296,32811,5,0
256,340,33216,1,2
344,296,33622,1,0
428,240,34027,2,0,B|368:180|288:196|256:252|256:252|224:196|144:180|84:240,1,400,2|14
64,140,36054,6,0,B|108:108|160:112,1,100
256,136,36865,1,0
354,111,37271,2,0,B|404:108|448:140,1,100,2|0
468,236,38081,1,0
412,316,38487,1,0
320,280,38892,6,0,B|300:228|300:228|256:240|212:228|212:228|192:280,1,200,2|0
100,316,40108,1,0
44,236,40514,1,2
300,296,42135,6,0,B|364:224|452:284|476:172|476:172|324:160|264:84|276:4|368:-32|476:0|488:96|416:164|280:164|256:208|256:208|232:164|96:164|24:96|36:0|144:-32|236:4|248:84|188:160|36:172|36:172|60:284|148:224|212:296,1,1600,14|14
156,376,49027,6,0,B|108:368|60:344,2,100,0|2|0
256,360,50244,1,2
356,372,50649,2,0,B|404:364|452:340,2,100,0|2|0
256,360,51865,5,2
206,273,52271,1,0
306,273,52676,1,2
300,172,53081,2,0,B|256:196|256:196|212:172,1,100
108,80,55108,6,0,B|136:52|176:44|176:44|200:76|232:92|232:92|312:124|312:124|352:140|448:184|432:356|332:384|264:348|264:348|184:304|152:200|256:140|360:200|328:304|248:348|248:348|180:384|80:356|64:184|160:140|200:124|200:124|280:91|280:91|312:76|336:44|336:44|376:52|404:80,1,1600,14|14
468,156,62000,6,0,B|496:204|488:256,1,100,0|8
444,344,62811,1,0
348,376,63216,2,0,B|308:340|308:292|308:292|256:264|204:292|204:292|204:340|164:376,1,300,2|0
68,344,64838,5,2
23,251,65244,2,0,B|16:204|44:156,1,100,0|8
108,80,66054,1,0
204,112,66460,2,0,B|204:192|204:192|212:228|256:248|300:228|308:192|308:192|308:112,1,300,2|8
404,80,68081,5,6
256,248,74568,6,0,B|272:300|256:348|256:348|308:368|344:324,2,200,2|8|2
80,152,77000,2,0,B|112:108|164:100,1,100,8|0
256,136,77811,6,0,B|272:84|256:36|256:36|308:16|344:60,2,200,2|8|2
80,232,80244,1,2
256,328,81054,6,0,B|312:328|340:284,2,100,2|8|2
168,284,82271,1,8
128,192,82676,2,0,B|128:136|172:108,2,100,2|8|2
168,284,83892,1,8
256,328,84298,6,0,B|356:328|356:328|404:304|404:248,1,200,2|2
368,152,85514,1,8
316,240,85919,2,0,B|216:240|216:240|168:216|168:160,1,200,2|2
204,64,87135,1,8
300,88,87541,6,0,B|348:56|396:82|396:82|421:130|390:178,1,200,14|2
340,264,88757,1,8
256,316,89162,2,0,B|207:347|159:321|159:321|134:273|165:225,1,200,2|2
216,140,90378,1,8
308,176,90784,6,0,B|356:196|404:176|404:176|436:220|416:272,1,200,2|2
340,336,92000,1,8
256,192,92406,12,14,94027
152,236,94838,6,0,B|152:336|152:336|104:308|60:344,2,200,2|2|8
164,136,96865,1,8
236,68,97271,6,0,B|284:56|336:60|388:124|380:208|332:244|256:240|256:240|256:164,2,400,2|2|2
164,136,100919,5,14
120,228,101325,2,0,B|96:276|112:328|112:328|160:304|208:328,1,200,8|2
256,240,102541,2,0,B|256:140,2,100,2|10|2
305,327,103757,6,0,B|352:304|400:328|400:328|416:276|392:228,2,200,10|2|14
256,192,105581,12,4,107000
