osu file format v12

[General]
AudioFilename: 05. Miss You.mp3
AudioLeadIn: 1000
PreviewTime: 307217
Countdown: 0
SampleSet: Soft
StackLeniency: 0
Mode: 0
LetterboxInBreaks: 0
WidescreenStoryboard: 0

[Editor]
Bookmarks: 36470,263621,365853
DistanceSpacing: 0.5
BeatDivisor: 4
GridSize: 4
TimelineZoom: 2.5

[Metadata]
Title:Miss You
TitleUnicode:Miss You
Artist:Nhato
ArtistUnicode:Nhato
Creator:HanzeR
Version:Selentia
Source:
Tags:stirup club edition v3 c85 vocaloid lapis aoki
BeatmapID:381798
BeatmapSetID:155691

[Difficulty]
HPDrainRate:6
CircleSize:4
OverallDifficulty:8
ApproachRate:9
SliderMultiplier:2.56
SliderTickRate:1

[Events]
//Background and Video events
0,0,"swaggerplus.jpg",0,0
//Break Periods
2,306102,307120
//Storyboard Layer 0 (Background)
//Storyboard Layer 1 (Fail)
//Storyboard Layer 2 (Pass)
//Storyboard Layer 3 (Foreground)
//Storyboard Sound Samples
//Background Colour Transformations
3,100,163,162,255

[TimingPoints]
448,454.545454545455,4,2,1,20,1,0
448,-200,4,2,1,20,0,0
561,-200,4,2,1,20,0,0
13743,-200,4,2,2,30,0,0
14084,-200,4,2,1,40,0,0
14311,-200,4,2,2,20,0,0
14538,-200,4,2,1,40,0,0
14993,-200,4,2,1,50,0,0
28516,-200,4,2,2,20,0,0
28629,-200,4,2,1,20,0,0
28857,-200,4,2,2,20,0,0
28970,-200,4,2,1,40,0,0
29084,-200,4,2,3,50,0,0
29538,-133.333333333333,4,2,3,70,0,1
29766,-133.333333333333,4,2,1,60,0,0
36811,-133.333333333333,4,2,3,60,0,0
37038,-133.333333333333,4,2,1,60,0,0
44084,-133.333333333333,4,2,1,50,0,0
44538,-200,4,2,1,50,0,0
44993,-133.333333333333,4,2,1,50,0,0
45448,-200,4,2,1,50,0,0
45902,-133.333333333333,4,2,1,50,0,0
46357,-200,4,2,1,50,0,0
46811,-133.333333333333,4,2,1,50,0,0
47266,-200,4,2,1,50,0,0
54993,-200,4,2,3,50,0,0
55107,-200,4,2,3,70,0,0
58629,-200,4,2,3,70,0,0
58857,-200,4,2,4,40,0,0
64311,-200,4,2,1,40,0,0
64538,-200,4,2,4,40,0,0
72152,-200,4,2,1,40,0,0
72266,-200,4,2,4,40,0,0
73175,-200,4,2,3,20,0,0
73402,-200,4,2,4,40,0,0
87720,-133.333333333333,4,2,3,50,0,0
87834,-133.333333333333,4,2,4,50,0,0
91357,-133.333333333333,4,2,4,50,0,0
93175,-133.333333333333,4,2,4,50,0,0
94993,-133.333333333333,4,2,3,50,0,0
95107,-133.333333333333,4,2,4,50,0,0
100902,-200,4,2,4,70,0,0
102266,-133.333333333333,4,2,1,70,0,1
102493,-133.333333333333,4,2,2,70,0,0
105788,-133.333333333333,4,2,1,70,0,0
105902,-133.333333333333,4,2,2,70,0,0
109538,-133.333333333333,4,2,2,70,0,0
115902,-100,4,2,2,70,0,0
116584,-100,4,2,2,10,0,0
116811,-200,4,2,3,70,0,0
116925,-200,4,2,4,70,0,0
118402,-200,4,2,5,70,0,0
118629,-200,4,2,4,70,0,0
119879,-200,4,2,5,70,0,0
120448,-200,4,2,4,70,0,0
120788,-200,4,2,5,70,0,0
122266,-200,4,2,4,70,0,0
123402,-200,4,2,5,70,0,0
124084,-200,4,2,4,70,0,0
125448,-200,4,2,5,70,0,0
125902,-200,4,2,4,70,0,0
127266,-133.333333333333,4,2,5,70,0,0
127720,-200,4,2,5,70,0,0
129538,-200,4,2,3,70,0,0
132720,-100,4,2,4,70,0,0
133175,-200,4,2,1,70,0,0
136357,-200,4,2,4,70,0,0
136470,-200,4,2,1,70,0,0
138629,-200,4,2,1,70,0,0
139766,-200,4,2,4,70,0,0
145448,-200,4,2,2,70,0,0
145902,-100,4,2,4,70,0,1
147266,-66.6666666666667,4,2,4,70,0,1
147720,-100,4,2,4,70,0,1
149538,-100,4,2,4,70,0,1
152266,-100,4,2,4,70,0,1
152720,-100,4,2,4,50,0,1
153175,-100,4,2,4,70,0,1
156357,-100,4,2,4,50,0,1
158629,-400,4,2,4,70,0,1
159993,-400,4,2,4,70,0,0
160448,-100,4,2,4,70,0,1
161811,-66.6666666666667,4,2,4,70,0,1
162493,-100,4,2,4,70,0,1
164766,-200,4,2,4,70,0,1
165448,-200,4,2,4,70,0,0
165902,-66.6666666666667,4,2,4,70,0,1
166584,-100,4,2,4,70,0,1
167038,-100,4,2,2,70,0,1
167493,-66.6666666666667,4,2,4,70,0,1
167720,-200,4,2,1,70,0,0
169084,-200,4,2,2,70,0,0
169766,-66.6666666666667,4,2,1,70,0,0
169993,-100,4,2,4,70,0,0
171357,-100,4,2,1,70,0,1
174538,-200,4,2,4,70,0,0
174993,-133.333333333333,4,2,2,50,0,0
181357,-66.6666666666667,4,2,2,70,0,1
181584,-80,4,2,1,70,0,1
181811,-100,4,2,1,70,0,1
182038,-133.333333333333,4,2,1,70,0,1
182152,-133.333333333333,4,2,1,70,0,1
182266,-80,4,2,1,70,0,1
182379,-133.333333333333,4,2,2,70,0,0
185448,-133.333333333333,4,2,1,70,0,0
186811,-133.333333333333,4,2,2,70,0,0
189084,-133.333333333333,4,2,1,70,0,0
189538,-100,4,2,1,70,0,1
189652,-100,4,2,2,70,0,0
203402,-200,4,2,1,70,0,0
204084,-200,4,2,1,50,0,0
214993,-100,4,2,1,70,0,0
216811,-200,4,2,4,70,0,0
218629,-133.333333333333,4,2,1,70,0,0
219084,-100,4,2,1,70,0,0
219538,-133.333333333333,4,2,3,70,0,0
220448,-100,4,2,4,70,0,1
227266,-200,4,2,1,70,0,1
227720,-100,4,2,4,70,0,1
229538,-200,4,2,4,70,0,1
230902,-100,4,2,4,70,0,1
231357,-133.333333333333,4,2,1,70,0,0
232266,-100,4,2,3,70,0,0
233175,-100,4,2,4,70,0,1
236357,-200,4,2,1,70,0,1
236811,-100,4,2,4,70,0,1
241811,-200,4,2,1,70,0,1
242266,-100,4,2,4,70,0,1
245902,-200,4,2,1,70,0,1
246357,-100,4,2,1,50,0,0
247720,-66.6666666666667,4,2,1,70,0,1
248175,-100,4,2,4,70,0,1
249084,-66.6666666666667,4,2,4,70,0,1
249766,-100,4,2,4,70,0,1
260448,-400,4,2,1,70,0,1
261811,-400,4,2,1,70,0,0
262266,-100,4,2,4,70,0,1
263629,-66.6666666666667,4,2,4,70,0,1
264084,-100,4,2,4,70,0,1
266584,-200,4,2,1,70,0,1
267266,-200,4,2,1,70,0,0
267720,-66.6666666666667,4,2,1,70,0,1
268402,-100,4,2,1,70,0,1
268857,-100,4,2,2,70,0,1
269311,-66.6666666666667,4,2,1,70,0,1
269538,-200,4,2,1,70,0,0
270902,-200,4,2,2,70,0,0
271584,-66.6666666666667,4,2,1,70,0,0
271811,-100,4,2,4,70,0,0
273175,-100,4,2,1,70,0,1
274993,-100,4,2,1,70,0,1
275448,-200,4,2,3,70,0,0
276357,-200,4,2,3,20,0,0
276811,-200,4,2,3,50,0,0
277266,-200,4,2,2,20,0,0
289084,-200,4,2,2,20,0,0
291357,-200,4,2,4,40,0,0
301811,-200,4,2,4,40,0,0
302266,-200,4,2,3,70,0,0
307720,-100,4,2,4,70,0,1
309084,-66.6666666666667,4,2,4,70,0,1
309538,-100,4,2,4,70,0,1
312720,-200,4,2,1,70,0,1
313175,-100,4,2,4,70,0,1
314538,-66.6666666666667,4,2,4,70,0,1
314993,-100,4,2,4,70,0,1
320334,-100,4,2,1,70,0,0
320448,-100,4,2,1,70,0,1
320902,-100,4,2,4,70,0,0
321129,-100,4,2,1,70,0,1
321584,-100,4,2,4,70,0,0
321811,-66.6666666666667,4,2,4,70,0,0
322266,-100,4,2,4,70,0,1
323629,-66.6666666666667,4,2,4,70,0,1
324084,-100,4,2,4,70,0,1
326584,-200,4,2,1,70,0,1
327266,-100,4,2,1,70,0,0
327720,-66.6666666666667,4,2,1,70,0,1
328402,-100,4,2,1,70,0,1
328857,-100,4,2,2,70,0,1
329311,-66.6666666666667,4,2,1,70,0,1
329538,-200,4,2,1,70,0,0
329766,-200,4,2,1,70,0,0
330902,-200,4,2,2,70,0,0
331016,-200,4,2,4,70,0,0
332038,-66.6666666666667,4,2,1,70,0,0
332266,-100,4,2,4,70,0,0
333175,-100,4,2,1,70,0,1
336357,-200,4,2,4,70,0,1
336811,-133.333333333333,4,2,1,50,0,0
344084,-133.333333333333,4,2,1,40,0,0
351357,-200,4,2,1,30,0,0
362266,-200,4,2,1,40,0,0
364084,-200,4,2,1,50,0,0
365902,-200,4,2,3,70,0,0

[Colours]
Combo1 : 128,128,255
Combo2 : 243,243,243
Combo3 : 128,128,192
Combo4 : 213,213,234

[HitObjects]
176,164,448,6,0,L|248:152,1,64,4|0,0:0|0:0,0:0:0:0:
356,216,902,2,0,L|253:233,1,96,8|0,0:0|0:0,0:0:0:0:
168,161,1357,2,0,L|247:148,1,64,0|0,0:0|0:0,0:0:0:0:
366,218,1811,2,0,L|253:237,1,96,8|0,0:0|0:0,0:0:0:0:
159,158,2266,2,0,L|246:143,1,64,0|0,0:0|0:0,0:0:0:0:
377,221,2720,2,0,L|253:241,1,96,8|0,0:0|0:0,0:0:0:0:
243,138,3175,5,0,0:0:0:0:
248,244,3402,1,2,0:0:0:0:
280,64,3630,1,8,0:0:0:0:
211,318,3857,1,2,0:0:0:0:
176,164,4084,6,0,L|239:153,1,64,0|0,0:0|0:0,0:0:0:0:
356,216,4538,2,0,L|261:231,1,96,8|0,0:0|0:0,0:0:0:0:
168,161,4993,2,0,L|231:150,1,64,0|0,0:0|0:0,0:0:0:0:
366,218,5448,2,8,L|271:233,1,96,8|0,0:0|0:0,0:0:0:0:
159,158,5902,2,0,L|222:147,1,64,0|0,0:0|0:0,0:0:0:0:
377,221,6357,2,0,L|282:236,1,96,8|0,0:0|0:0,0:0:0:0:
149,154,6811,5,0,0:0:0:0:
389,223,7038,1,2,0:0:0:0:
112,260,7265,1,8,0:0:0:0:
400,124,7493,1,2,0:0:0:0:
168,164,7720,6,0,L|156:92,1,64,4|0,0:0|0:0,0:0:0:0:
328,224,8175,2,0,L|344:320,1,96,8|0,0:0|0:0,0:0:0:0:
159,161,8629,2,0,L|146:82,1,64,0|0,0:0|0:0,0:0:0:0:
335,227,9084,2,0,L|352:333,1,96,8|0,0:0|0:0,0:0:0:0:
149,158,9538,2,0,L|135:71,1,64,0|0,0:0|0:0,0:0:0:0:
343,230,9993,2,0,L|362:347,1,96,8|0,0:0|0:0,0:0:0:0:
176,168,10448,5,0,0:0:0:0:
324,224,10675,1,2,0:0:0:0:
145,251,10902,1,8,0:0:0:0:
364,148,11129,1,2,0:0:0:0:
168,164,11357,6,0,L|156:92,1,64,0|0,0:0|0:0,0:0:0:0:
328,224,11811,2,0,L|344:320,1,96,8|0,0:0|0:0,0:0:0:0:
159,161,12266,2,0,L|146:82,1,64,0|0,0:0|0:0,0:0:0:0:
335,227,12720,2,0,L|352:333,1,96,8|0,0:0|0:0,0:0:0:0:
149,158,13175,2,0,L|135:71,1,64,0|0,0:0|0:0,0:0:0:0:
344,232,13629,6,0,L|358:319,1,64,8|2,0:0|0:0,0:0:0:0:
308,356,13970,1,0,0:0:0:0:
160,148,14084,2,0,L|145:60,1,64,8|8,0:0|0:0,0:0:0:0:
204,28,14425,1,0,0:0:0:0:
184,232,14538,2,0,B|112:252|112:252|120:232,1,96,8|0,0:0|0:0,0:0:0:0:
328,152,14993,6,0,L|384:136,1,32,0|0,0:0|0:0,0:0:0:0:
444,40,15220,2,0,L|388:56,1,32,2|0,0:0|0:0,0:0:0:0:
312,168,15448,2,0,L|376:149,1,64,8|2,0:0|0:0,0:0:0:0:
456,128,15788,1,0,0:0:0:0:
300,184,15902,2,0,P|296:228|320:264,1,64,0|0,0:0|0:0,0:0:0:0:
360,308,16243,1,0,0:0:0:0:
388,236,16357,2,0,L|404:188,1,32,8|0,0:0|0:0,0:0:0:0:
252,308,16584,2,0,L|236:356,1,32,2|0,0:0|0:0,0:0:0:0:
368,320,16811,6,0,L|416:336,1,32,0|0,0:0|0:0,0:0:0:0:
212,236,17038,2,0,L|164:220,1,32,2|0,0:0|0:0,0:0:0:0:
376,336,17266,2,0,L|456:364,1,64,8|2,0:0|0:0,0:0:0:0:
484,288,17607,1,0,0:0:0:0:
204,220,17720,2,0,L|124:192,1,64,0|0,0:0|0:0,0:0:0:0:
344,176,18061,1,0,0:0:0:0:
376,100,18175,2,0,L|396:48,1,32,8|0,0:0|0:0,0:0:0:0:
436,168,18402,2,0,L|456:116,1,32,2|0,0:0|0:0,0:0:0:0:
492,228,18629,6,0,L|465:297,1,64,0|2,0:0|0:0,0:0:0:0:
368,88,18970,1,0,0:0:0:0:
500,208,19084,1,8,0:0:0:0:
332,238,19311,6,0,L|344:209,1,32,2|0,0:0|0:0,0:0:0:0:
360,72,19538,2,0,L|386:2,1,64,0|2,0:0|0:0,0:0:0:0:
440,156,19879,1,0,0:0:0:0:
488,244,19993,2,0,L|468:296,1,32,8|0,0:0|0:0,0:0:0:0:
348,192,20220,6,0,L|340:168,3,16,2|2|2|2,0:0|0:0|0:0|0:0,0:0:0:0:
224,80,20448,6,0,L|220:111,1,32,0|0,0:0|0:0,0:0:0:0:
176,200,20675,2,0,L|190:227,1,32,2|0,0:0|0:0,0:0:0:0:
128,128,20902,1,8,0:0:0:0:
188,256,21129,5,2,0:0:0:0:
196,272,21243,1,0,0:0:0:0:
100,132,21357,2,0,L|68:64,1,64,0|2,0:0|0:0,0:0:0:0:
184,292,21698,5,0,0:0:0:0:
200,304,21811,2,0,P|152:320|112:304,1,96,8|0,0:0|0:0,0:0:0:0:
308,260,22266,6,0,P|328:253|345:260,1,32,0|0,0:0|0:0,0:0:0:0:
332,332,22493,2,0,P|351:339|360:355,1,32,2|0,0:0|0:0,0:0:0:0:
284,272,22720,2,0,P|272:244|292:188,1,64,8|2,0:0|0:0,0:0:0:0:
320,340,23061,5,0,0:0:0:0:
192,304,23175,2,0,P|158:315|129:304,1,64,0|2,0:0|0:0,0:0:0:0:
320,252,23516,5,0,0:0:0:0:
304,344,23629,2,0,P|323:351|332:367,1,32,8|0,0:0|0:0,0:0:0:0:
184,304,23857,2,0,P|164:296|155:280,1,32,2|0,0:0|0:0,0:0:0:0:
344,144,24084,6,0,L|364:96,1,32,0|0,0:0|0:0,0:0:0:0:
324,264,24311,2,0,L|304:312,1,32,2|0,0:0|0:0,0:0:0:0:
336,124,24538,2,0,L|368:40,1,64,8|2,0:0|0:0,0:0:0:0:
396,212,24879,1,0,0:0:0:0:
216,156,24993,2,0,L|132:124,1,64,0|2,0:0|0:0,0:0:0:0:
260,84,25334,5,0,0:0:0:0:
196,272,25448,2,0,L|176:328,1,32,8|0,0:0|0:0,0:0:0:0:
136,128,25675,2,0,L|125:97,1,32,2|0,0:0|0:0,0:0:0:0:
348,72,25902,6,0,L|436:56,1,64,0|2,0:0|0:0,0:0:0:0:
240,288,26243,1,0,0:0:0:0:
160,300,26357,2,0,L|72:316,1,64,8|2,0:0|0:0,0:0:0:0:
304,228,26698,1,0,0:0:0:0:
384,216,26811,2,0,L|472:200,1,64,0|2,0:0|0:0,0:0:0:0:
284,128,27152,5,0,0:0:0:0:
296,136,27266,2,0,L|336:156,1,32,8|0,0:0|0:0,0:0:0:0:
116,172,27493,2,0,L|76:152,1,32,2|0,0:0|0:0,0:0:0:0:
216,76,27720,6,0,L|248:45,1,32,0|0,0:0|0:0,0:0:0:0:
176,240,27948,2,0,L|143:270,1,32,2|0,0:0|0:0,0:0:0:0:
136,92,28175,6,0,L|120:16,1,64,8|2,0:0|0:0,0:0:0:0:
200,160,28516,1,8,0:0:0:0:
268,216,28629,2,0,L|284:292,1,64,8|8,0:0|0:0,0:0:0:0:
220,348,28970,1,0,0:0:0:0:
192,152,29084,5,4,0:0:0:0:
180,140,29538,6,0,L|288:112,1,96.0000036621095,2|2,0:0|0:0,0:0:0:0:
444,32,29993,2,0,L|392:48,1,48.0000018310548,8|0,0:0|0:0,0:0:0:0:
284,132,30220,2,0,L|336:116,1,48.0000018310548,2|0,0:0|0:0,0:0:0:0:
428,192,30448,6,0,L|412:296,1,96.0000036621095,0|2,0:0|0:0,0:0:0:0:
324,148,30902,2,0,L|332:96,1,48.0000018310548,8|0,0:0|0:0,0:0:0:0:
436,208,31129,2,0,L|428:260,1,48.0000018310548,2|0,0:0|0:0,0:0:0:0:
320,168,31357,5,0,0:0:0:0:
468,316,31584,1,2,0:0:0:0:
256,272,31811,2,0,L|208:264,1,48.0000018310548,8|0,0:0|0:0,0:0:0:0:
452,328,32038,2,0,L|500:336,1,48.0000018310548,2|0,0:0|0:0,0:0:0:0:
240,284,32266,6,0,L|140:268,1,96.0000036621095,0|2,0:0|0:0,0:0:0:0:
328,224,32607,1,2,0:0:0:0:
172,292,32720,2,0,L|120:284,1,48.0000018310548,8|0,0:0|0:0,0:0:0:0:
92,360,32948,2,0,L|40:352,1,48.0000018310548,2|0,0:0|0:0,0:0:0:0:
196,272,33175,5,0,0:0:0:0:
348,356,33402,1,2,0:0:0:0:
84,208,33629,2,0,L|72:148,1,48.0000018310548,8|0,0:0|0:0,0:0:0:0:
144,16,33857,2,0,L|156:76,1,48.0000018310548,2|0,0:0|0:0,0:0:0:0:
36,272,34084,5,0,0:0:0:0:
60,80,34311,1,2,0:0:0:0:
344,80,34538,2,0,L|416:68,1,48.0000018310548,8|0,0:0|0:0,0:0:0:0:
224,184,34766,2,0,L|152:196,1,48.0000018310548,2|0,0:0|0:0,0:0:0:0:
392,148,34993,6,0,P|431:177|485:169,1,96.0000036621095,0|2,0:0|0:0,0:0:0:0:
208,200,35448,2,0,L|136:212,1,48.0000018310548,8|0,0:0|0:0,0:0:0:0:
384,128,35675,2,0,P|396:160|380:200,1,48.0000018310548,2|2,0:0|0:0,0:0:0:0:
268,320,35902,6,0,P|228:344|172:332,1,96.0000036621095,2|2,0:0|0:0,0:0:0:0:
236,164,36357,2,0,P|267:178|284:217,1,48.0000018310548,8|0,0:0|0:0,0:0:0:0:
448,332,36584,2,0,P|416:317|399:278,1,48.0000018310548,2|0,0:0|0:0,0:0:0:0:
276,268,36811,6,0,L|256:388,1,96.0000036621095,2|2,0:0|0:0,0:0:0:0:
128,184,37266,2,0,L|136:128,1,48.0000018310548,8|0,0:0|0:0,0:0:0:0:
344,176,37493,2,0,L|400:184,1,48.0000018310548,2|0,0:0|0:0,0:0:0:0:
260,284,37720,6,0,L|140:264,1,96.0000036621095,0|2,0:0|0:0,0:0:0:0:
228,96,38175,2,0,L|220:152,1,48.0000018310548,8|0,0:0|0:0,0:0:0:0:
72,308,38402,2,0,L|80:252,1,48.0000018310548,2|0,0:0|0:0,0:0:0:0:
244,304,38629,5,0,0:0:0:0:
12,212,38857,1,2,0:0:0:0:
220,160,39084,2,0,L|228:104,1,48.0000018310548,8|0,0:0|0:0,0:0:0:0:
308,72,39311,2,0,L|314:24,1,48.0000018310548,2|2,0:0|0:0,0:0:0:0:
440,236,39538,6,0,L|426:332,1,96.0000036621095,0|2,0:0|0:0,0:0:0:0:
316,160,39993,2,0,L|324:104,1,48.0000018310548,8|0,0:0|0:0,0:0:0:0:
316,272,40220,2,0,L|308:328,1,48.0000018310548,2|0,0:0|0:0,0:0:0:0:
336,144,40448,6,0,L|350:48,1,96.0000036621095,0|2,0:0|0:0,0:0:0:0:
312,256,40902,2,0,P|292:272|264:276,1,48.0000018310548,8|0,0:0|0:0,0:0:0:0:
124,356,41129,2,0,P|144:340|172:336,1,48.0000018310548,2|0,0:0|0:0,0:0:0:0:
264,264,41357,6,0,L|152:256,1,96.0000036621095,0|2,0:0|0:0,0:0:0:0:
60,260,41811,2,0,L|56:324,1,48.0000018310548,8|0,0:0|0:0,0:0:0:0:
160,112,42038,2,0,L|164:48,1,48.0000018310548,2|0,0:0|0:0,0:0:0:0:
12,172,42266,6,0,L|124:180,1,96.0000036621095,0|2,0:0|0:0,0:0:0:0:
236,148,42720,5,8,0:0:0:0:
248,128,42834,1,2,0:0:0:0:
348,112,42948,5,2,0:0:0:0:
336,132,43061,1,2,0:0:0:0:
444,256,43175,6,0,P|396:256|356:220,1,96.0000036621095,0|2,0:0|0:0,0:0:0:0:
456,108,43516,5,0,0:0:0:0:
466,142,43629,1,8,0:0:0:0:
429,183,43744,1,0,0:0:0:0:
420,152,43857,1,2,0:0:0:0:
444,256,44084,6,0,L|466:348,1,96.0000036621095,8|10,0:0|0:0,0:0:0:0:
336,212,44538,2,0,L|356:296,1,64,8|10,0:0|0:0,0:0:0:0:
256,284,44993,2,0,L|278:376,1,96.0000036621095,8|10,0:0|0:0,0:0:0:0:
152,240,45448,2,0,L|172:324,1,64,8|2,0:0|0:0,0:0:0:0:
56,128,45902,6,0,L|33:35,1,96.0000036621095,8|10,0:0|0:0,0:0:0:0:
164,172,46357,2,0,L|144:88,1,64,8|10,0:0|0:0,0:0:0:0:
244,100,46811,2,0,L|221:7,1,96.0000036621095,8|10,0:0|0:0,0:0:0:0:
348,144,47266,2,0,L|328:60,1,64,8|2,0:0|0:0,0:0:0:0:
421,181,47720,5,8,0:0:0:0:
385,254,47948,1,10,0:0:0:0:
234,214,48175,1,8,0:0:0:0:
239,132,48402,1,10,0:0:0:0:
320,204,48629,1,8,0:0:0:0:
296,288,48857,1,10,0:0:0:0:
352,80,49084,1,8,0:0:0:0:
364,344,49538,5,8,0:0:0:0:
213,315,49766,1,10,0:0:0:0:
296,288,49993,1,8,0:0:0:0:
136,336,50220,1,10,0:0:0:0:
132,192,50448,1,8,0:0:0:0:
58,356,50675,1,10,0:0:0:0:
296,288,50902,1,8,0:0:0:0:
132,192,51357,5,0,0:0:0:0:
56,160,51584,1,2,0:0:0:0:
188,128,51811,5,8,0:0:0:0:
204,152,51925,1,0,0:0:0:0:
292,140,52038,5,2,0:0:0:0:
286,168,52152,1,0,0:0:0:0:
348,216,52266,5,0,0:0:0:0:
272,248,52493,1,2,0:0:0:0:
404,280,52720,5,8,0:0:0:0:
420,256,52834,1,0,0:0:0:0:
508,268,52948,5,2,0:0:0:0:
502,240,53061,1,0,0:0:0:0:
448,180,53175,5,0,0:0:0:0:
296,104,53402,1,2,0:0:0:0:
384,100,53629,5,8,0:0:0:0:
388,128,53743,1,0,0:0:0:0:
472,68,53857,5,2,0:0:0:0:
463,95,53970,1,0,0:0:0:0:
216,104,54084,5,0,0:0:0:0:
64,180,54311,1,2,0:0:0:0:
49,95,54538,5,8,0:0:0:0:
40,68,54652,1,0,0:0:0:0:
124,128,54766,5,2,0:0:0:0:
128,100,54879,1,0,0:0:0:0:
256,200,54993,5,4,0:0:0:0:
256,192,55107,12,4,57720,0:0:0:0:
88,300,58175,6,0,L|80:356,3,32,0|0|0|0,0:0|0:0|0:0|0:0,0:0:0:0:
52,224,58629,6,0,L|68:152,1,64,2|0,0:0|0:0,0:0:0:0:
160,36,59084,2,0,L|144:108,1,64,8|0,0:0|0:0,0:0:0:0:
204,196,59425,1,0,0:0:0:0:
212,184,59538,2,0,L|221:140,1,32,2|0,0:0|0:0,0:0:0:0:
140,52,59766,2,0,L|130:95,1,32,0|0,0:0|0:0,0:0:0:0:
156,264,59993,2,0,P|188:280|228:268,1,64,8|0,0:0|0:0,0:0:0:0:
284,232,60334,5,0,0:0:0:0:
344,292,60448,2,0,L|340:376,1,64,2|0,0:0|0:0,0:0:0:0:
411,174,60902,2,0,P|382:186|365:213,1,64,8|0,0:0|0:0,0:0:0:0:
440,244,61243,1,0,0:0:0:0:
428,256,61357,2,0,L|478:258,1,32,2|0,0:0|0:0,0:0:0:0:
300,152,61584,2,0,L|249:149,1,32,0|0,0:0|0:0,0:0:0:0:
456,108,61811,1,8,0:0:0:0:
192,112,62038,5,0,0:0:0:0:
196,108,62152,1,0,0:0:0:0:
200,104,62266,2,0,L|124:112,1,64,2|0,0:0|0:0,0:0:0:0:
32,224,62720,2,0,P|60:208|104:216,1,64,8|0,0:0|0:0,0:0:0:0:
156,272,63061,1,0,0:0:0:0:
155,264,63175,2,0,L|167:320,1,32,2|0,0:0|0:0,0:0:0:0:
228,204,63402,2,0,L|216:148,1,32,0|0,0:0|0:0,0:0:0:0:
308,244,63629,2,0,L|385:227,1,64,8|0,0:0|0:0,0:0:0:0:
448,276,63970,5,0,0:0:0:0:
440,288,64084,1,2,0:0:0:0:
428,136,64311,2,0,L|432:155,3,16,2|2|2|2,0:0|0:0|0:0|0:0,0:0:0:0:
424,124,64538,1,8,0:0:0:0:
464,28,64766,2,0,L|472:66,1,32,0|0,0:0|0:0,0:0:0:0:
220,84,64993,1,2,0:0:0:0:
340,160,65220,1,0,0:0:0:0:
208,80,65448,2,0,P|176:80|144:112,1,64,8|0,0:0|0:0,0:0:0:0:
124,180,65788,5,0,0:0:0:0:
123,173,65902,2,0,L|144:254,1,64,2|0,0:0|0:0,0:0:0:0:
228,352,66357,2,0,L|207:271,1,64,8|0,0:0|0:0,0:0:0:0:
72,284,66698,1,0,0:0:0:0:
80,292,66811,1,2,0:0:0:0:
204,160,67038,1,0,0:0:0:0:
88,24,67266,1,8,0:0:0:0:
192,332,67493,5,0,0:0:0:0:
204,340,67607,1,0,0:0:0:0:
212,348,67720,2,0,L|273:331,1,64,2|0,0:0|0:0,0:0:0:0:
432,292,68175,2,0,L|370:275,1,64,8|0,0:0|0:0,0:0:0:0:
288,252,68516,1,0,0:0:0:0:
460,220,68629,6,0,L|507:207,1,32,2|0,0:0|0:0,0:0:0:0:
268,176,68857,2,0,L|220:163,1,32,0|0,0:0|0:0,0:0:0:0:
460,144,69084,2,0,L|519:128,1,32,8|0,0:0|0:0,0:0:0:0:
216,88,69312,2,0,L|156:72,1,32,0|0,0:0|0:0,0:0:0:0:
460,68,69538,5,2,0:0:0:0:
304,156,69766,1,0,0:0:0:0:
148,72,69993,1,8,0:0:0:0:
72,220,70220,5,0,0:0:0:0:
68,212,70334,1,0,0:0:0:0:
65,206,70448,2,0,L|105:278,1,64,2|0,0:0|0:0,0:0:0:0:
160,352,70902,2,0,L|191:296,1,64,8|0,0:0|0:0,0:0:0:0:
320,296,71357,2,0,L|352:352,1,64,2|0,0:0|0:0,0:0:0:0:
415,261,71811,2,0,L|447:206,1,64,8|0,0:0|0:0,0:0:0:0:
256,192,72152,6,0,L|259:198,3,8,2|2|2|2,0:0|0:0|0:0|0:0,0:0:0:0:
244,176,72266,2,0,L|204:108,1,64,2|0,0:0|0:0,0:0:0:0:
160,48,72720,1,8,0:0:0:0:
312,120,72948,1,0,0:0:0:0:
476,56,73175,5,2,0:0:0:0:
474,59,73402,1,0,0:0:0:0:
473,63,73629,1,2,0:0:0:0:
420,160,73857,1,0,0:0:0:0:
421,164,74084,1,0,0:0:0:0:
456,268,74311,1,0,0:0:0:0:
455,272,74538,1,2,0:0:0:0:
416,144,74766,1,0,0:0:0:0:
324,124,74993,5,0,0:0:0:0:
336,136,75220,1,0,0:0:0:0:
268,60,75448,1,2,0:0:0:0:
188,84,75675,1,0,0:0:0:0:
180,168,75902,1,0,0:0:0:0:
172,184,76129,1,0,0:0:0:0:
268,192,76357,1,2,0:0:0:0:
276,220,76584,1,0,0:0:0:0:
324,124,76811,5,0,0:0:0:0:
268,60,77038,1,0,0:0:0:0:
188,84,77266,1,2,0:0:0:0:
180,168,77493,1,0,0:0:0:0:
120,224,77720,1,0,0:0:0:0:
36,216,77948,5,0,0:0:0:0:
104,116,78175,1,2,0:0:0:0:
35,208,78402,1,0,0:0:0:0:
106,110,78629,1,0,0:0:0:0:
34,200,78857,1,0,0:0:0:0:
88,80,79084,6,0,L|168:68,1,64,2|0,0:0|0:0,0:0:0:0:
424,120,79538,1,0,0:0:0:0:
376,192,79766,1,0,0:0:0:0:
324,256,79993,2,0,L|244:244,1,64,2|0,0:0|0:0,0:0:0:0:
268,160,80448,2,0,L|188:148,1,64,0|0,0:0|0:0,0:0:0:0:
124,144,80902,5,2,0:0:0:0:
45,169,81129,1,0,0:0:0:0:
127,281,81357,1,0,0:0:0:0:
176,214,81584,1,0,0:0:0:0:
48,256,81811,1,2,0:0:0:0:
272,204,82038,5,0,0:0:0:0:
352,192,82266,1,0,0:0:0:0:
240,280,82493,1,0,0:0:0:0:
224,136,82720,1,2,0:0:0:0:
272,204,82948,5,0,0:0:0:0:
424,252,83175,1,0,0:0:0:0:
500,212,83402,1,0,0:0:0:0:
424,336,83629,1,2,0:0:0:0:
356,208,83857,1,0,0:0:0:0:
476,132,84084,5,0,0:0:0:0:
320,140,84311,1,0,0:0:0:0:
428,64,84538,2,0,L|508:48,1,64,2|0,0:0|0:0,0:0:0:0:
288,132,84993,2,0,L|208:116,1,64,0|0,0:0|0:0,0:0:0:0:
96,280,85448,5,0,0:0:0:0:
96,280,85675,2,0,L|192:256,1,96,2|0,0:0|0:0,0:0:0:0:
204,264,86129,2,0,P|224:304|216:336,1,64,0|0,0:0|0:0,0:0:0:0:
80,200,86584,6,0,L|56:104,1,96,2|0,0:0|0:0,0:0:0:0:
172,24,87038,2,0,L|192:104,1,64,0|0,0:0|0:0,0:0:0:0:
256,344,87493,1,2,0:0:0:0:
360,276,87720,6,0,L|412:236,1,48.0000018310548,2|0,0:0|0:0,0:0:0:0:
484,128,87948,2,0,L|473:202,1,48.0000018310548,0|0,0:0|0:0,0:0:0:0:
420,236,88175,2,0,L|409:310,1,48.0000018310548,0|0,0:0|0:0,0:0:0:0:
260,316,88402,6,0,L|269:249,1,48.0000018310548,0|0,0:0|0:0,0:0:0:0:
320,200,88629,2,0,L|329:133,1,48.0000018310548,2|0,0:0|0:0,0:0:0:0:
436,44,88857,1,0,0:0:0:0:
424,128,88970,2,0,L|408:240,1,96.0000036621095,0|0,0:0|0:0,0:0:0:0:
252,336,89311,6,0,L|166:322,1,48.0000018310548,0|0,0:0|0:0,0:0:0:0:
96,256,89538,2,0,L|181:269,1,48.0000018310548,2|0,0:0|0:0,0:0:0:0:
272,328,89766,1,0,0:0:0:0:
164,352,89879,2,0,L|180:248,1,96.0000036621095,0|0,0:0|0:0,0:0:0:0:
144,184,90220,2,0,L|157:98,1,48.0000018310548,0|0,0:0|0:0,0:0:0:0:
208,64,90448,5,2,0:0:0:0:
220,48,90561,1,0,0:0:0:0:
280,104,90675,5,2,0:1:0:0:
88,236,90902,1,2,0:1:0:0:
252,332,91129,2,0,L|338:319,1,48.0000018310548,2|0,0:1|0:0,0:0:0:0:
488,280,91357,6,0,B|384:296|384:296|416:260,1,144.000005493164,0|0,0:0|0:0,0:0:0:0:
448,204,91811,2,0,P|456:180|448:156,1,48.0000018310548,2|0,0:1|0:0,0:0:0:0:
324,112,92038,2,2,P|292:164|340:236,1,144.000005493164,2|0,0:1|0:0,0:0:0:0:
404,88,92493,2,0,L|376:36,1,48.0000018310548,2|0,0:1|0:0,0:0:0:0:
288,220,92720,2,2,L|368:168,1,96.0000036621095,2|0,0:1|0:0,0:0:0:0:
208,176,93061,5,0,0:0:0:0:
124,204,93175,2,0,L|59:238,1,48.0000018310548,2|0,0:0|0:0,0:0:0:0:
104,340,93402,1,0,0:0:0:0:
116,260,93516,2,0,L|132:152,1,96.0000036621095,0|0,0:0|0:0,0:0:0:0:
64,36,93857,6,0,L|56:83,1,48.0000018310548,0|0,0:0|0:0,0:0:0:0:
216,192,94084,2,0,L|223:144,1,48.0000018310548,2|0,0:0|0:0,0:0:0:0:
140,88,94311,1,0,0:0:0:0:
132,168,94425,2,0,L|116:276,1,96.0000036621095,0|0,0:0|0:0,0:0:0:0:
64,320,94766,5,0,0:0:0:0:
52,328,94879,1,0,0:0:0:0:
188,308,94993,6,0,L|236:304,1,48.0000018310548,4|0,0:0|0:0,0:0:0:0:
300,180,95220,1,0,0:0:0:0:
468,292,95448,1,0,0:0:0:0:
303,176,95675,1,0,0:0:0:0:
471,282,95903,1,2,0:0:0:0:
306,173,96129,1,0,0:0:0:0:
476,274,96357,1,0,0:0:0:0:
308,170,96584,1,0,0:0:0:0:
480,264,96811,5,2,0:0:0:0:
313,160,97038,1,0,0:0:0:0:
374,361,97266,1,0,0:0:0:0:
398,281,97493,1,0,0:0:0:0:
432,160,97720,6,0,L|444:104,1,48.0000018310548,2|0,0:0|0:0,0:0:0:0:
364,104,97948,2,0,L|337:53,1,48.0000018310548,0|0,0:0|0:0,0:0:0:0:
272,96,98175,2,0,L|218:74,1,48.0000018310548,0|0,0:0|0:0,0:0:0:0:
208,152,98402,2,0,L|153:169,1,48.0000018310548,0|0,0:0|0:0,0:0:0:0:
80,188,98629,5,2,0:0:0:0:
220,284,98857,1,0,0:0:0:0:
68,272,99084,1,0,0:0:0:0:
140,320,99311,1,0,0:0:0:0:
336,216,99538,5,2,0:0:0:0:
220,284,99766,1,0,0:0:0:0:
364,356,99993,1,0,0:0:0:0:
308,292,100220,1,0,0:0:0:0:
480,288,100448,5,2,0:0:0:0:
320,204,100675,1,0,0:0:0:0:
164,288,100902,6,0,L|284:280,1,96,0|0,0:0|0:0,0:0:0:0:
464,208,101357,2,0,L|344:216,1,96,2|0,0:0|0:0,0:0:0:0:
184,168,101811,2,0,L|244:163,1,32,0|0,0:0|0:0,0:0:0:0:
416,72,102038,6,0,P|408:60|384:52,1,32,0|0,0:0|0:0,0:0:0:0:
356,125,102266,6,0,P|312:132|260:92,1,96.0000036621095,0|0,1:0|0:0,0:0:0:0:
220,36,102720,1,0,0:0:0:0:
69,165,102948,2,0,L|61:213,1,48.0000018310548,0|0,1:0|0:0,0:0:0:0:
160,96,103175,2,0,L|137:225,1,96.0000036621095,8|0,0:0|0:0,0:0:0:0:
112,352,103629,5,0,0:0:0:0:
228,220,103857,1,0,0:0:0:0:
268,316,104084,2,0,L|173:299,1,96.0000036621095,0|0,1:0|0:0,0:0:0:0:
448,264,104538,2,0,L|353:247,1,96.0000036621095,0|0,0:0|0:0,0:0:0:0:
48,208,104993,2,0,L|40:160,1,48.0000018310548,8|0,0:0|0:0,0:0:0:0:
160,156,105220,2,0,L|151:109,1,48.0000018310548,0|0,0:0|0:0,0:0:0:0:
276,108,105448,2,0,L|260:13,1,96.0000036621095,0|0,0:0|0:0,0:0:0:0:
412,32,105788,6,2,L|427:19,3,12.0000004577637,2|2|2|2,0:0|0:0|0:0|0:0,0:0:0:0:
400,40,105902,2,0,B|394:75|394:75|402:94|402:94|394:148,1,96.0000036621095,0|0,1:0|0:0,0:0:0:0:
328,260,106357,2,0,B|322:295|322:295|330:314|330:314|322:368,1,96.0000036621095,0|0,1:0|0:0,0:0:0:0:
476,252,106811,2,0,L|484:196,1,48.0000018310548,8|0,0:0|0:0,0:0:0:0:
340,216,107038,1,0,0:0:0:0:
232,120,107266,1,0,0:0:0:0:
224,204,107493,6,0,L|216:260,1,48.0000018310548,0|0,0:0|0:0,0:0:0:0:
340,96,107720,2,0,L|348:40,1,48.0000018310548,0|0,1:0|0:0,0:0:0:0:
134,77,107948,2,0,L|125:128,1,48.0000018310548,0|0,1:0|1:0,1:0:0:0:
124,144,108118,5,0,1:0:0:0:
120,163,108175,2,0,L|112:210,1,48.0000018310548,0|0,1:0|1:0,1:0:0:0:
236,100,108402,2,0,L|243:52,1,48.0000018310548,0|0,1:0|1:0,1:0:0:0:
28,160,108629,2,0,L|36:224,1,48.0000018310548,8|0,0:0|0:0,0:0:0:0:
104,244,108857,1,0,0:0:0:0:
172,284,108970,2,0,L|180:348,1,48.0000018310548,8|0,0:0|0:0,0:0:0:0:
260,300,109198,1,0,0:0:0:0:
266,294,109311,1,0,0:0:0:0:
273,288,109425,1,0,0:0:0:0:
332,228,109538,6,0,L|465:211,1,96.0000036621095,0|2,1:0|0:0,0:0:0:0:
484,144,109993,1,0,0:0:0:0:
260,180,110220,2,0,L|180:190,1,48.0000018310548,0|0,1:0|0:0,0:0:0:0:
352,236,110448,2,0,L|485:219,1,96.0000036621095,8|2,0:0|0:0,0:0:0:0:
412,152,110902,2,0,L|507:139,1,96.0000036621095,0|2,0:0|0:0,0:0:0:0:
260,28,111357,2,0,L|127:45,1,96.0000036621095,0|2,1:0|0:0,0:0:0:0:
200,112,111811,2,0,L|104:124,1,96.0000036621095,0|2,0:0|0:0,0:0:0:0:
144,200,112266,5,8,0:0:0:0:
64,48,112493,1,2,0:0:0:0:
28,160,112720,1,0,0:0:0:0:
105,124,112948,6,0,L|132:176,1,48.0000018310548,0|0,1:0|1:0,0:0:0:0:
200,296,113175,2,0,L|248:392,1,96.0000036621095,0|2,1:0|0:0,0:0:0:0:
104,280,113629,2,0,L|61:378,1,96.0000036621095,0|2,1:0|0:0,0:0:0:0:
236,208,114084,2,0,L|342:220,1,96.0000036621095,8|2,0:0|0:0,0:0:0:0:
492,324,114538,2,0,L|386:312,1,96.0000036621095,0|2,0:0|0:0,0:0:0:0:
336,160,114993,6,0,P|400:180|420:216,1,96.0000036621095,0|2,1:0|0:0,0:0:0:0:
464,140,115334,2,0,P|495:199|483:238,1,96.0000036621095,0|0,1:0|0:0,0:0:0:0:
320,164,115675,2,0,P|288:152|272:120,1,48.0000018310548,0|0,1:0|1:0,0:0:0:0:
368,48,115902,6,0,P|408:32|376:76,1,128,8|2,0:0|0:0,0:0:0:0:
125,81,116243,2,0,P|93:42|144:48,1,128,8|0,0:0|0:0,0:0:0:0:
256,116,116584,1,0,0:0:0:0:
197,232,116811,5,8,0:0:0:0:
164,304,117038,1,0,0:0:0:0:
119,195,117266,1,0,0:0:0:0:
84,267,117493,1,0,0:0:0:0:
192,238,117720,5,2,0:0:0:0:
159,318,117948,1,0,0:0:0:0:
105,200,118175,1,0,0:0:0:0:
69,281,118402,5,2,0:0:0:0:
68,292,118516,1,2,0:0:0:0:
172,344,118629,5,0,0:0:0:0:
324,308,118857,1,0,0:0:0:0:
224,240,119084,1,0,0:0:0:0:
256,368,119311,1,0,0:0:0:0:
380,240,119538,1,2,0:0:0:0:
224,220,119766,5,0,0:0:0:0:
216,232,119879,1,2,0:0:0:0:
324,308,119993,5,0,0:0:0:0:
452,288,120220,1,2,0:0:0:0:
356,112,120448,5,0,0:0:0:0:
320,296,120675,5,0,0:0:0:0:
328,312,120788,1,2,0:0:0:0:
380,240,120902,5,2,0:0:0:0:
400,248,121016,1,2,0:0:0:0:
432,172,121129,5,0,0:0:0:0:
240,248,121357,1,2,0:0:0:0:
344,104,121584,1,0,0:0:0:0:
256,148,121811,1,0,0:0:0:0:
340,208,122038,1,0,0:0:0:0:
424,84,122266,2,0,L|508:80,1,64,2|0,0:0|0:0,0:0:0:0:
488,80,122720,6,0,L|362:75,1,96,0|0,0:0|0:0,0:0:0:0:
168,128,123175,2,0,L|256:130,1,64,0|2,0:0|0:0,0:0:0:0:
312,128,123516,1,2,0:0:0:0:
116,60,123629,2,0,P|88:96|92:128,1,64,2|0,0:0|0:0,0:0:0:0:
40,288,123970,5,0,0:0:0:0:
28,212,124084,2,0,L|16:140,1,64,2|0,0:0|0:0,0:0:0:0:
120,252,124538,2,0,L|140:368,1,96,0|0,0:0|0:0,0:0:0:0:
212,288,124993,2,0,L|221:345,1,32,0|0,0:0|0:0,0:0:0:0:
296,332,125220,5,0,0:0:0:0:
308,352,125334,1,0,0:0:0:0:
348,348,125448,5,2,0:0:0:0:
370,354,125561,1,0,0:0:0:0:
404,336,125675,5,0,0:0:0:0:
423,325,125788,1,0,0:0:0:0:
444,248,125902,6,0,L|452:136,1,96,2|0,0:0|0:0,0:0:0:0:
276,160,126357,2,0,L|284:48,1,96,0|0,0:0|0:0,0:0:0:0:
360,204,126811,2,0,L|368:92,1,96,2|0,0:0|0:0,0:0:0:0:
188,140,127266,2,0,B|192:84|192:84|211:53|211:53|217:-14,1,144.000005493164,2|0,0:0|0:0,0:0:0:0:
200,152,127720,6,0,P|192:196|144:168,1,96,0|0,0:0|0:0,0:0:0:0:
112,120,128175,2,0,P|64:116|16:160,1,96,0|0,0:0|0:0,0:0:0:0:
56,256,128629,2,0,P|104:260|152:216,1,96,2|0,0:0|0:0,0:0:0:0:
84,188,129084,5,0,0:0:0:0:
20,328,129311,1,0,0:0:0:0:
252,308,129538,2,0,B|296:312|321:274|321:274|396:334|496:296|496:168|376:124|332:244|400:248,1,384,4|0,0:0|0:0,0:0:0:0:
384,244,131129,1,0,0:0:0:0:
207,237,131357,6,0,B|163:248|163:248|130:270|92:276|92:276|32:267|31:284|31:284|57:288|57:288|71:292|118:280|118:280|166:290,1,320,4|0,1:0|0:0,0:0:0:0:
340,320,132607,5,0,0:0:0:0:
336,308,132720,2,0,P|396:340|372:260,1,192,4|0,0:0|0:0,0:0:0:0:
360,232,133175,6,0,P|348:200|368:156,1,64,4|0,1:0|0:0,0:0:0:0:
424,16,133629,1,0,0:0:0:0:
456,164,133857,1,0,0:0:0:0:
304,99,134084,1,4,1:0:0:0:
392,92,134311,1,0,0:0:0:0:
154,215,134538,1,0,0:0:0:0:
242,208,134766,1,0,0:0:0:0:
288,276,134993,5,4,1:0:0:0:
276,133,135220,1,0,0:0:0:0:
242,208,135448,1,0,0:0:0:0:
414,183,135675,1,0,0:0:0:0:
288,117,135902,6,0,L|235:106,1,32,0|0,0:0|0:0,0:0:0:0:
310,287,136129,2,0,L|260:308,1,32,0|0,0:0|0:0,0:0:0:0:
20,328,136357,6,0,L|24:313,1,16,4|0,0:0|0:0,0:0:0:0:
108,304,136471,6,0,L|99:291,1,16,0|0,0:0|0:0,0:0:0:0:
156,232,136585,6,0,L|141:230,1,16,0|0,0:0|0:0,0:0:0:0:
136,148,136698,6,0,L|123:156,1,16,0|0,0:0|0:0,0:0:0:0:
116,160,136811,6,0,L|128:40,1,96,4|0,1:0|0:0,0:0:0:0:
396,224,137266,2,0,L|384:344,1,96,0|0,0:0|0:0,0:0:0:0:
136,136,137720,2,0,L|145:39,1,96,4|0,1:0|0:0,0:0:0:0:
376,248,138175,2,0,L|366:344,1,96,0|0,0:0|0:0,0:0:0:0:
256,300,138629,5,4,1:0:0:0:
424,264,138857,1,2,0:0:0:0:
360,360,139084,1,0,0:0:0:0:
296,144,139311,1,2,0:0:0:0:
172,340,139538,1,0,0:0:0:0:
384,308,139766,6,0,L|400:352,1,32,4|0,0:0|0:0,0:0:0:0:
284,272,139993,2,0,L|267:315,1,32,0|0,0:0|0:0,0:0:0:0:
228,180,140220,2,0,L|187:203,1,32,0|0,0:0|0:0,0:0:0:0:
12,312,140448,6,0,P|52:288|104:292,1,96,4|0,1:0|0:0,0:0:0:0:
180,204,140902,2,0,P|133:196|97:159,1,96,0|0,0:0|0:0,0:0:0:0:
72,52,141357,5,4,1:0:0:0:
208,188,141584,1,0,0:0:0:0:
384,108,141811,1,0,0:0:0:0:
256,368,142038,1,0,0:0:0:0:
256,64,142266,1,4,1:0:0:0:
256,192,142379,12,0,144993,0:0:0:0:
72,68,145448,5,8,0:0:0:0:
72,68,145902,6,0,B|52:108|52:108|76:240,1,128,6|0,1:0|0:0,0:0:0:0:
72,336,146243,1,0,0:0:0:0:
100,220,146357,2,0,L|120:112,1,64,8|0,0:0|0:0,0:0:0:0:
180,20,146584,2,0,L|191:82,1,64,2|0,0:0|0:0,0:0:0:0:
308,228,146811,2,0,L|328:120,1,64,0|0,0:0|0:0,0:0:0:0:
440,24,147038,2,0,L|451:86,1,64,2|0,0:0|0:0,0:0:0:0:
429,352,147266,6,0,P|380:243|498:255,1,288.000010986329,4|0,0:0|0:0,0:0:0:0:
436,284,147720,1,0,0:0:0:0:
28,308,147948,6,0,P|80:300|140:344,1,128,2|8,1:0|0:0,0:0:0:0:
288,252,148402,2,0,P|216:268|132:184,1,192,2|0,1:0|0:0,0:0:0:0:
44,36,148857,2,0,L|56:116,1,64,2|0,0:0|0:0,0:0:0:0:
44,224,149084,5,8,0:0:0:0:
116,183,149198,1,2,0:0:0:0:
74,110,149311,1,0,0:1:0:0:
2,152,149425,1,0,0:0:0:0:
156,104,149538,6,0,L|240:96,1,64,2|0,1:0|0:0,0:0:0:0:
416,44,149766,2,0,L|332:36,1,64,2|0,1:0|0:0,0:0:0:0:
216,216,149993,2,0,L|300:208,1,64,2|0,1:0|0:0,0:0:0:0:
460,164,150220,2,0,L|376:156,1,64,2|0,1:0|0:0,0:0:0:0:
256,304,150448,1,0,0:0:0:0:
420,240,150675,5,2,0:0:0:0:
424,228,150788,1,0,0:0:0:0:
312,136,150902,5,8,0:0:0:0:
304,124,151016,1,0,0:0:0:0:
252,316,151129,5,2,0:0:0:0:
248,328,151243,1,0,0:0:0:0:
372,320,151357,6,0,L|480:332,1,64,0|0,0:0|0:0,0:0:0:0:
264,200,151584,2,0,L|372:212,1,64,2|0,0:0|0:0,0:0:0:0:
208,344,151811,2,0,L|316:356,1,64,8|0,0:0|0:0,0:0:0:0:
100,224,152038,2,0,L|208:236,1,64,2|0,0:0|0:0,0:0:0:0:
252,192,152266,5,0,0:0:0:0:
264,188,152379,1,0,0:0:0:0:
188,340,152493,5,2,0:0:0:0:
176,336,152607,1,2,0:0:0:0:
96,204,152720,2,8,L|80:128,1,64,8|8,0:0|0:0,0:0:0:0:
64,56,152948,5,8,0:3:0:0:
56,40,153061,1,8,0:3:0:0:
180,152,153175,6,0,P|248:204|344:164,1,192,6|0,1:0|0:0,0:0:0:0:
416,136,153629,5,10,0:0:0:0:
420,124,153743,1,2,0:0:0:0:
408,224,153857,5,0,0:0:0:0:
412,236,153970,1,0,0:0:0:0:
416,97,154084,2,0,L|432:32,1,64,2|2,0:0|0:0,0:0:0:0:
410,261,154311,5,0,0:0:0:0:
413,274,154425,1,0,0:0:0:0:
404,72,154538,2,0,L|388:7,1,64,2|2,0:0|0:0,0:0:0:0:
408,296,154766,6,0,L|428:368,1,64,0|0,0:0|0:0,0:0:0:0:
512,136,154993,2,0,L|492:64,1,64,2|2,0:0|0:0,0:0:0:0:
336,216,155220,1,0,0:0:0:0:
312,292,155334,1,0,0:0:0:0:
303,130,155448,6,0,L|283:58,1,64,2|0,1:0|0:0,0:0:0:0:
144,144,155675,2,2,B|179:254|179:254|223:246|255:282,1,192,2|0,1:0|0:0,0:0:0:0:
255,282,156129,2,0,P|271:330|263:354,1,64,0|0,0:0|0:0,0:0:0:0:
196,328,156357,1,8,0:0:0:0:
121,316,156470,1,2,0:0:0:0:
76,258,156584,1,2,0:0:0:0:
85,184,156698,1,2,0:0:0:0:
208,160,156811,6,0,B|327:221|327:221|268:216,1,192,6|0,1:0|0:0,0:0:0:0:
131,121,157266,2,0,B|71:1|71:1|115:38,1,192,6|0,1:0|0:0,0:0:0:0:
171,198,157720,2,0,B|149:330|149:330|135:274,1,192,6|0,1:0|0:0,0:0:0:0:
184,112,158175,2,2,B|279:17|279:17|257:71,1,192,6|0,1:0|1:0,0:0:0:0:
123,173,158629,6,0,B|-9:192|-9:192|40:160,1,192,6|0,1:0|0:0,0:0:0:0:
252,96,160448,6,0,B|256:180|256:180|280:208|280:240,1,128,2|2,1:0|0:0,0:0:0:0:
154,345,160788,1,0,0:0:0:0:
248,212,160902,2,0,L|260:280,1,64,8|0,0:0|0:0,0:0:0:0:
48,244,161129,2,0,L|36:176,1,64,2|0,0:0|0:0,0:0:0:0:
248,68,161357,2,0,L|260:136,1,64,0|0,0:0|0:0,0:0:0:0:
80,92,161584,2,0,L|68:24,1,64,2|0,0:0|0:0,0:0:0:0:
343,58,161811,6,0,P|461:45|413:154,1,288.000010986329,4|0,0:0|0:0,0:0:0:0:
406,86,162266,1,0,0:0:0:0:
328,336,162493,6,0,P|304:272|340:204,1,128,2|0,1:0|0:0,0:0:0:0:
412,180,162834,1,0,0:0:0:0:
420,280,162948,2,0,B|292:268|292:268|220:292,1,192,2|0,1:0|0:0,0:0:0:0:
28,332,163402,2,0,L|108:340,1,64,0|0,0:0|0:0,0:0:0:0:
176,224,163629,2,0,L|251:197,1,64,8|2,0:0|0:0,0:0:0:0:
192,64,163857,2,0,L|233:-5,1,64,2|2,0:0|0:0,0:0:0:0:
52,240,164084,5,2,1:0:0:0:
60,248,164198,1,0,0:0:0:0:
168,200,164311,5,2,1:0:0:0:
192,208,164425,1,0,0:0:0:0:
268,132,164538,5,2,1:0:0:0:
300,128,164652,1,0,0:0:0:0:
168,40,164766,6,0,P|104:16|140:92,1,192,2|0,1:0|0:0,0:0:0:0:
72,108,165902,6,0,P|181:107|304:120,1,192,0|0,1:0|0:0,0:0:0:0:
344,268,166243,2,0,B|312:232|324:184|324:184|372:144|348:68,1,192.000007324219,0|0,1:0|0:0,0:0:0:0:
424,272,166584,6,0,P|388:336|280:320,1,192,0|0,1:0|0:0,0:0:0:0:
169,236,167038,2,0,B|236:240|296:228|296:228|310:256|353:272,1,192,8|0,0:0|0:0,0:0:0:0:
368,196,167493,6,0,P|412:172|472:192,1,96.0000036621095,2|0,1:0|0:0,0:0:0:0:
424,248,167720,6,0,L|416:295,1,32,0|0,0:0|0:0,0:0:0:0:
414,261,167948,2,0,L|402:307,1,32,2|0,0:0|0:0,0:0:0:0:
392,287,168175,2,0,L|372:331,1,32,0|0,0:0|0:0,0:0:0:0:
352,316,168402,2,0,L|321:353,1,32,2|0,0:0|0:0,0:0:0:0:
288,337,168629,2,0,L|246:361,1,32,0|0,0:0|0:0,0:0:0:0:
205,332,168857,2,0,L|157:337,1,32,2|0,0:0|0:0,0:0:0:0:
126,266,169084,5,8,0:0:0:0:
112,256,169198,1,0,0:0:0:0:
32,152,169311,5,0,0:0:0:0:
46,162,169425,1,0,0:0:0:0:
224,196,169538,6,0,P|212:176|184:164,1,32,0|0,0:0|0:0,0:0:0:0:
132,92,169766,2,0,P|192:92|248:52,1,96.0000036621095,2|0,0:0|0:0,0:0:0:0:
388,40,169993,6,0,L|472:44,1,64,8|0,0:0|0:0,0:0:0:0:
272,140,170220,2,0,L|136:128,1,128,2|0,0:0|0:0,0:0:0:0:
116,52,170561,1,0,0:0:0:0:
96,248,170675,2,0,L|180:252,1,64,2|0,0:0|0:0,0:0:0:0:
471,320,170902,2,0,L|408:324,1,64,8|0,0:0|0:0,0:0:0:0:
292,260,171129,1,0,0:0:0:0:
424,168,171243,1,0,0:0:0:0:
204,152,171357,6,2,B|140:160|96:140|96:140|136:144|176:112,1,192,6|0,1:0|0:0,0:0:0:0:
321,193,171811,2,0,B|368:149|416:140|416:140|381:160|369:204,1,192,6|0,1:0|0:0,0:0:0:0:
201,229,172266,2,0,B|189:292|157:328|157:328|173:291|156:248,1,192,6|0,1:0|0:0,0:0:0:0:
277,130,172720,2,0,B|250:71|256:23|256:23|264:63|303:88,1,192,6|0,1:0|0:0,0:0:0:0:
274,254,173175,6,2,B|331:286|354:328|354:328|324:301|278:303,1,192,6|0,1:0|0:0,0:0:0:0:
225,133,173629,2,0,B|164:113|132:77|132:77|167:97|217:85,1,192,6|0,1:0|0:0,0:0:0:0:
314,221,174084,2,2,B|375:201|422:212|422:212|382:216|353:251,1,192,6|0,1:0|0:0,0:0:0:0:
196,320,174538,6,0,B|169:328|148:317|148:317|124:305|103:317,1,96,4|0,0:0|0:0,0:0:0:0:
32,352,174993,5,4,3:0:0:0:
188,244,175220,1,0,0:0:0:0:
16,156,175448,1,0,0:0:0:0:
80,252,175675,1,0,0:0:0:0:
168,48,175902,5,8,0:0:0:0:
112,176,176129,1,0,0:0:0:0:
188,244,176357,1,0,0:0:0:0:
288,216,176584,1,0,0:0:0:0:
328,122,176811,1,4,3:0:0:0:
220,168,177038,1,0,0:0:0:0:
268,352,177266,1,0,0:0:0:0:
432,252,177493,1,0,0:0:0:0:
380,28,177720,5,8,0:0:0:0:
277,243,177948,5,8,3:0:0:0:
272,263,178061,1,0,3:0:0:0:
418,220,178175,5,8,3:0:0:0:
404,205,178288,1,0,3:0:0:0:
356,272,178402,6,0,B|360:296|360:296|368:292|368:292|360:332|392:364,1,96.0000036621095,8|4,0:3|3:0,0:0:0:0:
80,348,178857,1,0,0:0:0:0:
44,284,178970,1,0,0:0:0:0:
80,220,179084,1,0,0:0:0:0:
152,216,179198,1,0,0:0:0:0:
168,288,179311,6,0,L|108:284,1,48.0000018310548,0|0,0:0|0:0,0:0:0:0:
20,280,179538,1,8,0:0:0:0:
64,140,179766,6,0,L|124:144,1,48.0000018310548,0|0,0:0|0:0,0:0:0:0:
212,148,179993,1,0,0:0:0:0:
168,72,180220,1,0,0:0:0:0:
256,216,180448,1,4,3:0:0:0:
380,32,180675,5,0,0:0:0:0:
396,104,180788,1,0,0:0:0:0:
348,156,180902,1,0,0:0:0:0:
276,144,181016,1,0,0:0:0:0:
276,68,181129,6,0,L|324:84,1,48.0000018310548,0|0,0:0|0:0,0:0:0:0:
484,116,181357,6,0,L|380:150,1,96.0000036621095,8|0,0:0|0:0,0:0:0:0:
472,200,181584,6,0,L|396:225,1,80,8|0,0:3|0:0,0:0:0:0:
452,284,181811,6,0,L|384:306,1,64,8|0,0:3|0:0,0:0:0:0:
428,368,182038,6,0,L|362:389,1,48.0000018310548,8|0,0:3|0:0,0:0:0:0:
156,300,182266,2,0,B|328:252|328:252|304:280|308:324,1,240,0|0,1:0|0:0,0:0:0:0:
292,344,182720,6,0,L|337:329,1,48.0000018310548,0|0,0:0|0:0,0:0:0:0:
352,164,182948,2,0,L|306:178,1,48.0000018310548,0|0,0:0|0:0,0:0:0:0:
160,256,183175,2,0,L|148:364,1,96.0000036621095,8|0,0:0|0:0,0:0:0:0:
120,184,183629,1,0,0:0:0:0:
216,40,183857,1,0,0:0:0:0:
44,32,184084,1,4,3:0:0:0:
242,173,184311,5,0,0:0:0:0:
297,196,184425,1,0,0:0:0:0:
352,180,184538,1,0,0:0:0:0:
386,134,184652,1,0,0:0:0:0:
389,75,184766,1,0,0:0:0:0:
359,28,184879,1,0,0:0:0:0:
200,96,184993,6,0,L|308:108,1,96.0000036621095,8|0,0:0|0:0,0:0:0:0:
472,216,185334,1,0,0:0:0:0:
288,264,185448,2,2,L|264:260,3,24.0000009155274,2|2|2|2,0:0|0:0|0:0|0:0,0:0:0:0:
400,276,185675,2,2,P|424:300|424:324,1,48.0000018310548,2|2,0:0|0:0,0:0:0:0:
256,340,185902,6,0,L|148:328,1,96.0000036621095,4|0,3:0|0:0,0:0:0:0:
24,212,186357,2,0,B|124:204|124:204|112:240|128:264,1,144.000005493164,0|0,0:0|0:0,0:0:0:0:
192,232,186811,2,0,P|196:180|152:140,1,96.0000036621095,8|0,0:0|0:0,0:0:0:0:
24,64,187266,6,0,L|88:56,1,48.0000018310548,0|0,0:0|0:0,0:0:0:0:
144,120,187493,2,0,L|208:112,1,48.0000018310548,0|0,0:0|0:0,0:0:0:0:
320,114,187720,2,0,L|368:120,1,48.0000018310548,4|0,3:0|0:0,0:0:0:0:
440,58,187948,2,0,L|488:64,1,48.0000018310548,0|0,0:0|0:0,0:0:0:0:
484,176,188175,5,0,0:0:0:0:
497,201,188288,1,0,0:0:0:0:
436,260,188402,5,0,0:0:0:0:
436,287,188516,1,0,0:0:0:0:
361,280,188629,5,8,0:0:0:0:
304,328,188743,1,0,0:0:0:0:
232,312,188857,1,0,0:0:0:0:
208,244,188970,1,0,0:0:0:0:
284,244,189084,6,2,L|286:255,7,12.0000004577637,2|2|2|2|2|2|2|2,0:0|0:0|0:0|0:0|0:0|0:0|0:0|0:0,0:0:0:0:
264,172,189311,6,0,L|240:84,1,48.0000018310548,0|0,1:0|0:0,0:0:0:0:
48,28,189538,6,0,L|28:108,1,64,0|0,0:0|0:0,0:0:0:0:
180,124,189766,2,0,L|200:204,1,64,0|0,0:0|0:0,0:0:0:0:
24,176,189993,6,0,L|4:256,1,64,0|0,0:0|0:0,0:0:0:0:
156,272,190221,2,0,L|176:352,1,64,0|0,1:0|0:0,0:0:0:0:
76,332,190448,5,8,0:0:0:0:
88,328,190561,1,0,0:0:0:0:
100,324,190675,1,0,0:0:0:0:
112,324,190788,1,0,0:0:0:0:
124,324,190902,1,0,0:0:0:0:
136,328,191016,1,0,0:0:0:0:
148,336,191129,1,0,0:0:0:0:
156,344,191243,1,0,0:0:0:0:
240,308,191357,5,0,1:0:0:0:
248,316,191470,1,0,0:0:0:0:
260,324,191584,1,0,0:0:0:0:
272,328,191698,1,0,0:0:0:0:
284,328,191811,1,0,0:0:0:0:
296,328,191925,1,0,0:0:0:0:
352,264,192038,5,0,1:0:0:0:
364,260,192152,1,0,0:0:0:0:
500,288,192266,5,8,0:0:0:0:
504,300,192379,1,0,0:0:0:0:
412,348,192493,5,0,1:0:0:0:
416,336,192607,1,0,0:0:0:0:
444,220,192720,6,0,L|460:152,1,64,0|0,0:0|0:0,0:0:0:0:
384,8,192948,2,0,L|368:76,1,64,0|0,0:0|0:0,0:0:0:0:
444,121,193175,5,0,1:0:0:0:
416,148,193288,1,0,0:0:0:0:
379,156,193402,1,0,0:0:0:0:
339,150,193516,1,0,0:0:0:0:
308,131,193629,1,0,0:0:0:0:
284,100,193743,1,0,0:0:0:0:
212,36,193857,5,0,1:0:0:0:
204,48,193970,1,0,0:0:0:0:
208,140,194084,5,8,0:0:0:0:
176,160,194198,1,0,0:0:0:0:
136,156,194311,1,0,0:0:0:0:
108,128,194425,1,0,0:0:0:0:
104,88,194538,1,0,0:0:0:0:
76,60,194652,1,0,0:0:0:0:
36,60,194766,1,0,0:0:0:0:
8,88,194879,1,0,0:0:0:0:
50,165,194993,5,0,1:0:0:0:
60,180,195107,1,0,0:0:0:0:
72,197,195220,1,0,0:0:0:0:
24,272,195334,5,0,1:0:0:0:
14,287,195448,1,0,0:0:0:0:
2,304,195561,1,0,0:0:0:0:
96,332,195675,5,0,1:0:0:0:
107,346,195788,1,0,0:0:0:0:
224,272,195902,6,0,L|148:280,1,64,8|0,0:0|0:0,0:0:0:0:
336,356,196129,2,0,L|260:348,1,64,0|0,1:0|0:0,0:0:0:0:
436,248,196357,2,0,L|360:256,1,64,8|8,0:0|3:0,0:0:0:0:
300,264,196584,5,8,0:3:0:0:
444,328,196698,1,8,0:3:0:0:
487,180,196811,5,0,1:0:0:0:
472,176,196925,1,0,0:0:0:0:
454,171,197038,1,0,0:0:0:0:
440,167,197152,1,0,0:0:0:0:
422,162,197266,1,0,0:0:0:0:
408,158,197379,1,0,0:0:0:0:
324,132,197493,5,0,1:0:0:0:
316,124,197607,1,0,0:0:0:0:
388,80,197720,5,8,0:0:0:0:
348,48,197834,1,0,0:0:0:0:
296,44,197948,1,0,0:0:0:0:
252,68,198061,1,0,0:0:0:0:
236,116,198175,1,0,0:0:0:0:
244,168,198288,1,0,0:0:0:0:
284,204,198402,1,0,0:0:0:0:
296,252,198516,1,0,0:0:0:0:
190,329,198629,5,0,1:0:0:0:
196,312,198743,1,0,0:0:0:0:
201,294,198857,1,0,0:0:0:0:
206,277,198970,1,0,0:0:0:0:
211,260,199084,1,0,0:0:0:0:
216,243,199198,1,0,0:0:0:0:
304,264,199311,5,0,1:0:0:0:
312,276,199425,1,0,0:0:0:0:
184,348,199538,5,8,0:0:0:0:
172,352,199652,1,0,0:0:0:0:
112,208,199766,5,0,1:0:0:0:
124,204,199879,1,0,0:0:0:0:
183,103,199993,6,0,L|195:166,1,64,2|0,0:0|0:0,0:0:0:0:
84,274,200220,2,0,L|96:212,1,64,2|0,0:0|0:0,0:0:0:0:
286,25,200448,5,0,1:0:0:0:
308,36,200561,1,0,0:0:0:0:
329,46,200675,1,0,0:0:0:0:
351,56,200788,1,0,0:0:0:0:
373,66,200902,1,0,0:0:0:0:
395,76,201016,1,0,0:0:0:0:
344,148,201129,5,0,1:0:0:0:
332,172,201243,1,0,0:0:0:0:
408,100,201357,5,8,0:0:0:0:
432,92,201470,1,0,0:0:0:0:
456,84,201584,2,0,L|532:60,1,64,0|0,0:0|0:0,0:0:0:0:
316,200,201811,2,0,L|392:176,1,64,0|0,0:0|0:0,0:0:0:0:
176,312,202038,2,0,L|252:288,1,64,0|0,0:0|0:0,0:0:0:0:
368,264,202266,5,0,1:0:0:0:
392,276,202379,1,0,0:0:0:0:
416,288,202493,1,0,0:0:0:0:
244,264,202607,5,0,1:0:0:0:
220,252,202720,1,0,0:0:0:0:
196,240,202834,1,0,0:0:0:0:
440,272,202948,6,0,L|464:344,1,64,0|0,1:0|0:0,0:0:0:0:
164,252,203175,2,0,L|140:180,1,64,8|0,0:0|0:0,0:0:0:0:
308,276,203402,6,0,P|324:330|252:316,1,160,0|0,1:0|0:0,0:0:0:0:
116,328,204084,6,0,L|192:352,1,64,8|8,0:0|0:0,0:0:0:0:
120,196,204538,2,0,L|178:249,1,64,8|8,0:0|0:0,0:0:0:0:
184,76,204993,2,0,L|214:149,1,64,8|8,0:0|0:0,0:0:0:0:
308,4,205448,2,0,L|304:83,1,64,8|0,0:0|0:0,0:0:0:0:
296,216,205902,6,0,P|328:232|380:224,1,64,8|8,0:0|0:0,0:0:0:0:
496,224,206357,2,0,P|464:208|412:216,1,64,8|8,0:0|0:0,0:0:0:0:
308,312,206811,2,0,L|288:384,1,64,8|8,0:0|0:0,0:0:0:0:
472,128,207266,2,0,L|492:56,1,64,8|0,0:0|0:0,0:0:0:0:
344,152,207720,5,8,0:0:0:0:
448,288,207948,1,8,0:0:0:0:
132,228,208175,1,8,0:0:0:0:
328,260,208402,1,8,0:0:0:0:
200,352,208629,1,8,0:0:0:0:
100,148,208857,1,8,0:0:0:0:
236,268,209084,1,8,0:0:0:0:
24,200,209311,1,0,0:0:0:0:
208,184,209538,6,0,L|300:172,1,64,8|8,0:0|0:0,0:0:0:0:
80,44,209993,2,0,L|-12:32,1,64,8|8,0:0|0:0,0:0:0:0:
240,175,210448,2,0,L|304:184,1,64,8|8,0:0|0:0,0:0:0:0:
495,35,210903,2,0,L|432:44,1,64,8|0,0:0|0:0,0:0:0:0:
312,220,211357,5,0,0:0:0:0:
480,308,211584,1,2,0:0:0:0:
464,140,211811,1,8,0:0:0:0:
328,372,212038,1,2,0:0:0:0:
396,264,212266,5,0,0:0:0:0:
168,348,212493,1,2,0:0:0:0:
130,226,212720,1,8,0:0:0:0:
256,312,212948,1,2,0:0:0:0:
60,184,213175,5,0,0:0:0:0:
252,80,213402,1,2,0:0:0:0:
212,248,213629,1,8,0:0:0:0:
100,16,213857,1,2,0:0:0:0:
172,164,214084,1,0,0:0:0:0:
392,24,214311,1,2,0:0:0:0:
320,172,214538,1,8,0:0:0:0:
252,80,214766,1,2,0:0:0:0:
364,192,214993,6,0,L|429:201,1,64,0|0,0:0|0:0,0:0:0:0:
148,192,215220,2,0,L|82:182,1,64,2|0,0:0|0:0,0:0:0:0:
374,196,215448,6,0,L|446:208,1,64,8|0,0:0|0:0,0:0:0:0:
137,187,215675,2,0,L|65:175,1,64,2|0,0:0|0:0,0:0:0:0:
385,200,215902,6,0,L|463:217,1,64,0|0,0:0|0:0,0:0:0:0:
125,182,216129,2,0,L|46:165,1,64,2|0,0:0|0:0,0:0:0:0:
398,206,216357,6,0,L|483:227,1,64,8|0,0:0|0:0,0:0:0:0:
112,176,216584,2,0,L|27:154,1,64,2|0,0:0|0:0,0:0:0:0:
243,251,216811,6,0,B|251:327|327:379|403:347|403:347|363:279|419:207|483:223,1,384,2|0,0:1|0:1,0:0:0:0:
468,300,218402,1,0,0:0:0:0:
248,220,218629,5,4,0:2:0:0:
420,84,218857,1,0,0:0:0:0:
472,156,219084,2,0,B|400:188|348:128|348:128|316:128|292:160,1,192,0|0,0:0|0:0,0:0:0:0:
113,148,219538,6,0,P|64:39|182:51,1,288.000010986329,2|0,0:0|0:0,0:0:0:0:
120,80,220334,5,0,0:0:0:0:
96,240,220448,2,0,L|72:340,1,64,4|0,1:0|0:0,0:0:0:0:
172,292,220675,2,0,L|183:394,1,64,0|0,0:0|0:0,0:0:0:0:
264,300,220902,2,0,L|309:392,1,64,8|0,0:0|0:0,0:0:0:0:
428,208,221129,6,0,L|452:108,1,64,0|0,0:0|0:0,0:0:0:0:
291,294,221357,2,0,L|359:371,1,64,0|0,0:0|0:0,0:0:0:0:
426,162,221584,2,0,L|423:60,1,64,0|0,0:0|0:0,0:0:0:0:
316,281,221811,2,0,L|402:338,1,64,8|0,0:0|0:0,0:0:0:0:
412,119,222038,2,0,L|383:21,1,64,0|0,0:0|0:0,0:0:0:0:
256,26,222266,6,0,L|272:88,1,64,0|0,0:0|0:0,0:0:0:0:
215,230,222493,2,0,L|200:169,1,64,0|0,0:0|0:0,0:0:0:0:
337,152,222720,2,0,L|276:168,1,64,8|0,0:0|0:0,0:0:0:0:
132,109,222948,2,0,L|194:94,1,64,0|0,0:0|0:0,0:0:0:0:
32,192,223175,2,0,L|94:177,1,64,0|0,0:0|0:0,0:0:0:0:
36,316,223402,2,0,L|73:264,1,64,0|0,0:0|0:0,0:0:0:0:
132,368,223629,6,2,L|129:328,1,32,2|0,0:0|0:0,0:0:0:0:
244,368,223743,6,2,L|216:339,1,32,2|0,0:0|0:0,0:0:0:0:
344,324,223857,6,2,L|304:319,1,32,2|0,0:0|0:0,0:0:0:0:
376,228,223970,6,2,L|343:249,1,32,2|0,0:0|0:0,0:0:0:0:
340,336,224084,6,0,L|494:237,1,128,0|0,0:0|0:0,0:0:0:0:
400,120,224425,1,0,0:0:0:0:
328,160,224538,2,0,L|250:209,1,64,8|0,0:0|0:0,0:0:0:0:
428,316,224766,2,0,L|505:266,1,64,0|0,0:0|0:0,0:0:0:0:
472,104,224993,2,0,L|340:76,1,128,0|0,0:0|0:0,0:0:0:0:
32,96,225334,1,0,0:0:0:0:
112,116,225448,2,0,L|244:144,1,128,8|0,0:0|0:0,0:0:0:0:
260,68,225788,5,0,0:0:0:0:
92,196,225902,2,0,L|17:254,1,64,0|0,0:0|0:0,0:0:0:0:
106,342,226129,2,0,L|120:280,1,64,0|0,0:0|0:0,0:0:0:0:
200,312,226357,2,0,L|244:395,1,64,8|0,0:0|0:0,0:0:0:0:
347,323,226584,2,0,L|288:300,1,64,0|0,0:0|0:0,0:0:0:0:
344,232,226811,2,0,L|404:211,1,64,0|0,0:0|0:0,0:0:0:0:
480,86,227038,1,0,0:0:0:0:
401,57,227152,1,0,0:0:0:0:
376,132,227266,6,0,P|428:134|470:94,1,96,8|0,0:3|0:0,0:0:0:0:
428,39,227720,6,0,P|395:33|369:55,1,64,0|0,0:0|0:0,0:0:0:0:
256,208,227948,2,0,P|272:179|260:147,1,64,0|0,0:0|0:0,0:0:0:0:
184,24,228175,2,0,P|205:48|239:49,1,64,8|0,0:0|0:0,0:0:0:0:
312,92,228402,5,0,0:0:0:0:
301,87,228516,1,0,0:0:0:0:
144,96,228629,2,0,L|80:100,1,64,0|0,0:0|0:0,0:0:0:0:
0,220,228857,2,0,L|64:216,1,64,0|0,0:0|0:0,0:0:0:0:
192,112,229084,5,8,0:0:0:0:
180,120,229198,1,0,0:0:0:0:
96,232,229311,5,0,0:0:0:0:
108,240,229425,1,0,0:0:0:0:
200,336,229538,6,0,L|317:321,1,96,0|0,0:0|0:0,0:0:0:0:
488,188,229993,2,0,L|370:202,1,96,8|0,0:0|0:0,0:0:0:0:
136,100,230448,2,0,L|253:85,1,96,0|0,0:0|0:0,0:0:0:0:
416,168,230902,6,0,L|321:179,1,64,8|0,0:0|0:0,0:0:0:0:
216,108,231129,2,0,L|310:96,1,64,0|0,0:0|0:0,0:0:0:0:
72,288,231357,6,0,P|43:341|38:318,1,168.000006408692,2|0,0:1|0:0,0:0:0:0:
20,200,231811,6,0,B|57:186|57:186|107:241|176:196,1,168.000006408692,0|0,0:0|0:0,0:0:0:0:
120,140,232266,6,0,P|212:132|240:232,1,192,4|0,0:0|0:0,0:0:0:0:
208,320,232720,5,8,0:0:0:0:
196,328,233175,6,0,L|284:344,1,64,0|0,0:0|0:0,0:0:0:0:
504,264,233402,2,0,L|416:248,1,64,2|0,0:0|0:0,0:0:0:0:
344,336,233629,5,8,0:0:0:0:
352,348,233743,1,0,0:0:0:0:
352,240,233857,5,2,0:0:0:0:
360,252,233970,1,0,0:0:0:0:
344,144,234084,5,0,0:0:0:0:
352,156,234198,1,0,0:0:0:0:
352,48,234311,5,2,0:0:0:0:
360,60,234425,1,0,0:0:0:0:
428,112,234538,6,0,L|492:100,1,64,8|0,0:0|0:0,0:0:0:0:
272,80,234766,1,2,0:0:0:0:
196,68,234879,1,2,0:0:0:0:
120,56,234993,2,0,L|56:44,1,64,0|0,0:0|0:0,0:0:0:0:
57,339,235220,2,0,L|120:328,1,64,2|0,0:0|0:0,0:0:0:0:
179,136,235448,2,0,L|116:147,1,64,8|0,0:0|0:0,0:0:0:0:
116,236,235675,2,0,L|179:248,1,64,2|0,0:0|0:0,0:0:0:0:
320,340,235902,5,0,0:0:0:0:
328,348,236016,1,0,0:0:0:0:
208,252,236129,5,2,0:0:0:0:
200,244,236243,1,0,0:0:0:0:
372,192,236357,6,0,P|420:168|476:184,1,112,8|0,0:3|0:0,0:0:0:0:
428,248,236811,6,0,L|408:320,1,64,0|0,0:0|0:0,0:0:0:0:
340,112,237038,2,0,L|360:40,1,64,2|0,0:0|0:0,0:0:0:0:
437,276,237266,2,0,L|408:353,1,64,8|0,0:0|0:0,0:0:0:0:
355,112,237493,2,0,L|384:35,1,64,2|0,0:0|0:0,0:0:0:0:
446,301,237720,2,0,L|407:382,1,64,0|0,0:0|0:0,0:0:0:0:
372,113,237948,2,0,L|411:32,1,64,2|0,0:0|0:0,0:0:0:0:
352,280,238175,6,0,L|331:320,1,32,2|0,0:0|0:0,0:0:0:0:
276,248,238288,6,0,L|234:265,1,32,2|0,0:0|0:0,0:0:0:0:
240,174,238402,6,0,L|196:160,1,32,2|0,0:0|0:0,0:0:0:0:
265,99,238516,6,0,L|240:60,1,32,0|0,0:0|0:0,0:0:0:0:
316,40,238629,6,0,P|344:96|308:160,1,128,0|2,0:0|0:0,0:0:0:0:
24,176,238970,1,0,0:0:0:0:
44,104,239084,2,0,L|184:92,1,128,8|2,0:0|0:0,0:0:0:0:
240,256,239425,1,0,0:0:0:0:
152,264,239538,2,0,L|81:269,1,64,0|0,0:0|0:0,0:0:0:0:
136,120,239766,2,0,L|206:114,1,64,2|0,0:0|0:0,0:0:0:0:
320,372,239993,2,0,L|188:323,1,128,8|2,0:0|0:0,0:0:0:0:
248,256,240334,5,0,0:0:0:0:
332,252,240448,2,0,L|428:244,1,64,0|0,0:0|0:0,0:0:0:0:
472,160,240675,2,0,L|376:168,1,64,2|0,0:0|0:0,0:0:0:0:
412,328,240902,2,0,L|495:280,1,64,8|0,0:0|0:0,0:0:0:0:
392,84,241129,2,0,L|308:131,1,64,2|0,0:0|0:0,0:0:0:0:
324,268,241357,5,0,0:0:0:0:
316,280,241470,1,0,0:0:0:0:
364,68,241584,5,2,0:0:0:0:
351,60,241698,1,0,0:0:0:0:
184,184,241811,6,0,L|304:176,1,96,8|0,0:3|0:0,0:0:0:0:
128,124,242266,6,0,L|8:116,1,64,0|0,0:0|0:0,0:0:0:0:
104,36,242493,1,2,0:0:0:0:
148,108,242607,1,0,0:0:0:0:
196,188,242720,2,0,L|232:252,1,64,8|0,0:0|0:0,0:0:0:0:
120,336,242948,2,0,L|84:272,1,64,2|0,0:0|0:0,0:0:0:0:
316,284,243175,6,0,L|348:340,1,64,0|0,0:0|0:0,0:0:0:0:
455,247,243402,2,0,L|424:192,1,64,2|0,0:0|0:0,0:0:0:0:
338,265,243629,2,0,L|383:311,1,64,8|0,0:0|0:0,0:0:0:0:
463,194,243857,2,0,L|418:148,1,64,2|0,0:0|0:0,0:0:0:0:
105,37,244084,5,2,0:0:0:0:
66,131,244198,1,2,0:0:0:0:
104,220,244311,1,2,0:0:0:0:
188,252,244425,1,2,0:0:0:0:
268,232,244538,5,2,0:0:0:0:
316,172,244652,1,2,0:0:0:0:
308,100,244766,1,2,0:0:0:0:
264,56,244879,1,2,0:0:0:0:
208,60,244993,5,2,0:0:0:0:
172,96,245107,1,2,0:0:0:0:
168,140,245220,1,2,0:0:0:0:
184,176,245334,1,2,0:0:0:0:
212,192,245448,5,2,0:0:0:0:
236,192,245561,1,2,0:0:0:0:
252,180,245675,1,2,0:0:0:0:
256,168,245788,1,2,0:0:0:0:
256,160,245902,6,0,L|256:276,1,112,2|0,1:0|0:0,0:0:0:0:
256,272,246357,5,8,0:3:0:0:
332,240,246508,2,0,L|408:278,1,85.3333333333333,8|8,0:3|0:3,0:3:0:0:
256,292,246811,5,8,0:3:0:0:
256,192,246963,2,0,L|256:92,1,85.3333333333333,8|8,0:3|0:3,0:0:0:0:
256,312,247266,5,8,0:3:0:0:
180,240,247417,2,0,L|76:292,1,85.3333333333333,8|8,0:3|0:3,0:3:0:0:
84,76,247720,6,0,P|133:20|164:156,1,288.000010986329,6|0,1:0|0:0,0:0:0:0:
153,88,248175,6,0,L|229:92,1,64,8|0,0:0|0:0,0:0:0:0:
456,48,248402,2,0,L|380:52,1,64,2|0,0:0|0:0,0:0:0:0:
164,184,248629,2,0,L|240:188,1,64,0|0,0:0|0:0,0:0:0:0:
431,148,248857,2,0,L|355:152,1,64,2|0,0:0|0:0,0:0:0:0:
216,276,249084,6,0,B|272:288|304:244|304:244|332:208|376:236|376:236|332:296|396:364,1,288.000010986329,4|0,0:0|0:0,0:0:0:0:
440,288,249538,1,0,0:0:0:0:
60,340,249766,6,0,B|44:260|44:260|64:208,1,128,2|8,0:1|0:0,0:0:0:0:
164,40,250220,2,0,B|184:96|184:96|104:140|148:228,1,192,2|0,1:0|0:0,0:0:0:0:
212,172,250675,6,0,L|284:160,1,64,2|0,0:0|0:0,0:0:0:0:
440,140,250902,1,8,0:0:0:0:
308,80,251016,1,0,0:0:0:0:
356,148,251129,5,2,0:0:0:0:
388,72,251243,1,2,0:0:0:0:
320,228,251357,6,0,L|330:291,1,64,2|0,1:0|0:0,0:0:0:0:
472,284,251584,2,0,L|482:347,1,64,2|0,1:0|0:0,0:0:0:0:
176,288,251811,2,0,L|186:351,1,64,2|0,1:0|0:0,0:0:0:0:
24,232,252038,2,0,L|34:295,1,64,2|0,1:0|0:0,0:0:0:0:
192,268,252266,5,0,0:0:0:0:
208,248,252379,1,0,0:0:0:0:
101,93,252493,5,2,0:0:0:0:
80,76,252607,1,2,0:0:0:0:
96,184,252720,6,0,L|226:163,1,128,8|2,0:0|0:0,0:0:0:0:
328,8,253061,1,2,0:0:0:0:
316,84,253175,2,0,L|305:147,1,64,0|0,0:0|0:0,0:0:0:0:
478,219,253402,2,0,L|468:156,1,64,2|0,0:0|0:0,0:0:0:0:
345,224,253629,2,0,L|334:287,1,64,8|0,0:0|0:0,0:0:0:0:
508,360,253857,2,0,L|497:296,1,64,2|0,0:0|0:0,0:0:0:0:
312,228,254084,5,0,0:0:0:0:
288,232,254198,1,0,0:0:0:0:
404,324,254311,5,2,0:0:0:0:
424,337,254425,1,2,0:0:0:0:
260,240,254538,6,0,L|196:252,1,64,8|8,0:0|0:0,0:0:0:0:
56,328,254766,5,8,0:3:0:0:
44,348,254879,1,8,0:3:0:0:
160,180,254993,6,0,P|116:268|180:336,1,192,2|0,1:0|0:0,0:0:0:0:
236,168,255448,5,10,0:0:0:0:
248,148,255561,1,2,0:0:0:0:
140,196,255675,5,0,0:0:0:0:
128,216,255788,1,0,0:0:0:0:
256,128,255902,2,0,L|236:52,1,64,2|2,0:0|0:0,0:0:0:0:
116,188,256129,5,0,0:0:0:0:
128,208,256243,1,0,0:0:0:0:
272,108,256357,2,0,L|301:52,1,64,10|2,0:0|0:0,0:0:0:0:
140,236,256584,6,0,L|169:292,1,64,0|0,0:0|0:0,0:0:0:0:
344,80,256811,2,0,L|373:24,1,64,2|2,0:0|0:0,0:0:0:0:
156,40,257038,1,0,0:0:0:0:
72,136,257152,1,0,0:0:0:0:
204,200,257266,6,0,L|260:229,1,64,2|2,1:0|0:0,0:0:0:0:
448,312,257493,2,0,P|372:280|280:360,1,192,2|0,1:0|0:0,0:0:0:0:
252,352,257948,2,0,L|348:340,1,64,0|0,0:0|0:0,0:0:0:0:
360,204,258175,1,8,0:0:0:0:
340,91,258288,1,2,0:0:0:0:
294,157,258402,5,2,0:0:0:0:
405,137,258516,1,2,0:0:0:0:
164,232,258629,6,0,B|220:292|304:260|304:260|252:208,1,192,6|0,1:0|0:0,0:0:0:0:
118,142,259084,2,0,B|37:126|-11:201|-11:201|26:207,1,192,6|0,1:0|0:0,0:0:0:0:
207,188,259538,2,0,B|281:153|276:63|276:63|242:81,1,192,6|0,1:0|0:0,0:0:0:0:
109,204,259993,2,0,B|69:275|125:345|125:345|143:310,1,192,6|0,1:0|0:0,0:0:0:0:
176,140,260448,6,0,B|216:69|160:-1|160:-1|142:34,1,192,6|0,1:0|0:0,0:0:0:0:
208,100,262266,6,0,B|264:64|324:104|324:104|344:68|384:60,1,192,6|0,1:0|0:0,0:0:0:0:
397,140,262720,2,0,L|447:101,1,64,8|0,0:0|0:0,0:0:0:0:
416,256,262948,2,0,L|450:202,1,64,2|0,0:0|0:0,0:0:0:0:
475,357,263175,2,0,L|488:295,1,64,0|0,0:0|0:0,0:0:0:0:
328,196,263402,5,2,0:0:0:0:
308,180,263516,1,0,0:0:0:0:
85,231,263629,6,0,P|36:339|154:327,1,288.000010986329,4|0,0:0|0:0,0:0:0:0:
92,299,264084,1,0,0:0:0:0:
168,60,264311,6,0,P|136:108|156:176,1,128,2|8,1:0|0:0,0:0:0:0:
216,240,264652,1,0,0:0:0:0:
212,124,264766,2,2,B|164:148|120:120|120:120|20:160,1,192,2|2,1:0|0:0,0:0:0:0:
292,60,265220,2,0,L|368:44,1,64,2|0,0:0|0:0,0:0:0:0:
376,132,265448,2,0,L|444:168,1,64,8|0,0:0|0:0,0:0:0:0:
380,228,265675,2,0,L|408:300,1,64,2|2,0:0|0:0,0:0:0:0:
308,288,265902,5,2,1:0:0:0:
300,296,266016,1,0,0:0:0:0:
192,248,266129,5,2,1:0:0:0:
168,256,266243,1,0,0:0:0:0:
92,180,266357,5,2,1:0:0:0:
60,176,266470,1,0,0:0:0:0:
128,48,266584,6,0,P|192:24|156:100,1,192,2|0,1:0|0:0,0:0:0:0:
128,100,267720,6,0,B|180:120|180:120|336:112,1,192.000007324219,0|0,1:0|0:0,0:0:0:0:
356,160,268061,2,0,B|316:112|316:112|332:244,1,192.000007324219,0|0,1:0|0:0,0:0:0:0:
280,296,268402,6,0,P|372:304|400:216,1,192,0|0,1:0|0:0,0:0:0:0:
232,188,268857,2,0,B|191:181|137:196|137:196|169:241|204:263,1,192,8|0,0:0|0:0,0:0:0:0:
470,102,269311,6,0,P|442:63|396:51,1,96.0000036621095,0|0,1:0|0:0,0:0:0:0:
400,128,269538,6,0,L|361:155,1,32,0|0,0:0|0:0,0:0:0:0:
383,130,269766,2,0,L|341:154,1,32,2|0,0:0|0:0,0:0:0:0:
349,132,269993,2,0,L|303:148,1,32,0|0,0:0|0:0,0:0:0:0:
301,125,270220,2,0,L|252:129,1,32,2|0,0:0|0:0,0:0:0:0:
240,94,270448,2,0,L|193:81,1,32,0|0,0:0|0:0,0:0:0:0:
185,32,270675,2,0,L|147:1,1,32,2|0,0:0|0:0,0:0:0:0:
118,93,270902,5,8,0:0:0:0:
110,109,271016,1,0,0:0:0:0:
32,208,271129,5,0,0:0:0:0:
24,191,271243,1,0,0:0:0:0:
128,76,271357,2,0,L|132:116,1,32,0|0,0:0|0:0,0:0:0:0:
128,188,271584,6,0,B|116:224|116:224|128:296,1,96.0000036621095,2|0,0:0|0:0,0:0:0:0:
328,328,271811,6,0,L|244:336,1,64,8|0,0:0|0:0,0:0:0:0:
40,296,272038,2,0,L|184:272,1,128,2|0,0:0|0:0,0:0:0:0:
348,248,272379,1,0,0:0:0:0:
412,292,272493,2,0,L|420:376,1,64,2|0,0:0|0:0,0:0:0:0:
280,204,272720,5,8,0:0:0:0:
300,56,272834,1,0,0:0:0:0:
364,108,272948,2,0,L|372:192,1,64,0|0,0:0|0:0,0:0:0:0:
209,146,273175,6,0,B|187:185|152:163|152:163|148:93|88:65,1,192,6|0,1:0|0:0,0:0:0:0:
318,199,273629,2,0,B|313:155|356:153|356:153|399:206|477:192,1,192,6|0,1:0|0:0,0:0:0:0:
199,220,274084,2,0,B|229:253|196:280|196:280|129:262|84:311,1,192,6|0,1:0|0:0,0:0:0:0:
282,133,274538,2,0,B|239:124|251:83|251:83|315:59|322:-6,1,192,6|0,1:0|0:0,0:0:0:0:
267,253,274993,2,0,B|307:234|322:274|322:274|283:333|316:391,1,192,6|0,1:0|0:0,0:0:0:0:
380,336,275448,6,0,B|420:308|456:316|456:316|432:332|436:364,2,128,4|0|8,0:0|0:0|0:3,0:0:0:0:
156,340,276811,5,12,0:0:0:0:
60,256,277266,1,0,0:0:0:0:
180,216,277720,1,2,0:0:0:0:
68,340,278175,1,0,0:0:0:0:
100,176,278629,5,0,0:0:0:0:
256,176,279084,1,0,0:0:0:0:
172,36,279538,1,2,0:0:0:0:
180,216,279993,1,0,0:0:0:0:
52,96,280220,6,0,L|128:116,1,64,0|0,0:0|0:0,0:0:0:0:
196,128,280675,1,2,0:0:0:0:
264,180,280902,2,0,L|396:140,1,128,0|2,0:0|0:0,0:0:0:0:
448,44,281811,1,0,0:0:0:0:
352,248,282266,5,0,0:0:0:0:
328,344,282720,1,0,0:0:0:0:
452,212,283175,1,2,0:0:0:0:
284,168,283629,1,0,0:0:0:0:
432,312,284084,5,0,0:0:0:0:
244,352,284538,1,0,0:0:0:0:
60,292,284993,1,2,0:0:0:0:
292,268,285448,1,0,0:0:0:0:
124,356,285902,5,0,0:0:0:0:
52,176,286357,1,0,0:0:0:0:
228,96,286811,1,2,0:0:0:0:
180,224,287266,5,0,0:0:0:0:
136,152,287493,2,0,L|92:80,1,64,0|0,0:0|0:0,0:0:0:0:
228,96,287948,1,2,0:0:0:0:
324,152,288175,2,0,P|388:164|448:112,1,128,0|2,0:0|0:0,0:0:0:0:
478,297,289084,5,2,0:1:0:0:
400,284,289311,2,0,L|254:258,1,128,2|0,0:0|0:0,0:0:0:0:
192,300,289993,1,2,0:1:0:0:
112,316,290220,2,0,L|40:328,1,64,2|0,0:0|0:0,0:0:0:0:
136,234,290675,1,0,0:0:0:0:
200,192,290902,2,0,L|256:152,1,64,2|0,0:1|0:0,0:0:0:0:
68,28,291357,6,0,P|48:56|60:100,1,64,2|0,1:0|0:0,0:0:0:0:
88,152,291698,1,0,0:0:0:0:
160,112,291811,2,0,L|216:72,1,64,8|0,0:0|0:0,0:0:0:0:
284,36,292152,1,0,0:0:0:0:
368,72,292266,1,0,1:0:0:0:
368,72,292493,1,0,1:0:0:0:
436,120,292720,2,0,L|432:200,1,64,8|0,0:0|0:0,0:0:0:0:
428,260,293061,5,0,0:0:0:0:
412,276,293175,2,0,P|440:276|476:308,1,64,0|0,1:0|0:0,0:0:0:0:
416,352,293516,1,0,0:0:0:0:
336,344,293629,2,0,L|260:336,1,64,8|0,0:0|0:0,0:0:0:0:
192,328,293970,1,0,0:0:0:0:
244,256,294084,1,0,1:0:0:0:
244,256,294311,1,0,1:0:0:0:
104,332,294538,6,0,L|32:356,1,64,8|0,0:0|0:0,0:0:0:0:
48,220,294879,1,0,0:0:0:0:
68,212,294993,2,0,P|108:224|128:256,1,64,0|0,1:0|0:0,0:0:0:0:
152,160,295334,1,0,0:0:0:0:
228,132,295448,2,8,L|300:108,1,64,8|0,0:0|0:0,0:0:0:0:
368,88,295788,1,0,0:0:0:0:
308,36,295902,1,0,1:0:0:0:
308,36,296129,1,0,1:0:0:0:
348,164,296357,6,0,P|384:168|420:144,1,64,8|0,0:0|0:0,0:0:0:0:
456,92,296698,1,0,0:0:0:0:
424,236,296811,2,0,L|408:304,1,64,0|0,1:0|0:0,0:0:0:0:
344,348,297152,1,0,0:0:0:0:
268,316,297266,6,0,P|224:304|168:336,1,96,8|0,0:0|0:0,0:0:0:0:
0,288,297720,2,0,P|44:300|100:268,1,96,0|0,1:0|0:0,0:0:0:0:
152,232,298175,2,0,L|140:112,1,96,8|0,0:0|0:0,0:0:0:0:
88,80,298629,6,0,P|64:112|68:144,1,64,0|0,1:0|0:0,0:0:0:0:
220,116,298970,1,0,0:0:0:0:
296,100,299084,2,0,L|384:80,1,64,8|0,0:0|0:0,0:0:0:0:
444,72,299425,1,0,0:0:0:0:
412,148,299538,1,0,1:0:0:0:
412,148,299766,1,0,1:0:0:0:
372,224,299993,6,0,L|388:288,1,64,8|0,0:0|0:0,0:0:0:0:
312,332,300334,1,0,0:0:0:0:
284,344,300448,2,0,P|248:332|208:352,1,64,0|0,1:0|0:0,0:0:0:0:
16,268,300788,1,0,0:0:0:0:
96,260,300902,6,0,L|199:244,1,96,8|0,0:0|0:0,0:0:0:0:
264,16,301357,2,0,L|242:118,1,96,0|0,1:0|0:0,0:0:0:0:
420,252,301811,2,0,L|330:196,1,96,8|0,0:0|0:0,0:0:0:0:
256,192,302266,5,2,0:0:0:0:
256,192,302379,12,0,305902,0:0:0:0:
72,176,307720,6,0,L|88:248,1,64,2|0,1:0|0:0,0:0:0:0:
152,292,307948,5,2,0:0:0:0:
144,316,308061,1,0,0:0:0:0:
124,112,308175,2,0,L|108:40,1,64,8|0,0:0|0:0,0:0:0:0:
28,156,308402,5,2,0:1:0:0:
52,168,308516,1,0,0:0:0:0:
200,152,308629,6,0,L|272:136,1,64,0|0,0:0|0:0,0:0:0:0:
488,200,308857,2,0,L|416:216,1,64,2|0,0:0|0:0,0:0:0:0:
320,72,309084,6,0,P|429:21|412:137,1,288.000010986329,4|0,0:0|0:0,0:0:0:0:
376,96,309538,5,2,0:1:0:0:
388,74,309652,1,0,0:0:0:0:
348,214,309766,5,2,0:1:0:0:
360,192,309879,1,0,0:0:0:0:
348,330,309993,5,2,0:1:0:0:
360,308,310107,1,0,0:0:0:0:
280,276,310220,6,2,B|152:288|152:288|104:340,1,192,2|2,0:1|0:0,0:0:0:0:
100,352,310675,2,0,L|188:344,1,64,2|0,0:0|0:0,0:0:0:0:
208,196,310902,5,8,0:0:0:0:
252,76,311016,1,0,0:0:0:0:
132,32,311129,1,0,0:0:0:0:
84,152,311243,1,0,0:0:0:0:
168,112,311357,6,0,L|252:72,1,64,2|0,0:1|0:0,0:0:0:0:
360,200,311584,2,0,L|417:172,1,64,2|0,0:1|0:0,0:0:0:0:
256,160,311811,2,0,L|340:120,1,64,2|0,0:1|0:0,0:0:0:0:
448,248,312038,2,0,L|505:220,1,64,2|0,0:1|0:0,0:0:0:0:
344,216,312266,5,0,0:1:0:0:
328,236,312379,1,0,0:0:0:0:
352,356,312493,5,0,0:0:0:0:
368,336,312607,1,0,0:0:0:0:
288,304,312720,6,0,L|176:296,1,96,8|0,0:3|0:0,0:0:0:0:
116,296,313175,6,0,P|118:327|141:358,1,64,0|0,0:0|0:0,0:0:0:0:
76,224,313402,2,0,P|43:218|9:231,1,64,2|0,0:0|0:0,0:0:0:0:
160,224,313629,2,0,P|180:199|185:162,1,64,8|0,0:0|0:0,0:0:0:0:
39,54,313857,5,0,0:0:0:0:
34,130,313970,1,0,0:0:0:0:
108,156,314084,1,0,0:0:0:0:
325,100,314198,5,0,0:0:0:0:
275,43,314311,1,2,0:0:0:0:
204,76,314425,1,2,0:0:0:0:
252,152,314538,6,0,B|240:192|240:192|272:288,1,96.0000036621095,8|8,0:0|0:0,0:0:0:0:
400,136,314766,2,0,B|412:96|412:96|380:0,1,96.0000036621095,8|8,0:3|0:3,0:0:0:0:
196,292,314993,6,0,B|249:294|249:294|287:325|334:317|334:317|377:340,1,192,6|0,1:0|0:0,0:0:0:0:
397,236,315448,5,2,0:0:0:0:
409,232,315561,1,2,0:0:0:0:
309,244,315675,5,0,0:0:0:0:
297,240,315788,1,0,0:0:0:0:
436,236,315902,2,0,L|501:220,1,64,2|2,0:0|0:0,0:0:0:0:
272,242,316129,5,0,0:0:0:0:
259,239,316243,1,0,0:0:0:0:
448,280,316357,2,0,L|513:296,1,64,2|2,0:0|0:0,0:0:0:0:
237,244,316584,6,0,L|165:224,1,64,0|0,0:0|0:0,0:0:0:0:
29,332,316811,2,0,L|101:312,1,64,2|2,0:0|0:0,0:0:0:0:
225,152,317038,1,0,0:0:0:0:
101,60,317152,1,0,0:0:0:0:
37,200,317266,2,0,L|109:180,1,64,2|2,1:0|0:0,0:0:0:0:
176,236,317493,6,0,P|248:264|332:184,1,192,2|0,1:0|0:0,0:0:0:0:
256,64,317948,2,0,L|268:136,1,64,2|0,0:0|0:0,0:0:0:0:
432,188,318175,1,8,0:0:0:0:
404,108,318288,1,2,0:0:0:0:
348,168,318402,2,0,L|360:240,1,64,2|2,0:0|0:0,0:0:0:0:
166,319,318629,6,0,B|198:368|198:368|176:236,1,192,6|0,1:0|0:0,0:0:0:0:
215,87,319084,2,0,B|218:30|218:30|159:150,1,192,6|0,1:0|0:0,0:0:0:0:
273,222,319538,2,0,B|329:207|329:207|198:187,1,192,6|0,1:0|0:0,0:0:0:0:
71,102,319993,2,0,B|17:81|17:81|113:175,1,192,6|0,1:0|0:0,0:0:0:0:
76,240,320448,2,0,P|40:256|116:284,1,192,6|0,1:0|0:0,0:0:0:0:
252,340,320902,5,2,0:0:0:0:
364,272,321016,1,2,0:0:0:0:
256,228,321129,2,0,B|406:249|406:249|358:209,1,192,6|0,1:0|0:0,0:0:0:0:
464,200,321584,2,0,P|484:236|468:288,1,64,2|2,0:0|0:0,0:0:0:0:
320,72,321811,6,0,P|429:21|412:137,1,288.000010986329,4|0,0:0|0:0,0:0:0:0:
332,152,322266,6,0,P|236:184|172:128,1,192,6|0,1:0|0:0,0:0:0:0:
248,84,322720,5,8,0:0:0:0:
256,108,322834,1,0,0:0:0:0:
104,176,322948,5,2,0:0:0:0:
96,152,323061,1,0,0:0:0:0:
174,131,323175,6,0,L|198:207,1,64,0|0,0:0|0:0,0:0:0:0:
72,308,323402,2,0,L|48:232,1,64,2|0,0:0|0:0,0:0:0:0:
440,204,323629,6,0,B|360:168|312:236|312:236|380:288|336:376,1,288.000010986329,4|0,0:0|0:0,0:0:0:0:
272,312,324084,1,0,0:0:0:0:
436,120,324311,6,0,P|388:132|356:208,1,128,2|0,1:0|0:0,0:0:0:0:
440,204,324652,1,0,0:0:0:0:
512,84,324766,2,0,B|465:44|465:44|328:36,1,192,2|0,1:0|0:0,0:0:0:0:
220,104,325220,2,0,L|284:132,1,64,0|0,0:0|0:0,0:0:0:0:
184,220,325448,2,0,L|215:282,1,64,8|0,0:0|0:0,0:0:0:0:
96,288,325675,2,0,L|79:355,1,64,2|2,0:0|0:0,0:0:0:0:
80,176,325902,5,2,1:0:0:0:
88,168,326016,1,0,0:0:0:0:
196,216,326129,5,2,1:0:0:0:
220,208,326243,1,0,0:0:0:0:
296,284,326357,5,2,1:0:0:0:
328,288,326470,1,0,0:0:0:0:
448,288,326584,6,0,P|487:221|411:234,1,192,2|0,1:0|0:0,0:0:0:0:
416,280,327720,6,0,B|400:216|400:216|416:84,1,192,4|0,1:0|0:0,0:0:0:0:
460,31,328061,2,0,P|477:133|361:140,1,192.000007324219,4|0,1:0|0:0,0:0:0:0:
229,99,328402,6,0,B|265:79|265:79|415:91,1,192,4|0,1:0|0:0,0:0:0:0:
256,176,328857,2,0,B|220:196|220:196|53:182,1,192.000007324219,8|0,0:0|0:0,0:0:0:0:
56,148,329311,6,0,B|72:176|72:176|64:248,1,96.0000036621095,0|0,0:0|0:0,0:0:0:0:
20,304,329538,6,0,L|43:344,1,32,0|0,0:0|0:0,0:0:0:0:
35,313,329766,2,0,L|62:352,1,32,2|0,0:0|0:0,0:0:0:0:
65,330,329993,2,0,L|99:363,1,32,0|0,0:0|0:0,0:0:0:0:
111,343,330220,2,0,L|153:367,1,32,2|0,0:0|0:0,0:0:0:0:
179,341,330448,2,0,L|227:349,1,32,0|0,0:0|0:0,0:0:0:0:
255,308,330675,2,0,L|302:295,1,32,2|0,0:0|0:0,0:0:0:0:
444,288,330902,5,8,0:0:0:0:
461,298,331016,1,0,0:0:0:0:
328,187,331129,5,0,0:0:0:0:
310,198,331243,1,0,0:0:0:0:
472,205,331357,5,0,0:0:0:0:
490,216,331470,1,0,0:0:0:0:
357,104,331584,5,2,0:0:0:0:
339,115,331698,1,0,0:0:0:0:
492,104,331811,6,0,P|506:89|502:51,1,32,8|0,0:0|0:0,0:0:0:0:
504,60,332038,2,0,L|400:48,1,96.0000036621095,2|0,0:0|0:0,0:0:0:0:
120,120,332266,2,0,L|276:138,1,128,0|2,0:0|0:0,0:0:0:0:
336,100,332607,1,0,0:0:0:0:
180,204,332720,2,0,L|172:284,1,64,8|0,0:0|0:0,0:0:0:0:
332,180,332948,2,0,L|340:100,1,64,0|0,0:0|0:0,0:0:0:0:
227,240,333175,6,0,B|183:276|133:261|133:261|108:308|144:344,1,192,6|0,1:0|0:0,0:0:0:0:
302,159,333629,2,8,B|356:144|396:178|396:178|438:146|420:98,1,192,6|0,1:0|0:0,0:0:0:0:
200,199,334084,2,0,B|144:188|124:139|124:139|72:149|67:200,1,192,6|0,1:0|0:0,0:0:0:0:
309,207,334538,2,0,B|356:240|354:292|354:292|406:304|431:260,1,192,6|0,1:0|0:0,0:0:0:0:
215,153,334993,6,0,B|189:103|214:57|214:57|173:23|130:50,1,192,6|0,1:0|0:0,0:0:0:0:
277,243,335448,2,0,B|281:300|239:332|239:332|262:379|313:371,1,192,6|0,1:0|0:0,0:0:0:0:
260,136,335902,2,8,B|282:84|334:74|334:74|335:21|286:5,1,192,6|0,1:0|0:0,0:0:0:0:
384,272,336357,6,0,P|421:300|468:295,1,96,4|0,0:0|0:0,0:0:0:0:
452,132,336811,6,0,L|440:232,1,96.0000036621095,0|2,0:0|0:0,0:0:0:0:
392,64,337266,2,0,L|404:-12,1,48.0000018310548,8|0,0:0|0:0,0:0:0:0:
300,136,337493,2,0,L|292:183,1,48.0000018310548,0|0,0:0|0:0,0:0:0:0:
360,60,337720,2,0,L|264:48,1,96.0000036621095,0|2,0:0|0:0,0:0:0:0:
148,128,338061,1,0,0:0:0:0:
168,124,338175,2,0,L|215:118,1,48.0000018310548,8|0,0:0|0:0,0:0:0:0:
56,64,338402,2,0,L|8:58,1,48.0000018310548,2|0,0:0|0:0,0:0:0:0:
64,144,338629,6,2,L|75:239,1,96.0000036621095,2|2,0:0|0:0,0:0:0:0:
260,320,339084,2,0,L|254:272,1,48.0000018310548,8|0,0:0|0:0,0:0:0:0:
56,224,339311,2,0,L|61:271,1,48.0000018310548,2|0,0:0|0:0,0:0:0:0:
232,320,339538,2,0,L|327:331,1,96.0000036621095,0|2,0:0|0:0,0:0:0:0:
476,248,339879,1,2,0:0:0:0:
456,252,339993,2,0,L|408:257,1,48.0000018310548,8|0,0:0|0:0,0:0:0:0:
228,192,340220,2,0,L|275:197,1,48.0000018310548,2|0,0:0|0:0,0:0:0:0:
480,132,340448,6,0,L|385:143,1,96.0000036621095,0|2,0:0|0:0,0:0:0:0:
168,60,340902,2,0,L|228:68,1,48.0000018310548,8|0,0:0|0:0,0:0:0:0:
192,148,341129,2,0,L|228:196,1,48.0000018310548,2|0,0:0|0:0,0:0:0:0:
148,228,341357,2,0,L|132:342,1,96.0000036621095,0|2,0:0|0:0,0:0:0:0:
68,176,341698,1,0,0:0:0:0:
72,148,341811,2,0,L|81:79,1,48.0000018310548,8|0,0:0|0:0,0:0:0:0:
172,312,342038,2,0,L|162:380,1,48.0000018310548,2|0,0:0|0:0,0:0:0:0:
136,228,342266,6,0,L|250:243,1,96.0000036621095,0|2,0:0|0:0,0:0:0:0:
468,280,342720,2,0,L|448:344,1,48.0000018310548,8|0,0:0|0:0,0:0:0:0:
300,196,342948,2,0,L|320:132,1,48.0000018310548,2|0,0:0|0:0,0:0:0:0:
376,240,343175,2,0,L|334:373,1,96.0000036621095,0|2,0:0|0:0,0:0:0:0:
304,176,343516,1,2,0:0:0:0:
308,156,343629,2,0,L|328:92,1,48.0000018310548,8|0,0:0|0:0,0:0:0:0:
480,64,343857,2,0,L|460:128,1,48.0000018310548,2|0,0:0|0:0,0:0:0:0:
268,272,344084,6,0,L|176:300,1,96.0000036621095,0|2,0:0|0:0,0:0:0:0:
8,216,344538,2,0,L|52:230,1,48.0000018310548,8|0,0:0|0:0,0:0:0:0:
239,153,344766,2,0,L|207:187,1,48.0000018310548,2|0,0:0|0:0,0:0:0:0:
96,84,344993,2,0,L|124:192,1,96.0000036621095,0|2,0:0|0:0,0:0:0:0:
168,308,345334,1,0,0:0:0:0:
196,300,345448,2,0,L|288:272,1,96.0000036621095,8|2,0:0|0:0,0:0:0:0:
448,240,345902,6,0,L|398:224,1,48.0000018310548,0|0,0:0|0:0,0:0:0:0:
220,176,346129,2,0,L|269:191,1,48.0000018310548,2|0,0:0|0:0,0:0:0:0:
384,196,346357,2,0,L|496:230,1,96.0000036621095,8|2,0:0|0:0,0:0:0:0:
350,49,346698,1,0,0:0:0:0:
340,80,346811,2,0,L|326:125,1,48.0000018310548,0|0,0:0|0:0,0:0:0:0:
200,180,347038,2,0,L|154:166,1,48.0000018310548,2|2,0:0|0:0,0:0:0:0:
28,56,347266,2,0,L|133:88,1,96.0000036621095,8|2,0:0|0:0,0:0:0:0:
208,344,347720,6,0,L|162:330,1,48.0000018310548,0|0,0:0|0:0,0:0:0:0:
28,216,347948,2,0,L|74:230,1,48.0000018310548,2|0,0:0|0:0,0:0:0:0:
180,352,348175,6,0,L|308:312,1,96.0000036621095,8|2,0:0|0:0,0:0:0:0:
420,296,348516,1,0,0:0:0:0:
416,316,348629,2,0,L|404:372,1,48.0000018310548,0|0,0:0|0:0,0:0:0:0:
392,212,348857,2,0,L|343:243,1,48.0000018310548,0|0,0:0|0:0,0:0:0:0:
436,136,349084,2,0,L|312:109,1,96.0000036621095,8|2,0:0|0:0,0:0:0:0:
64,80,349538,6,0,P|52:116|64:140,1,48.0000018310548,0|0,0:0|0:0,0:0:0:0:
176,160,349766,2,0,P|146:136|119:139,1,48.0000018310548,2|0,0:0|0:0,0:0:0:0:
20,260,349993,2,0,P|78:224|89:177,1,96.0000036621095,8|2,0:0|0:0,0:0:0:0:
236,252,350334,1,0,0:0:0:0:
204,248,350448,2,0,L|136:236,1,48.0000018310548,0|0,0:0|0:0,0:0:0:0:
24,344,350675,2,0,L|92:332,1,48.0000018310548,2|0,0:0|0:0,0:0:0:0:
264,256,350902,2,0,L|396:279,1,96.0000036621095,8|2,0:0|0:0,0:0:0:0:
320,104,351357,6,0,L|309:167,1,64,8|8,0:0|0:0,0:0:0:0:
484,112,351811,2,0,L|471:185,1,64,8|8,0:0|0:0,0:0:0:0:
244,52,352266,2,0,L|233:115,1,64,8|8,0:0|0:0,0:0:0:0:
408,60,352720,2,0,L|396:123,1,64,8|0,0:0|0:0,0:0:0:0:
192,280,353175,6,0,L|203:217,1,64,8|8,0:0|0:0,0:0:0:0:
28,272,353629,2,0,L|41:199,1,64,8|8,0:0|0:0,0:0:0:0:
268,332,354084,2,0,L|279:269,1,64,8|8,0:0|0:0,0:0:0:0:
104,324,354538,2,0,L|115:260,1,64,8|0,0:0|0:0,0:0:0:0:
454,112,354993,5,8,0:0:0:0:
488,188,355220,1,8,0:0:0:0:
287,134,355448,1,8,0:0:0:0:
353,85,355675,1,8,0:0:0:0:
378,195,355902,1,8,0:0:0:0:
356,276,356129,1,8,0:0:0:0:
421,33,356357,1,8,0:0:0:0:
212,176,356811,5,8,0:0:0:0:
76,236,357038,1,8,0:0:0:0:
30,106,357266,1,8,0:0:0:0:
112,160,357493,1,8,0:0:0:0:
40,308,357720,1,8,0:0:0:0:
256,240,357948,1,8,0:0:0:0:
452,352,358175,1,8,0:0:0:0:
416,276,358402,2,2,L|404:248,3,16,2|2|2|2,0:0|0:0|0:0|0:0,0:0:0:0:
376,192,358629,5,0,0:0:0:0:
412,172,358743,1,0,0:0:0:0:
448,152,358857,1,2,0:0:0:0:
408,156,358970,1,0,0:0:0:0:
372,136,359084,5,8,0:0:0:0:
356,96,359198,1,0,0:0:0:0:
360,56,359311,1,2,0:0:0:0:
384,24,359425,1,0,0:0:0:0:
460,88,359538,6,0,L|404:82,1,32,0|0,0:0|0:0,0:0:0:0:
260,152,359766,2,0,L|315:146,1,32,2|0,0:0|0:0,0:0:0:0:
208,32,359993,2,0,L|152:26,1,32,8|0,0:0|0:0,0:0:0:0:
8,96,360220,2,0,L|63:90,1,32,2|0,0:0|0:0,0:0:0:0:
158,183,360448,5,0,0:0:0:0:
152,208,360561,1,0,0:0:0:0:
144,232,360675,1,2,0:0:0:0:
136,256,360788,1,0,0:0:0:0:
106,275,360902,5,8,0:0:0:0:
115,237,361015,1,0,0:0:0:0:
127,201,361129,1,2,0:0:0:0:
139,165,361242,1,0,0:0:0:0:
229,144,361357,6,0,L|244:183,1,32,0|0,0:0|0:0,0:0:0:0:
344,368,361584,2,0,L|312:363,1,32,2|0,0:0|0:0,0:0:0:0:
313,214,361811,2,0,L|324:184,1,32,8|0,0:0|0:0,0:0:0:0:
377,268,362038,2,0,L|349:284,1,32,2|0,0:0|0:0,0:0:0:0:
332,60,362266,5,0,0:0:0:0:
372,36,362379,1,0,0:0:0:0:
420,44,362493,1,2,0:0:0:0:
452,80,362607,1,0,0:0:0:0:
452,128,362720,5,8,0:0:0:0:
420,164,362834,1,0,0:0:0:0:
380,136,362948,1,2,0:0:0:0:
332,144,363061,1,0,0:0:0:0:
296,176,363175,6,0,L|292:216,1,32,0|0,0:0|0:0,0:0:0:0:
456,288,363402,2,0,L|460:248,1,32,2|0,0:0|0:0,0:0:0:0:
200,196,363629,2,0,L|196:236,1,32,8|0,0:0|0:0,0:0:0:0:
360,308,363857,2,0,L|364:268,1,32,2|0,0:0|0:0,0:0:0:0:
228,120,364084,5,0,0:0:0:0:
212,108,364198,1,0,0:0:0:0:
200,96,364311,1,2,0:0:0:0:
184,84,364425,1,0,0:0:0:0:
156,68,364538,5,8,0:0:0:0:
168,108,364652,1,0,0:0:0:0:
156,148,364766,1,2,0:0:0:0:
124,172,364879,1,0,0:0:0:0:
104,148,364993,5,0,0:0:0:0:
72,172,365106,1,0,0:0:0:0:
60,212,365220,1,2,0:0:0:0:
72,252,365334,1,0,0:0:0:0:
128,308,365448,6,0,L|152:328,1,32,8|0,0:0|0:0,0:0:0:0:
360,328,365675,2,0,L|384:308,1,32
256,264,365902,5,0,0:0:0:0:
