osu file format v13

[General]
AudioFilename: Nhato - Magic (Original Mix).mp3
AudioLeadIn: 0
PreviewTime: 119330
Countdown: 0
SampleSet: Soft
StackLeniency: 0.7
Mode: 0
LetterboxInBreaks: 1
EpilepsyWarning: 1
WidescreenStoryboard: 1

[Editor]
Bookmarks: 503,30268,45268,60268,75268,90268,120268,150268,180268,195268,210268,225268,240268,270268,300268,315268
DistanceSpacing: 1
BeatDivisor: 4
GridSize: 4
TimelineZoom: 1.2

[Metadata]
Title:Magic
TitleUnicode:Magic
Artist:Nhato
ArtistUnicode:Nhato
Creator:DarkKanaki
Version:EXTREME
Source:
Tags:Voodooism Original Mix cYsmix KUSEMONO RECORDS
BeatmapID:429752
BeatmapSetID:178665

[Difficulty]
HPDrainRate:7
CircleSize:4
OverallDifficulty:7
ApproachRate:9
SliderMultiplier:2.8
SliderTickRate:2

[Events]
//Background and Video events
0,0,"Background.jpg",0,0
//Break Periods
2,180468,191855
//Storyboard Layer 0 (Background)
//Storyboard Layer 1 (Fail)
//Storyboard Layer 2 (Pass)
//Storyboard Layer 3 (Foreground)
//Storyboard Sound Samples

[TimingPoints]
503,468.75,4,2,1,20,1,0
503,-200,4,2,1,20,0,0
30268,-100,4,2,1,20,0,0
44799,-66.6666666666667,4,1,1,100,0,0
45268,-100,4,2,1,40,0,0
75268,-100,4,2,1,60,0,0
75503,-100,4,2,1,60,0,0
82534,-66.6666666666667,4,2,1,60,0,0
82768,-100,4,2,1,60,0,0
89799,-66.6666666666667,4,1,1,100,0,0
90151,-100,4,2,1,60,0,0
90268,468.75,4,2,1,60,1,0
120268,-100,4,2,1,75,0,1
123549,-133.333333333333,4,2,1,75,0,1
124486,-100,4,2,1,75,0,1
125893,-66.6666666666667,4,2,1,75,0,1
126361,-100,4,2,1,75,0,1
128236,-66.6666666666667,4,2,1,75,0,1
130814,-100,4,2,1,75,0,1
135971,-66.6666666666667,4,2,1,75,0,1
136205,-100,4,2,1,75,0,1
139018,-133.333333333333,4,2,1,75,0,1
139486,-100,4,2,1,75,0,1
140893,-66.6666666666667,4,2,1,75,0,1
141127,-100,4,2,1,75,0,1
143236,-133.333333333333,4,2,1,75,0,1
143705,-66.6666666666667,4,2,1,75,0,1
145814,-100,4,2,1,75,0,1
149799,-100,4,1,1,100,0,1
150268,-100,4,2,1,75,0,1
151205,-66.6666666666667,4,2,1,75,0,1
151674,-100,4,2,1,75,0,1
153783,-66.6666666666667,4,2,1,75,0,1
154018,-100,4,2,1,75,0,1
160111,-66.6666666666667,4,2,1,75,0,1
160580,-100,4,2,1,75,0,1
169018,-133.333333333333,4,2,1,75,0,1
169486,-100,4,2,1,75,0,1
170893,-66.6666666666667,4,2,1,75,0,1
171361,-100,4,2,1,75,0,1
173236,-133.333333333333,4,2,1,75,0,1
173705,-66.6666666666667,4,2,1,75,0,1
175814,-100,4,2,1,75,0,1
179799,-100,4,1,1,100,0,1
180268,-100,4,2,1,75,0,0
192455,-200,4,2,1,40,0,0
210268,-66.6666666666667,4,1,1,100,0,0
210619,-100,4,2,1,60,0,0
240268,-66.6666666666667,4,2,1,20,0,0
240736,-100,4,2,1,75,0,1
243549,-133.333333333333,4,2,1,75,0,1
244486,-100,4,2,1,75,0,1
245893,-66.6666666666667,4,2,1,75,0,1
246361,-100,4,2,1,75,0,1
248236,-66.6666666666667,4,2,1,75,0,1
250814,-100,4,2,1,75,0,1
255971,-66.6666666666667,4,2,1,75,0,1
256205,-100,4,2,1,75,0,1
259018,-133.333333333333,4,2,1,75,0,1
259486,-100,4,2,1,75,0,1
260893,-66.6666666666667,4,2,1,75,0,1
261361,-100,4,2,1,75,0,1
263236,-133.333333333333,4,2,1,75,0,1
263705,-66.6666666666667,4,2,1,75,0,1
265814,-100,4,2,1,75,0,1
269799,-100,4,1,1,100,0,1
270268,-100,4,2,1,75,0,1
271205,-66.6666666666667,4,2,1,75,0,1
271674,-100,4,2,1,75,0,1
272611,-66.6666666666667,4,2,1,75,0,1
273080,-100,4,2,1,75,0,1
273783,-66.6666666666667,4,2,1,75,0,1
274018,-100,4,2,1,75,0,1
280111,-66.6666666666667,4,2,1,75,0,1
280580,-100,4,2,1,75,0,1
281283,-66.6666666666667,4,2,1,75,0,1
281518,-100,4,2,1,75,0,1
289018,-133.333333333333,4,2,1,75,0,1
289486,-100,4,2,1,75,0,1
290189,-66.6666666666667,4,2,1,75,0,1
290424,-100,4,2,1,75,0,1
290893,-66.6666666666667,4,2,1,75,0,1
291361,-100,4,2,1,75,0,1
293236,-133.333333333333,4,2,1,75,0,1
293705,-66.6666666666667,4,2,1,75,0,1
295814,-100,4,2,1,75,0,1
299799,-100,4,1,1,100,0,1
300268,-100,4,2,1,50,0,0
303549,-66.6666666666667,4,2,1,50,0,0
304018,-100,4,2,1,50,0,0
307299,-133.333333333333,4,2,1,50,0,0
307768,-100,4,2,1,50,0,0
311049,-66.6666666666667,4,2,1,50,0,0
311518,-100,4,2,1,50,0,0
314799,-133.333333333333,4,2,1,50,0,0
315268,-100,4,2,1,30,0,0
326518,-100,4,2,1,20,0,0
332377,-100,4,2,1,5,0,0

[Colours]
Combo1 : 255,136,136
Combo2 : 100,100,100
Combo3 : 196,196,196
Combo4 : 210,0,0
Combo5 : 72,159,255

[HitObjects]
52,48,503,6,0,L|164:148,1,140,0|0,0:0|0:0,0:0:0:0:
60,244,1440,6,0,L|208:244,1,140
252,112,2378,54,0,L|376:12,1,140,2|0,0:0|0:0,0:0:0:0:
364,164,3315,6,0,L|472:264,1,140,2|0,0:0|0:0,0:0:0:0:
344,192,4253,53,2,0:0:0:0:
256,84,4721,1,0,0:0:0:0:
164,192,5190,1,2,0:0:0:0:
256,300,5658,1,2,0:0:0:0:
404,192,6128,5,2,0:0:0:0:
256,44,6596,1,0,0:0:0:0:
108,192,7065,1,2,0:0:0:0:
256,344,7533,1,2,0:0:0:0:
468,344,8003,54,0,L|468:192,1,140
348,280,8940,6,0,L|348:140,1,140
44,40,9878,54,0,L|44:192,1,140,2|0,0:0|0:0,0:0:0:0:
164,104,10815,6,0,L|164:244,1,140,2|0,0:0|0:0,0:0:0:0:
256,136,11753,53,2,0:0:0:0:
256,276,12221,1,0,0:0:0:0:
132,212,12690,1,2,0:0:0:0:
272,208,13158,1,2,0:0:0:0:
184,320,13628,5,2,0:0:0:0:
116,196,14096,1,0,0:0:0:0:
44,316,14565,1,2,0:0:0:0:
116,196,15033,1,2,0:0:0:0:
172,68,15503,54,0,B|192:92|192:92|220:112|220:112|204:128|204:128|232:144|232:144|240:164,1,140
344,68,16440,6,0,B|324:92|324:92|296:112|296:112|312:128|312:128|284:144|284:144|276:164,1,140
172,316,17378,54,0,B|192:292|192:292|220:272|220:272|204:256|204:256|232:240|232:240|240:220,1,140,2|0,0:0|0:0,0:0:0:0:
344,316,18315,6,0,B|324:292|324:292|296:272|296:272|312:256|312:256|284:240|284:240|276:220,1,140,2|0,0:0|0:0,0:0:0:0:
148,164,19253,54,0,B|212:192|212:192|140:220,1,140,2|0,0:0|0:0,0:0:0:0:
364,164,20190,2,0,B|300:192|300:192|372:220,1,140,2|2,0:0|0:0,0:0:0:0:
256,128,21128,6,0,B|240:168|240:168|280:204|280:204|248:264,3,140,2|2|2|2,0:0|0:0|0:0|0:0,0:0:0:0:
132,304,23003,53,2,0:0:0:0:
208,232,23237,1,0,0:0:0:0:
284,304,23471,1,2,0:0:0:0:
436,304,23940,5,2,0:0:0:0:
360,232,24174,1,0,0:0:0:0:
284,304,24408,1,2,0:0:0:0:
312,96,24878,54,0,P|256:60|196:100,3,140,2|0|2|0,0:0|0:0|0:0|0:0,0:0:0:0:
140,220,26753,6,0,P|172:280|248:288,1,140,2|0,0:0|0:0,0:0:0:0:
372,220,27690,2,0,P|340:280|264:288,1,140,2|0,0:0|0:0,0:0:0:0:
272,80,28628,54,0,B|264:8|264:8|248:88,1,140,2|0,0:0|0:0,0:0:0:0:
244,284,29565,2,0,B|252:356|252:356|265:289,1,140,2|2,0:0|0:0,0:0:0:0:
272,220,30268,5,8,0:0:0:0:
392,144,30503,2,0,L|252:80,1,140,8|0,0:0|0:0,0:0:0:0:
128,56,30971,2,0,L|256:144,1,140,8|2,0:0|0:0,0:0:0:0:
352,228,31440,2,0,L|216:184,1,140,8|0,0:0|0:0,0:0:0:0:
84,148,31909,1,8,0:0:0:0:
116,284,32143,1,2,0:0:0:0:
252,316,32378,54,0,L|116:244,1,140,8|0,0:0|0:0,0:0:0:0:
108,112,32846,2,0,L|128:252,1,140,8|2,0:0|0:0,0:0:0:0:
212,140,33315,2,0,L|120:260,1,140,8|0,0:0|0:0,0:0:0:0:
264,224,33784,2,0,L|116:252,1,140,8|2,0:0|0:0,0:0:0:0:
64,116,34253,6,0,P|136:76|200:76,1,140,8|0,0:0|0:0,0:0:0:0:
448,116,34721,2,0,P|376:76|312:76,1,140,8|2,0:0|0:0,0:0:0:0:
256,200,35190,1,8,0:0:0:0:
256,272,35425,1,0,0:0:0:0:
64,268,35659,54,0,P|136:308|200:308,1,140,8|2,0:0|0:0,0:0:0:0:
448,268,36128,2,0,P|376:308|312:308,1,140,8|0,0:0|0:0,0:0:0:0:
256,184,36596,1,8,0:0:0:0:
256,112,36831,1,2,0:0:0:0:
196,76,37065,5,8,0:0:0:0:
184,100,37299,1,0,0:0:0:0:
168,124,37534,1,8,0:0:0:0:
156,148,37768,1,2,0:0:0:0:
352,228,38003,54,0,P|376:312|348:320,2,140,8|0|8,0:0|0:0|0:0,0:0:0:0:
160,312,38706,2,0,P|136:228|164:220,2,140,2|8|0,0:0|0:0|0:0,0:0:0:0:
256,208,39409,1,8,0:0:0:0:
256,348,39643,1,2,0:0:0:0:
256,68,39878,5,8,0:0:0:0:
256,208,40112,1,0,0:0:0:0:
168,100,40346,2,0,P|148:184|192:268,2,140,8|2|8,0:0|0:0|0:0,0:0:0:0:
256,208,41049,2,0,P|284:128|276:72,2,140,0|8|2,0:0|0:0|0:0,0:0:0:0:
392,164,41753,53,8,0:0:0:0:
256,324,41987,1,0,0:0:0:0:
120,164,42221,1,8,0:0:0:0:
256,4,42456,2,0,L|256:160,3,140,2|8|0|8,0:0|0:0|0:0|0:0,0:0:0:0:
172,256,43393,5,2,0:0:0:0:
328,116,43627,1,8,0:0:0:0:
172,256,43862,1,0,0:0:0:0:
380,256,44096,1,8,0:0:0:0:
224,112,44330,1,2,0:0:0:0:
380,256,44565,1,8,0:0:0:0:
472,68,44799,54,0,B|368:-4|212:164|72:24,1,420.000016021729,4|8,0:0|0:0,0:0:0:0:
108,304,45737,38,0,P|208:308|316:260,1,210,8|0,0:0|0:0,0:0:0:0:
307,266,46206,1,8,0:0:0:0:
424,88,46557,1,0,0:0:0:0:
424,88,46674,2,0,P|344:132|228:92,1,210,8|0,0:0|0:0,0:0:0:0:
235,99,47143,1,8,0:0:0:0:
40,24,47495,5,0,0:0:0:0:
40,24,47612,2,0,P|36:112|92:232,1,210,8|0,0:0|0:0,0:0:0:0:
84,224,48081,2,0,P|181:302|277:306,1,210,8|0,0:0|0:0,0:0:0:0:
264,308,48549,2,0,P|362:266|414:178,1,210,8|0,0:0|0:0,0:0:0:0:
413,180,49018,1,8,0:0:0:0:
256,40,49370,37,0,0:0:0:0:
256,40,49487,2,0,B|236:96|236:96|280:164|280:164|252:240,1,210,8|0,0:0|0:0,0:0:0:0:
255,229,49956,1,8,0:0:0:0:
72,124,50307,5,0,0:0:0:0:
72,124,50424,2,0,B|124:152|112:196|112:196|124:220|124:220|160:244|140:304|140:304|132:324,1,210,8|0,0:0|0:0,0:0:0:0:
140,304,50893,2,0,B|187:268|191:333|222:298|222:298|248:297|248:297|285:274|331:318|331:318|346:334,1,210,8|0,0:0|0:0,0:0:0:0:
332,316,51362,2,0,B|331:315|331:315|311:255|347:231|347:231|359:207|359:207|347:163|399:135,1,210,8|0,0:0|0:0,0:0:0:0:
398,135,51831,5,8,0:0:0:0:
256,292,52065,1,0,0:0:0:0:
256,84,52299,1,8,0:0:0:0:
140,260,52534,1,0,0:0:0:0:
88,56,52769,1,8,0:0:0:0:
416,320,53120,5,0,0:0:0:0:
416,320,53237,2,0,P|412:232|312:144,1,210,8|0,0:0|0:0,0:0:0:0:
312,288,53706,2,0,P|224:268|164:156,1,210,8|0,0:0|0:0,0:0:0:0:
160,32,54174,2,0,B|232:96|296:36|368:28,1,210,8|0,0:0|0:0,0:0:0:0:
444,140,54643,6,0,B|424:220|360:212|320:204|292:348,1,210,8|0,0:0|0:0,0:0:0:0:
168,284,55112,2,0,B|155:199|115:207|51:215|31:135,1,210,8|0,0:0|0:0,0:0:0:0:
140,48,55581,2,0,P|256:32|352:56,1,210,8|0,0:0|0:0,0:0:0:0:
208,72,56049,54,0,L|208:300,1,210,8|0,0:0|0:0,0:0:0:0:
96,368,56518,2,0,L|312:368,1,210,8|0,0:0|0:0,0:0:0:0:
306,368,56987,1,8,0:0:0:0:
28,56,57338,5,0,0:0:0:0:
28,56,57456,2,0,P|144:124|224:108,1,210,8|0,0:0|0:0,0:0:0:0:
214,111,57924,2,0,P|352:92|432:120,1,210,8|0,0:0|0:0,0:0:0:0:
417,112,58393,1,8,0:0:0:0:
12,216,58745,53,0,0:0:0:0:
12,216,58862,2,0,P|132:200|176:296,1,210,8|0,0:0|0:0,0:0:0:0:
175,263,59331,5,8,0:0:0:0:
384,264,59565,1,0,0:0:0:0:
280,80,59799,1,8,0:0:0:0:
176,264,60034,1,0,0:0:0:0:
76,80,60268,1,12,0:0:0:0:
84,220,60503,6,0,L|84:292,2,70,2|0|8,0:0|0:0|0:0,0:0:0:0:
224,220,60971,1,2,0:0:0:0:
224,256,61088,1,0,0:0:0:0:
224,292,61206,1,8,0:0:0:0:
360,256,61440,2,0,L|432:256,2,70,2|0|8,0:0|0:0|0:0,0:0:0:0:
256,72,61909,1,0,0:0:0:0:
48,72,62143,1,8,0:0:0:0:
180,20,62378,6,0,P|176:56|148:96,2,70,0|0|8,0:0|0:0|0:0,0:0:0:0:
320,28,62846,1,0,0:0:0:0:
336,60,62963,1,2,0:0:0:0:
352,92,63080,1,8,0:0:0:0:
312,152,63315,1,2,0:0:0:0:
300,184,63432,1,0,0:0:0:0:
284,216,63549,1,8,0:0:0:0:
332,268,63784,2,0,L|376:340,2,70,2|2|8,0:0|0:0|0:0,0:0:0:0:
192,260,64253,5,2,0:0:0:0:
180,292,64370,1,0,0:0:0:0:
168,324,64487,1,8,0:0:0:0:
64,140,64721,1,2,0:0:0:0:
76,172,64838,1,0,0:0:0:0:
88,204,64955,1,8,0:0:0:0:
208,28,65190,1,2,0:0:0:0:
196,60,65307,1,0,0:0:0:0:
184,92,65424,1,8,0:0:0:0:
396,100,65659,1,0,0:0:0:0:
396,308,65893,1,8,0:0:0:0:
220,192,66128,38,0,L|144:192,2,70,2|2|8,0:0|0:0|0:0,0:0:0:0:
60,328,66596,2,0,L|128:280,2,70,2|2|8,0:0|0:0|0:0,0:0:0:0:
60,56,67065,2,0,L|128:104,2,70,2|2|8,0:0|0:0|0:0,0:0:0:0:
220,192,67534,1,0,0:0:0:0:
448,32,67768,1,12,0:0:0:0:
452,172,68003,5,2,0:0:0:0:
452,208,68120,1,0,0:0:0:0:
452,244,68237,1,8,0:0:0:0:
324,76,68471,1,2,0:0:0:0:
288,76,68588,1,0,0:0:0:0:
252,80,68705,1,8,0:0:0:0:
460,52,68940,2,0,L|512:0,2,70,0|0|8,0:0|0:0|0:0,0:0:0:0:
284,272,69409,1,0,0:0:0:0:
96,68,69643,1,8,0:0:0:0:
240,308,69878,6,0,L|160:248,2,70,2|0|8,0:0|0:0|0:0,0:0:0:0:
412,52,70346,2,0,L|380:128,2,70,0|2|8,0:0|0:0|0:0,0:0:0:0:
444,292,70815,2,0,L|480:368,2,70,2|0|8,0:0|0:0|0:0,0:0:0:0:
300,140,71284,1,2,0:0:0:0:
276,164,71401,1,2,0:0:0:0:
252,188,71518,1,8,0:0:0:0:
72,296,71753,37,2,0:0:0:0:
104,308,71870,1,0,0:0:0:0:
136,320,71987,1,8,0:0:0:0:
328,236,72221,1,2,0:0:0:0:
296,248,72338,1,2,0:0:0:0:
264,260,72455,1,8,0:0:0:0:
88,140,72690,1,2,0:0:0:0:
120,152,72807,1,0,0:0:0:0:
152,164,72924,1,8,0:0:0:0:
256,348,73159,1,0,0:0:0:0:
256,140,73393,1,8,0:0:0:0:
456,72,73628,5,2,0:0:0:0:
424,60,73745,1,2,0:0:0:0:
392,48,73862,1,8,0:0:0:0:
200,132,74096,1,2,0:0:0:0:
232,120,74213,1,2,0:0:0:0:
264,108,74330,1,8,0:0:0:0:
440,228,74565,1,0,0:0:0:0:
408,216,74682,1,2,0:0:0:0:
376,204,74799,1,8,0:0:0:0:
256,32,75034,1,0,0:0:0:0:
256,312,75268,6,0,P|180:328|116:272,1,140,12|0,0:0|0:0,0:0:0:0:
64,216,75620,2,0,L|68:292,1,70,8|0,0:0|0:0,0:0:0:0:
164,244,75854,2,0,L|96:208,1,70,8|0,0:0|0:0,0:0:0:0:
256,68,76206,37,10,0:0:0:0:
464,72,76440,1,0,0:0:0:0:
356,252,76674,1,10,0:0:0:0:
256,68,76909,1,2,0:0:0:0:
72,168,77143,6,0,P|104:216|176:192,1,140,10|0,0:0|0:0,0:0:0:0:
160,92,77495,2,0,L|84:92,1,70,8|0,0:0|0:0,0:0:0:0:
196,92,77729,2,0,L|280:92,1,70,8|0,0:0|0:0,0:0:0:0:
440,208,78081,6,0,P|400:292|308:304,1,140,8|0,0:0|0:0,0:0:0:0:
324,308,78432,1,2,0:0:0:0:
288,308,78549,1,0,0:0:0:0:
148,308,78784,1,0,0:0:0:0:
148,28,79018,37,8,0:0:0:0:
360,28,79253,1,2,0:0:0:0:
360,64,79370,1,2,0:0:0:0:
360,100,79487,1,8,0:0:0:0:
360,136,79604,1,0,0:0:0:0:
360,172,79721,1,2,0:0:0:0:
288,308,79956,2,0,P|216:312|144:272,3,140,8|0|8|0,0:0|0:0|0:0|0:0,0:0:0:0:
36,112,80893,5,8,0:0:0:0:
168,60,81128,1,2,0:0:0:0:
188,88,81245,1,2,0:0:0:0:
208,116,81362,1,8,0:0:0:0:
228,144,81479,1,0,0:0:0:0:
248,172,81596,1,2,0:0:0:0:
428,60,81831,2,0,L|428:212,1,140,8|0,0:0|0:0,0:0:0:0:
428,236,82182,1,0,0:0:0:0:
428,272,82299,1,8,0:0:0:0:
224,320,82534,2,0,P|140:312|184:224,1,210.000008010865,0|12,0:0|0:0,0:0:0:0:
256,108,83003,6,0,L|256:32,2,70,2|2|0,0:0|0:0|0:0,0:0:0:0:
256,176,83354,2,0,L|256:260,1,70,10|2,0:0|0:0,0:0:0:0:
116,260,83706,2,0,P|100:180|136:88,1,140,2|0,0:0|0:0,0:0:0:0:
392,128,84174,2,0,P|408:240|372:300,1,140,2|0,0:0|0:0,0:0:0:0:
324,64,84643,38,0,P|264:32|200:56,1,140,8|2,0:0|0:0,0:0:0:0:
256,144,84995,2,0,L|256:244,1,70,2|8,0:0|0:0,0:0:0:0:
256,320,85229,2,0,L|256:248,1,70,0|2,0:0|0:0,0:0:0:0:
128,192,85581,1,8,0:0:0:0:
128,332,85815,2,0,L|128:256,2,70,0|0|8,0:0|0:0|0:0,0:0:0:0:
128,120,86284,1,0,0:0:0:0:
324,52,86518,1,8,0:0:0:0:
420,156,86753,5,2,0:0:0:0:
420,192,86870,1,2,0:0:0:0:
352,192,86987,1,8,0:0:0:0:
352,156,87104,1,0,0:0:0:0:
284,156,87221,1,2,0:0:0:0:
76,192,87456,5,10,0:0:0:0:
256,300,87690,1,0,0:0:0:0:
76,192,87924,1,10,0:0:0:0:
256,84,88159,1,2,0:0:0:0:
436,192,88393,1,10,0:0:0:0:
436,52,88628,37,2,0:0:0:0:
404,36,88745,1,2,0:0:0:0:
364,92,88862,1,10,0:0:0:0:
332,76,88979,1,2,0:0:0:0:
284,124,89096,1,2,0:0:0:0:
152,80,89331,6,0,P|120:160|144:220,1,140,8|0,0:0|0:0,0:0:0:0:
176,264,89682,1,0,0:0:0:0:
244,256,89799,2,0,P|392:280|296:188,1,315.000012016297,4|0,0:0|0:0,0:0:0:0:
324,140,90268,6,2,L|268:88,1,70
212,124,90502,2,0,L|140:136,1,70,0|2,0:0|0:0,0:0:0:0:
84,176,90736,2,2,P|72:216|96:248,1,70
140,284,90971,2,2,P|200:304|212:284,1,70
192,236,91205,38,0,P|248:236|256:272,1,70,0|2,0:0|0:0,0:0:0:0:
280,308,91439,2,2,P|324:320|344:300,1,70
372,244,91674,2,2,P|392:192|372:168,3,70
376,152,92143,5,2,0:0:0:0:
360,120,92260,1,2,0:0:0:0:
328,104,92377,1,0,0:0:0:0:
292,100,92494,1,2,0:0:0:0:
256,100,92611,1,2,0:0:0:0:
224,116,92728,1,0,0:0:0:0:
196,136,92846,1,2,0:0:0:0:
160,136,92963,1,2,0:0:0:0:
128,124,93080,6,2,L|64:92,3,70
56,128,93549,2,2,L|120:160,3,70
120,228,94018,38,2,L|120:308,1,70
164,352,94252,2,2,L|248:352,1,70
236,284,94486,2,2,P|204:240|168:240,3,70
196,168,94955,2,2,P|216:112|248:112,1,70
280,144,95189,2,2,P|304:116|296:84,1,70
228,88,95424,2,2,P|228:52|260:32,1,70
272,20,95658,2,2,L|348:20,1,70,2|0,0:0|0:0,0:0:0:0:
448,72,95893,5,2,0:0:0:0:
448,108,96010,1,2,0:0:0:0:
448,144,96127,1,0,0:0:0:0:
396,192,96244,5,2,0:0:0:0:
396,156,96361,1,2,0:0:0:0:
396,120,96478,1,0,0:0:0:0:
344,72,96596,37,2,0:0:0:0:
344,108,96713,1,2,0:0:0:0:
340,144,96830,1,0,0:0:0:0:
292,192,96947,5,2,0:0:0:0:
292,156,97064,1,2,0:0:0:0:
292,120,97182,1,0,0:0:0:0:
240,72,97299,6,2,L|240:0,4,70
240,144,97885,38,2,L|240:232,1,70
240,284,98119,2,2,L|240:376,1,70
172,352,98353,2,0,L|172:272,1,70,2|0,0:0|0:0,0:0:0:0:
172,212,98588,2,2,L|172:136,1,70
120,92,98822,6,2,P|84:116|88:160,1,70
84,212,99057,2,0,P|64:256|88:296,4,70,0|2|2|2|2,0:0|0:0|0:0|0:0|0:0,0:0:0:0:
152,192,99643,5,2,0:0:0:0:
188,192,99760,1,2,0:0:0:0:
224,192,99877,1,0,0:0:0:0:
260,192,99994,1,2,0:0:0:0:
296,192,100111,1,2,0:0:0:0:
332,192,100228,1,0,0:0:0:0:
368,192,100346,1,2,0:0:0:0:
404,192,100463,1,2,0:0:0:0:
440,192,100580,38,2,P|480:200|504:220,4,70
404,192,101166,1,0,0:0:0:0:
368,192,101283,1,2,0:0:0:0:
332,192,101400,1,2,0:0:0:0:
296,192,101518,2,2,L|296:268,1,70
224,260,101752,5,0,0:0:0:0:
224,260,101869,1,2,0:0:0:0:
224,260,101986,1,2,0:0:0:0:
224,260,102103,1,0,0:0:0:0:
224,260,102221,2,2,L|144:260,1,70
84,260,102455,6,0,P|56:228|56:200,1,70,0|2,0:0|0:0,0:0:0:0:
64,132,102689,2,0,P|96:104|128:124,1,70,2|0,0:0|0:0,0:0:0:0:
124,180,102924,2,2,P|168:172|168:128,1,70
120,112,103158,2,2,P|144:80|180:84,1,70
244,80,103393,37,2,0:0:0:0:
280,80,103510,1,2,0:0:0:0:
316,88,103627,1,2,0:0:0:0:
344,108,103744,1,2,0:0:0:0:
360,140,103861,1,2,0:0:0:0:
368,176,103978,1,0,0:0:0:0:
368,212,104096,1,2,0:0:0:0:
368,248,104213,6,0,L|368:288,9,35
368,248,104799,6,0,L|332:248,7,35
368,248,105268,1,2,0:0:0:0:
324,300,105385,38,2,L|248:300,1,70
184,300,105619,2,2,L|132:244,1,70
136,180,105853,2,2,L|136:100,1,70
140,40,106088,2,2,L|220:8,1,70,2|0,0:0|0:0,0:0:0:0:
276,16,106322,2,2,L|352:16,3,70
416,24,106791,2,2,L|464:92,1,70
456,116,107025,5,0,0:0:0:0:
456,152,107143,1,2,0:0:0:0:
456,188,107260,1,2,0:0:0:0:
456,224,107377,1,2,0:0:0:0:
456,260,107494,1,2,0:0:0:0:
456,296,107611,2,2,L|380:296,1,70
316,296,107846,6,2,L|252:232,1,70
196,244,108080,2,0,L|146:293,1,70,0|2,0:0|0:0,0:0:0:0:
76,296,108314,2,2,L|76:212,1,70
76,156,108549,2,0,L|76:84,1,70
140,56,108783,2,2,P|184:44|204:64,1,70
272,56,109018,38,2,P|316:44|336:64,2,70
256,88,109369,1,2,0:0:0:0:
256,124,109486,1,2,0:0:0:0:
256,160,109603,1,2,0:0:0:0:
256,196,109721,1,0,0:0:0:0:
256,232,109838,1,2,0:0:0:0:
256,268,109955,1,0,0:0:0:0:
256,304,110072,6,2,P|228:332|184:324,3,70
168,316,110541,1,2,0:0:0:0:
152,284,110658,1,2,0:0:0:0:
152,248,110775,6,2,L|152:168,1,70
80,176,111010,2,2,L|80:84,1,70
132,60,111244,2,2,P|168:48|204:68,1,70
268,60,111478,2,2,P|304:48|340:68,1,70
404,60,111713,2,0,P|440:48|476:68,1,70,2|0,0:0|0:0,0:0:0:0:
424,112,111947,37,2,0:0:0:0:
396,132,112064,1,2,0:0:0:0:
364,152,112182,1,2,0:0:0:0:
336,172,112299,1,2,0:0:0:0:
308,192,112416,1,2,0:0:0:0:
280,212,112533,1,2,0:0:0:0:
252,232,112650,1,2,0:0:0:0:
220,248,112768,6,2,L|152:224,1,70
92,200,113002,2,2,P|68:168|60:136,1,70
64,68,113236,2,2,P|84:28|120:20,1,70
176,20,113471,2,2,L|260:20,1,70
316,20,113705,2,0,L|316:96,1,70,2|0,0:0|0:0,0:0:0:0:
316,124,113939,1,2,0:0:0:0:
316,160,114057,1,2,0:0:0:0:
316,196,114174,1,2,0:0:0:0:
316,232,114291,1,2,0:0:0:0:
316,268,114408,1,2,0:0:0:0:
316,304,114525,1,2,0:0:0:0:
220,260,114643,6,0,L|152:304,7,70
116,164,115580,38,2,L|180:120,7,70
284,40,116518,6,0,L|256:64,7,35
232,128,116986,6,0,L|256:156,7,35
284,220,117455,54,0,L|256:244,7,35
232,308,117924,6,0,L|256:336,7,35
256,192,118393,12,8,119799,0:0:0:0:
348,132,120267,38,0,L|424:176,1,70,8|0,0:0|0:0,0:0:0:0:
408,96,120502,2,0,L|408:176,1,70,8|0,0:0|0:0,0:0:0:0:
408,200,120736,2,0,P|372:268|312:272,1,140,8|0,0:0|0:0,0:0:0:0:
176,244,121205,2,0,L|120:296,2,70,2|2|2,0:0|0:0|0:0,0:0:0:0:
196,104,121674,5,10,0:0:0:0:
228,88,121791,1,2,0:0:0:0:
264,84,121908,1,0,0:0:0:0:
296,92,122025,1,2,0:0:0:0:
320,116,122143,2,0,P|344:152|344:188,1,70,10|0,0:0|0:0,0:0:0:0:
348,212,122377,2,0,P|328:248|300:264,1,70
272,272,122611,2,2,L|228:284,7,35
238,281,123080,1,8,0:0:0:0:
104,236,123314,1,0,0:0:0:0:
160,108,123549,6,8,P|272:72|352:124,2,210.000008010865
160,248,124721,37,0,0:0:0:0:
160,248,124838,2,0,P|212:308|288:304,1,140,8|0,0:0|0:0,0:0:0:0:
268,311,125189,2,0,P|344:272|384:224,1,140,8|0,0:0|0:0,0:0:0:0:
396,200,125541,1,2,0:0:0:0:
400,164,125658,1,0,0:0:0:0:
392,132,125775,1,2,0:0:0:0:
376,104,125893,6,8,B|352:64|344:144|328:104|328:104|304:68|292:144|276:104|276:104|264:72|244:144|232:104|232:104|208:104,2,210.000008010865
444,100,126478,6,0,L|472:168,1,70
476,236,126713,2,0,L|448:316,1,70,0|8,0:0|0:0,0:0:0:0:
352,328,126947,37,2,0:0:0:0:
316,328,127064,1,0,0:0:0:0:
280,328,127182,1,2,0:0:0:0:
244,328,127299,1,8,0:0:0:0:
180,244,127416,5,2,0:0:0:0:
180,208,127533,1,0,0:0:0:0:
180,172,127650,1,2,0:0:0:0:
180,136,127768,1,8,0:0:0:0:
96,24,127885,2,0,L|96:100,1,70
96,128,128119,1,0,0:0:0:0:
96,180,128236,6,8,B|56:204|136:212|96:228|96:228|60:252|136:264|96:280|96:280|64:292|136:312|96:324|96:324|96:348,2,210.000008010865
280,284,128939,38,0,B|312:272|312:272|328:300|328:300|364:284,1,105.000004005432,8|0,0:0|0:0,0:0:0:0:
264,100,129291,2,0,B|232:88|232:88|216:116|216:116|180:100,1,105.000004005432,8|0,0:0|0:0,0:0:0:0:
256,172,129643,5,10,0:0:0:0:
456,116,129877,2,0,B|468:148|468:148|440:164|440:164|456:200,1,105.000004005432,8|0,0:0|0:0,0:0:0:0:
264,280,130228,2,0,B|276:248|276:248|248:232|248:232|264:196,1,105.000004005432,8|0,0:0|0:0,0:0:0:0:
124,40,130580,6,0,B|104:76|160:96|128:120|128:120|88:144|160:168|132:204|132:204|104:232,1,210.000008010865,10|2,0:0|0:0,0:0:0:0:
88,248,130932,1,0,0:0:0:0:
72,280,131049,1,2,0:0:0:0:
72,316,131166,1,2,0:0:0:0:
100,340,131283,1,0,0:0:0:0:
368,260,131518,38,2,L|400:244,8,35
220,24,132455,5,8,0:0:0:0:
252,36,132572,1,0,0:0:0:0:
272,64,132689,1,0,0:0:0:0:
276,100,132807,1,0,0:0:0:0:
256,128,132924,1,8,0:0:0:0:
236,156,133041,1,0,0:0:0:0:
212,184,133158,2,0,L|212:264,1,70,0|8,0:0|0:0,0:0:0:0:
404,340,133510,6,0,P|440:272|448:172,1,140,8|0,0:0|0:0,0:0:0:0:
452,140,133861,2,0,P|408:76|288:72,1,140,8|0,0:0|0:0,0:0:0:0:
280,52,134213,2,0,P|188:72|176:136,1,140,8|0,0:0|0:0,0:0:0:0:
192,172,134564,2,0,P|172:248|100:272,1,140,8|0,0:0|0:0,0:0:0:0:
108,204,134916,2,0,P|48:252|60:332,1,140,8|0,0:0|0:0,0:0:0:0:
148,340,135268,37,8,0:0:0:0:
216,340,135385,1,2,0:0:0:0:
284,340,135502,2,0,L|320:340,4,35
196,148,135971,6,0,P|172:80|172:164,1,210.000008010865
252,244,136439,1,0,0:0:0:0:
392,252,136674,6,0,L|424:184,1,70,8|0,0:0|0:0,0:0:0:0:
352,188,136908,2,0,L|324:112,1,70,8|0,0:0|0:0,0:0:0:0:
388,84,137143,1,8,0:0:0:0:
180,84,137377,1,2,0:0:0:0:
88,192,137611,37,10,0:0:0:0:
108,220,137728,1,8,0:0:0:0:
128,252,137846,1,8,0:0:0:0:
148,280,137963,1,8,0:0:0:0:
168,308,138080,2,0,P|228:352|300:360,1,140,8|0,0:0|0:0,0:0:0:0:
388,172,138549,6,0,L|380:224,7,35
382,206,139018,2,8,P|296:256|208:192,1,210.000008010865
56,340,139721,5,0,0:0:0:0:
56,340,139838,2,0,P|108:300|148:360,1,140,8|0,0:0|0:0,0:0:0:0:
149,345,140189,2,0,B|184:364|184:364|196:324|196:324|256:360,1,140,8|0,0:0|0:0,0:0:0:0:
280,360,140541,1,2,0:0:0:0:
316,356,140658,1,2,0:0:0:0:
344,332,140775,1,0,0:0:0:0:
348,296,140893,38,8,B|308:272|388:264|348:248|348:248|312:224|388:212|348:196|348:196|316:184|388:164|348:152|348:152|348:128,2,210.000008010865
444,332,141478,6,0,L|492:260,1,70,8|0,0:0|0:0,0:0:0:0:
412,268,141713,2,0,L|372:192,1,70,8|2,0:0|0:0,0:0:0:0:
448,200,141947,2,0,L|496:128,1,70,8|0,0:0|0:0,0:0:0:0:
416,136,142182,2,0,L|376:60,1,70,8|2,0:0|0:0,0:0:0:0:
316,56,142416,5,0,0:0:0:0:
292,84,142533,1,2,0:0:0:0:
268,112,142650,1,2,0:0:0:0:
236,128,142768,1,10,0:0:0:0:
200,128,142885,1,2,0:0:0:0:
168,116,143002,1,2,0:0:0:0:
140,92,143119,1,0,0:0:0:0:
120,72,143236,2,8,B|88:128|112:172|112:172|140:220|108:292,1,210.000008010865
324,308,143939,38,0,B|292:296|292:296|276:324|276:324|240:308,1,105.000004005432,8|0,0:0|0:0,0:0:0:0:
440,244,144291,2,0,B|452:212|452:212|424:196|424:196|440:160,1,105.000004005432,8|0,0:0|0:0,0:0:0:0:
268,36,144643,5,10,0:0:0:0:
188,228,144877,2,0,B|200:260|200:260|172:276|172:276|188:312,1,105.000004005432,8|0,0:0|0:0,0:0:0:0:
332,160,145228,2,0,B|300:148|300:148|284:176|284:176|248:160,1,105.000004005432,8|0,0:0|0:0,0:0:0:0:
360,336,145580,6,0,B|324:316|304:372|280:340|280:340|256:300|232:372|196:344|196:344|168:316,1,210.000008010865,8|0,0:0|0:0,0:0:0:0:
156,300,145932,2,0,P|128:256|136:164,1,140,8|0,0:0|0:0,0:0:0:0:
132,170,146283,1,8,0:0:0:0:
316,68,146635,37,8,0:0:0:0:
104,300,146986,1,0,0:0:0:0:
408,212,147338,1,8,0:0:0:0:
100,156,147689,1,0,0:0:0:0:
336,364,148041,1,8,0:0:0:0:
236,64,148393,5,8,0:0:0:0:
168,372,148744,1,0,0:0:0:0:
332,100,149096,2,8,P|332:236|304:96,1,420,8|4,0:0|0:0,0:0:0:0:
88,280,150268,6,0,P|116:308|156:288,1,70,8|0,0:0|0:0,0:0:0:0:
140,232,150502,2,0,P|176:232|188:280,1,70,8|0,0:0|0:0,0:0:0:0:
196,328,150736,2,0,P|268:348|356:328,1,140,8|2,0:0|0:0,0:0:0:0:
332,268,151088,1,2,0:0:0:0:
332,196,151205,38,8,B|356:156|364:236|380:196|380:196|404:160|416:236|432:196|432:196|444:164|464:236|476:196|476:196|500:196,2,210.000008010865,10|8|10,0:0|0:0|0:0,0:0:0:0:
296,196,151791,5,2,0:0:0:0:
260,196,151908,1,2,0:0:0:0:
224,196,152025,1,0,0:0:0:0:
188,196,152143,1,2,0:0:0:0:
152,196,152260,1,2,0:0:0:0:
116,196,152377,6,0,P|92:232|120:264,1,70,8|0,0:0|0:0,0:0:0:0:
136,256,152611,2,0,L|280:256,1,140,8|8,0:0|0:0,0:0:0:0:
400,324,153080,2,0,L|452:276,1,70,8|0,0:0|0:0,0:0:0:0:
432,140,153314,2,0,L|372:196,1,70,8|0,0:0|0:0,0:0:0:0:
320,100,153549,1,8,0:0:0:0:
176,96,153783,38,0,B|152:56|144:136|128:96|128:96|104:60|92:136|76:96|76:96|64:64|44:136|32:96|32:96|8:96,1,210.000008010865,8|10,0:0|0:0,0:0:0:0:
84,184,154135,2,0,L|24:232,2,70,2|2|2,0:0|0:0|0:0,0:0:0:0:
184,212,154486,5,8,0:0:0:0:
212,236,154603,1,8,0:0:0:0:
240,260,154721,1,8,0:0:0:0:
268,284,154838,1,8,0:0:0:0:
296,304,154955,2,2,L|320:324,8,17.5
428,140,155424,5,8,0:0:0:0:
236,52,155658,1,0,0:0:0:0:
80,196,155893,1,0,0:0:0:0:
92,228,156010,2,0,P|136:304|200:332,1,140,8|0,0:0|0:0,0:0:0:0:
216,332,156361,2,0,P|292:320|360:268,1,140,8|0,0:0|0:0,0:0:0:0:
364,260,156713,1,8,0:0:0:0:
364,224,156830,38,0,P|257:218|300:248,1,280,8|0,0:0|0:0,0:0:0:0:
264,236,157357,2,0,L|276:272,3,35
152,204,157768,6,0,L|108:124,1,70,8|0,0:0|0:0,0:0:0:0:
208,36,158002,2,0,L|248:104,1,70,8|0,0:0|0:0,0:0:0:0:
340,60,158236,2,0,P|412:104|424:168,3,140,8|8|8|8,0:0|0:0|0:0|0:0,0:0:0:0:
372,284,159174,5,10,0:0:0:0:
340,292,159291,1,2,0:0:0:0:
304,300,159408,1,2,0:0:0:0:
268,308,159525,1,0,0:0:0:0:
196,308,159643,1,10,0:0:0:0:
160,300,159760,1,2,0:0:0:0:
124,292,159877,1,0,0:0:0:0:
92,284,159994,1,2,0:0:0:0:
96,216,160111,38,0,B|92:188|108:160|108:160|152:152|152:152|152:96|152:96|180:80|212:80,2,210.000008010865,10|8|10,0:0|0:0|0:0,0:0:0:0:
164,228,160697,2,0,L|232:196,1,70,10|0,0:0|0:0,0:0:0:0:
264,260,160932,2,0,L|332:224,1,70,10|0,0:0|0:0,0:0:0:0:
396,108,161283,1,10,0:0:0:0:
192,52,161518,5,10,0:0:0:0:
208,84,161635,1,2,0:0:0:0:
224,116,161752,1,2,0:0:0:0:
240,148,161869,1,2,0:0:0:0:
256,176,161986,2,0,L|276:212,7,35
272,206,162455,6,0,P|324:264|396:288,1,140,8|0,0:0|0:0,0:0:0:0:
416,280,162807,1,0,0:0:0:0:
436,252,162924,1,2,0:0:0:0:
444,216,163041,1,2,0:0:0:0:
432,184,163158,1,0,0:0:0:0:
412,156,163275,1,2,0:0:0:0:
256,192,163393,12,0,164564,0:0:0:0:
56,36,164799,38,0,L|100:36,3,35
56,36,165033,2,0,L|57:80,3,35
56,36,165268,5,10,0:0:0:0:
336,36,165502,1,0,0:0:0:0:
188,272,165736,1,10,0:0:0:0:
464,212,165971,1,0,0:0:0:0:
196,128,166205,1,10,0:0:0:0:
352,268,166439,5,2,0:0:0:0:
352,232,166557,1,2,0:0:0:0:
352,196,166674,1,8,0:0:0:0:
308,140,166791,1,2,0:0:0:0:
272,140,166908,1,0,0:0:0:0:
236,140,167025,1,0,0:0:0:0:
164,140,167143,2,0,P|140:208|192:280,1,140,8|0,0:0|0:0,0:0:0:0:
376,76,167611,37,8,0:0:0:0:
396,104,167728,1,8,0:0:0:0:
420,132,167846,1,8,0:0:0:0:
440,160,167963,1,8,0:0:0:0:
464,188,168080,2,0,P|484:260|448:320,1,140,8|0,0:0|0:0,0:0:0:0:
260,332,168549,2,0,L|224:332,7,35
188,324,169018,6,8,B|136:284|141:235|141:235|148:179|90:126,1,210.000008010865,8|0,0:0|0:0,0:0:0:0:
236,56,169721,1,0,0:0:0:0:
236,56,169838,2,0,P|296:40|364:80,1,140,8|0,0:0|0:0,0:0:0:0:
384,104,170189,2,0,P|420:184|404:248,1,140,8|0,0:0|0:0,0:0:0:0:
308,252,170541,6,0,L|336:332,1,70,8|0,0:0|0:0,0:0:0:0:
240,268,170775,1,8,0:0:0:0:
168,192,170893,38,8,B|179:146|117:197|134:158|134:158|142:115|80:160|97:121|97:121|111:90|46:126|66:90|66:90|49:73,2,210.000008010865,10|10|10,0:0|0:0|0:0,0:0:0:0:
224,232,171478,5,2,0:0:0:0:
252,252,171596,1,2,0:0:0:0:
288,256,171713,1,0,0:0:0:0:
320,244,171830,1,10,0:0:0:0:
372,196,171947,5,2,0:0:0:0:
392,168,172064,1,2,0:0:0:0:
408,136,172182,1,0,0:0:0:0:
408,100,172299,1,10,0:0:0:0:
364,48,172416,38,0,L|296:32,1,70,2|2,0:0|0:0,0:0:0:0:
224,32,172650,2,0,L|156:48,1,70,0|10,0:0|0:0,0:0:0:0:
88,68,172885,2,0,L|56:144,1,70,2|2,0:0|0:0,0:0:0:0:
132,140,173119,1,0,0:0:0:0:
144,208,173236,2,0,P|160:276|192:188,1,210.000008010865,8|0,0:0|0:0,0:0:0:0:
424,160,173939,6,0,B|436:192|436:192|408:208|408:208|424:244,1,105.000004005432,8|0,0:0|0:0,0:0:0:0:
212,252,174291,2,0,B|224:220|224:220|196:204|196:204|212:168,1,105.000004005432,8|0,0:0|0:0,0:0:0:0:
340,336,174643,5,10,0:0:0:0:
132,320,174877,2,0,B|100:332|100:332|84:304|84:304|48:320,1,105.000004005432,8|0,0:0|0:0,0:0:0:0:
68,112,175228,2,0,B|100:100|100:100|116:128|116:128|152:112,1,105.000004005432,8|0,0:0|0:0,0:0:0:0:
316,384,175580,38,0,B|336:348|280:328|312:303|312:303|352:280|280:256|308:220|308:220|336:192,1,210.000008010865,8|0,0:0|0:0,0:0:0:0:
300,96,175932,2,0,P|368:76|424:136,1,140,8|0,0:0|0:0,0:0:0:0:
428,148,176283,1,8,0:0:0:0:
220,120,176635,6,0,P|160:64|96:160,2,210,8|0|8,0:0|0:0|0:0,0:0:0:0:
112,300,177689,6,0,P|172:356|236:260,3,210,8|8|8|0,0:0|0:0|0:0|0:0,0:0:0:0:
448,316,179096,38,0,P|480:252|420:328,1,420,8|4,0:0|0:0,0:0:0:0:
76,60,180268,5,0,0:0:0:0:
256,192,192455,12,2,195033,0:0:0:0:
184,120,195268,5,2,0:0:0:0:
332,268,195619,1,2,0:0:0:0:
136,192,195971,1,2,0:0:0:0:
344,192,196322,1,2,0:0:0:0:
148,268,196674,2,0,P|176:308|212:328,2,70,2|0|2,0:0|0:0|0:0,0:0:0:0:
296,120,197494,37,2,0:0:0:0:
88,140,197846,2,0,P|80:176|88:236,1,70,0|2,0:0|0:0,0:0:0:0:
256,92,198432,1,2,0:0:0:0:
460,140,198783,2,0,P|468:176|460:236,1,70,0|2,0:0|0:0,0:0:0:0:
256,228,199369,5,2,0:0:0:0:
256,20,199720,1,2,0:0:0:0:
256,228,200072,1,2,0:0:0:0:
48,192,200424,2,0,L|96:132,2,70,2|0|2,0:0|0:0|0:0,0:0:0:0:
256,152,201244,5,2,0:0:0:0:
256,364,201596,1,2,0:0:0:0:
256,152,201947,1,2,0:0:0:0:
464,192,202299,2,0,L|416:132,2,70,2|0|2,0:0|0:0|0:0,0:0:0:0:
280,292,203119,37,2,0:0:0:0:
240,84,203471,1,2,0:0:0:0:
200,288,203822,1,2,0:0:0:0:
308,108,204174,2,0,P|344:136|344:168,2,70,2|0|2,0:0|0:0|0:0,0:0:0:0:
100,72,204994,5,2,0:0:0:0:
132,280,205346,2,0,P|184:312|212:304,1,70,0|2,0:0|0:0,0:0:0:0:
396,280,205932,1,2,0:0:0:0:
456,80,206283,2,0,P|408:60|364:64,1,70,0|2,0:0|0:0,0:0:0:0:
188,108,206869,5,2,0:0:0:0:
332,260,207220,1,2,0:0:0:0:
332,48,207572,1,2,0:0:0:0:
248,180,207924,2,0,L|206:236,2,70,2|0|2,0:0|0:0|0:0,0:0:0:0:
84,48,208744,37,2,0:0:0:0:
84,260,209096,1,2,0:0:0:0:
84,48,209447,1,2,0:0:0:0:
292,64,209799,2,0,P|340:84|348:112,1,70,0|2,0:0|0:0,0:0:0:0:
428,292,210268,6,0,B|396:340|336:220|280:292|280:292|200:356|200:228|88:288,1,315.000012016297,4|0,0:0|0:0,0:0:0:0:
80,252,210736,6,0,P|56:180|140:64,1,210,8|0,0:0|0:0,0:0:0:0:
121,71,211205,1,8,0:0:0:0:
332,72,211439,1,0,0:0:0:0:
120,72,211674,1,8,0:0:0:0:
256,232,211908,1,0,0:0:0:0:
464,192,212143,38,0,P|436:268|320:336,1,210,8|0,0:0|0:0,0:0:0:0:
260,344,212611,2,0,P|144:344|52:276,1,210,8|0,0:0|0:0,0:0:0:0:
67,294,213080,1,8,0:0:0:0:
220,152,213314,1,0,0:0:0:0:
68,296,213549,1,8,0:0:0:0:
264,220,213783,1,0,0:0:0:0:
124,64,214018,6,0,P|232:28|344:84,1,210,8|0,0:0|0:0,0:0:0:0:
380,92,214486,2,0,P|436:192|392:280,1,210,8|0,0:0|0:0,0:0:0:0:
352,324,214955,2,0,B|288:371|240:291|124:379,1,210,8|0,0:0|0:0,0:0:0:0:
150,362,215424,1,8,0:0:0:0:
64,172,215658,1,0,0:0:0:0:
272,192,215893,6,0,B|372:168|372:168|268:136,1,210,8|0,0:0|0:0,0:0:0:0:
164,132,216361,2,0,B|140:32|140:32|108:136,1,210,8|0,0:0|0:0,0:0:0:0:
108,240,216830,2,0,B|139:342|139:342|163:242,1,210,8|0,0:0|0:0,0:0:0:0:
163,242,217299,1,8,0:0:0:0:
368,288,217533,1,0,0:0:0:0:
364,76,217768,38,0,P|268:56|136:88,1,210,8|0,0:0|0:0,0:0:0:0:
84,148,218236,2,0,P|48:236|128:344,1,210,8|0,0:0|0:0,0:0:0:0:
100,330,218705,1,8,0:0:0:0:
256,96,218939,1,0,0:0:0:0:
408,332,219174,1,8,0:0:0:0:
256,96,219408,1,0,0:0:0:0:
408,332,219643,6,0,P|444:248|408:136,1,210,8|0,0:0|0:0,0:0:0:0:
328,72,220111,2,0,P|240:44|112:92,1,210,8|0,0:0|0:0,0:0:0:0:
130,76,220580,1,8,0:0:0:0:
344,256,220814,2,0,P|276:292|204:280,2,140,0|8|0,0:0|0:0|0:0,0:0:0:0:
64,300,221518,6,0,P|112:204|196:236,1,210,8|0,0:0|0:0,0:0:0:0:
256,316,221986,2,0,P|350:336|384:246,1,210,8|0,0:0|0:0,0:0:0:0:
340,148,222455,2,0,P|388:52|472:84,1,210,8|0,0:0|0:0,0:0:0:0:
468,78,222924,1,8,0:0:0:0:
332,324,223158,1,0,0:0:0:0:
88,188,223393,38,0,B|124:52|124:52|196:32,1,210,8|0,0:0|0:0,0:0:0:0:
296,32,223861,2,0,B|362:50|362:50|398:186,1,210,8|0,0:0|0:0,0:0:0:0:
348,280,224330,2,0,L|132:280,1,210,8|0,0:0|0:0,0:0:0:0:
138,280,224799,1,8,0:0:0:0:
256,28,225033,1,0,0:0:0:0:
444,120,225268,5,14,0:0:0:0:
444,188,225502,1,0,0:0:0:0:
448,256,225736,1,10,0:0:0:0:
448,328,225971,1,0,0:0:0:0:
380,328,226205,1,10,0:0:0:0:
380,260,226439,1,0,0:0:0:0:
308,260,226674,1,10,0:0:0:0:
308,328,226908,1,10,0:0:0:0:
68,120,227143,5,14,0:0:0:0:
68,188,227377,1,0,0:0:0:0:
64,256,227611,1,10,0:0:0:0:
64,328,227846,1,0,0:0:0:0:
132,328,228080,1,10,0:0:0:0:
132,260,228314,1,0,0:0:0:0:
204,260,228549,1,10,0:0:0:0:
204,328,228783,1,10,0:0:0:0:
256,52,229017,37,14,0:0:0:0:
256,120,229251,1,0,0:0:0:0:
256,192,229486,1,10,0:0:0:0:
324,192,229720,1,0,0:0:0:0:
256,192,229954,1,10,0:0:0:0:
256,264,230189,1,0,0:0:0:0:
256,332,230423,1,10,0:0:0:0:
256,264,230657,1,10,0:0:0:0:
256,332,230892,5,14,0:0:0:0:
256,264,231126,1,0,0:0:0:0:
256,192,231360,1,10,0:0:0:0:
184,192,231596,1,0,0:0:0:0:
256,192,231830,1,10,0:0:0:0:
256,124,232064,1,0,0:0:0:0:
256,52,232299,1,10,0:0:0:0:
256,124,232533,1,10,0:0:0:0:
160,24,232768,5,14,0:0:0:0:
128,40,232885,1,0,0:0:0:0:
104,64,233002,1,0,0:0:0:0:
88,96,233119,1,0,0:0:0:0:
80,132,233236,1,10,0:0:0:0:
80,168,233353,1,0,0:0:0:0:
80,204,233470,1,0,0:0:0:0:
84,240,233588,1,0,0:0:0:0:
100,272,233705,2,0,P|120:308|168:340,3,70,10|0|0|0,0:0|0:0|0:0|0:0,0:0:0:0:
172,344,234174,2,0,P|204:360|244:364,3,70,10|0|0|0,0:0|0:0|0:0|0:0,0:0:0:0:
284,344,234643,54,0,L|256:320,7,35
232,256,235111,6,0,L|256:228,7,35
284,164,235580,54,0,L|256:140,7,35
232,76,236049,6,0,L|256:48,7,35
256,192,236518,12,8,238041,0:0:0:0:
416,76,238393,37,2,0:0:0:0:
428,108,238510,1,2,0:0:0:0:
436,144,238627,1,2,0:0:0:0:
436,180,238744,1,0,0:0:0:0:
432,216,238861,1,2,0:0:0:0:
420,248,238978,1,0,0:0:0:0:
396,272,239095,1,2,0:0:0:0:
360,280,239213,1,2,0:0:0:0:
324,280,239330,6,0,L|248:316,1,70,0|2,0:0|0:0,0:0:0:0:
236,208,239564,2,0,L|160:244,1,70,2|2,0:0|0:0,0:0:0:0:
96,168,239799,5,8,0:0:0:0:
108,136,239916,1,8,0:0:0:0:
132,112,240033,1,8,0:0:0:0:
164,96,240150,1,8,0:0:0:0:
200,96,240268,2,8,B|256:148|256:64|256:64|344:140,2,210.000008010865,8|8|12,0:0|0:0|0:0,0:0:0:0:
160,232,240971,37,0,0:0:0:0:
260,332,241205,1,8,0:0:0:0:
368,244,241439,2,0,L|408:176,1,70,0|2,0:0|0:0,0:0:0:0:
300,164,241674,2,0,L|256:232,1,70,10|0,0:0|0:0,0:0:0:0:
196,140,241908,2,0,L|236:72,1,70,10|0,0:0|0:0,0:0:0:0:
128,88,242143,2,0,P|68:168|80:244,1,140,10|0,0:0|0:0,0:0:0:0:
264,280,242611,6,0,L|304:284,8,35
136,220,243314,1,0,0:0:0:0:
192,92,243549,6,8,P|288:68|360:152,2,210.000008010865
172,232,244721,37,0,0:0:0:0:
172,232,244838,2,0,P|232:304|260:268,1,140,8|0,0:0|0:0,0:0:0:0:
272,232,245189,2,0,P|340:207|340:267,1,140,8|0,0:0|0:0,0:0:0:0:
284,336,245541,2,0,L|196:336,1,70,8|0,0:0|0:0,0:0:0:0:
152,308,245775,1,0,0:0:0:0:
112,252,245893,6,8,B|152:228|72:220|112:204|112:204|148:180|72:168|112:152|112:152|144:140|72:120|112:108|112:108|112:84,2,210.000008010865
216,244,246478,6,0,L|260:168,1,70,10|2,0:0|0:0,0:0:0:0:
164,124,246713,2,0,L|136:44,1,70,10|0,0:0|0:0,0:0:0:0:
244,52,246947,2,0,L|312:100,1,70,10|2,0:0|0:0,0:0:0:0:
340,192,247182,2,0,L|292:256,1,70,10|0,0:0|0:0,0:0:0:0:
244,336,247416,38,0,L|348:332,1,70,10|2,0:0|0:0,0:0:0:0:
348,320,247650,1,0,0:0:0:0:
376,296,247768,1,2,0:0:0:0:
384,264,247885,1,0,0:0:0:0:
376,228,248002,1,0,0:0:0:0:
352,200,248119,1,2,0:0:0:0:
320,184,248236,6,8,B|326:137|269:194|282:153|282:153|286:110|229:162|242:121|242:121|253:88|192:132|208:93|208:93|189:78,2,210.000008010865
172,264,248939,6,0,B|140:252|140:252|124:280|124:280|88:264,1,105.000004005432,8|0,0:0|0:0,0:0:0:0:
96,96,249291,2,0,B|128:84|128:84|144:112|144:112|180:96,1,105.000004005432,8|0,0:0|0:0,0:0:0:0:
336,36,249643,37,10,0:0:0:0:
420,180,249877,2,0,B|432:212|432:212|404:228|404:228|420:264,1,105.000004005432,8|0,0:0|0:0,0:0:0:0:
252,268,250228,2,0,B|264:236|264:236|236:220|236:220|252:184,1,105.000004005432,8|0,0:0|0:0,0:0:0:0:
88,144,250580,6,0,B|68:180|124:200|92:224|92:224|52:248|124:272|96:308|96:308|68:336,1,210.000008010865,0|2,0:0|0:0,0:0:0:0:
144,356,250932,2,0,L|236:356,1,70,2|0,0:0|0:0,0:0:0:0:
284,356,251166,2,0,L|392:356,1,70,2|0,0:0|0:0,0:0:0:0:
372,148,251518,6,2,L|388:192,8,35
344,128,252103,1,0,0:0:0:0:
312,112,252221,1,0,0:0:0:0:
276,108,252338,1,0,0:0:0:0:
240,112,252455,38,0,L|156:164,1,70,8|0,0:0|0:0,0:0:0:0:
140,244,252689,2,0,L|192:324,1,70,8|0,0:0|0:0,0:0:0:0:
280,328,252924,2,0,L|356:280,1,70,8|0,0:0|0:0,0:0:0:0:
360,188,253158,2,0,L|304:124,1,70,8|0,0:0|0:0,0:0:0:0:
112,72,253510,6,0,P|68:124|112:168,1,140,8|0,0:0|0:0,0:0:0:0:
120,236,253861,2,0,P|148:304|228:284,1,140,8|0,0:0|0:0,0:0:0:0:
276,312,254213,2,0,P|336:328|376:264,1,140,8|0,0:0|0:0,0:0:0:0:
420,216,254564,2,0,P|460:176|416:116,1,140,8|0,0:0|0:0,0:0:0:0:
364,72,254916,2,0,P|304:40|224:80,1,140,8|0,0:0|0:0,0:0:0:0:
172,144,255267,5,2,0:0:0:0:
152,212,255385,1,2,0:0:0:0:
136,280,255502,2,2,L|124:320,4,35
344,308,255971,38,0,P|428:276|360:256,1,210.000008010865,8|0,0:0|0:0,0:0:0:0:
256,172,256439,1,0,0:0:0:0:
80,56,256674,6,0,L|56:124,1,70,10|2,0:0|0:0,0:0:0:0:
104,176,256908,1,10,0:0:0:0:
156,224,257025,2,0,L|176:312,1,70,0|8,0:0|0:0,0:0:0:0:
280,112,257377,1,0,0:0:0:0:
428,260,257611,5,8,0:0:0:0:
428,260,257728,1,8,0:0:0:0:
428,260,257846,1,8,0:0:0:0:
428,260,257963,1,8,0:0:0:0:
428,260,258080,2,0,P|376:320|264:332,1,140,8|0,0:0|0:0,0:0:0:0:
144,224,258549,38,0,L|128:260,7,35
144,224,259018,2,8,P|216:152|336:168,1,210.000008010865
432,76,259721,5,0,0:0:0:0:
432,76,259838,2,0,P|352:44|264:52,1,140,8|0,0:0|0:0,0:0:0:0:
228,44,260189,2,0,P|144:60|96:108,1,140,8|2,0:0|0:0,0:0:0:0:
88,124,260541,1,2,0:0:0:0:
80,160,260658,1,0,0:0:0:0:
84,196,260775,1,2,0:0:0:0:
96,228,260893,6,8,B|75:270|147:234|122:269|122:269|105:308|175:277|150:312|150:312|130:340|201:317|174:349|174:349|187:369,2,210.000008010865,8|8|10,0:0|0:0|0:0,0:0:0:0:
168,152,261478,38,0,L|232:104,1,70,2|2,0:0|0:0,0:0:0:0:
236,216,261713,2,0,L|304:248,1,70,2|2,0:0|0:0,0:0:0:0:
332,260,261947,1,2,0:0:0:0:
364,272,262064,1,0,0:0:0:0:
396,284,262182,1,2,0:0:0:0:
456,248,262299,5,2,0:0:0:0:
456,212,262416,1,2,0:0:0:0:
456,176,262533,1,0,0:0:0:0:
456,140,262650,1,2,0:0:0:0:
372,72,262768,6,0,L|304:124,1,70,2|2,0:0|0:0,0:0:0:0:
212,124,263002,2,0,L|240:48,1,70,2|2,0:0|0:0,0:0:0:0:
132,68,263236,2,8,B|100:124|124:168|124:168|152:216|120:288,1,210.000008010865
328,328,263939,38,0,B|360:316|360:316|376:344|376:344|412:328,1,105.000004005432,8|0,0:0|0:0,0:0:0:0:
264,180,264291,2,0,B|276:212|276:212|248:228|248:228|264:264,1,105.000004005432,8|0,0:0|0:0,0:0:0:0:
396,100,264643,5,10,0:0:0:0:
208,12,264877,2,0,B|220:44|220:44|192:60|192:60|208:96,1,105.000004005432,8|0,0:0|0:0,0:0:0:0:
20,184,265228,2,0,B|52:196|52:196|68:168|68:168|104:184,1,105.000004005432,8|0,0:0|0:0,0:0:0:0:
280,296,265580,6,0,B|244:276|224:332|200:300|200:300|176:260|152:332|116:304|116:304|88:276,1,210.000008010865,8|2,0:0|0:0,0:0:0:0:
88,252,265932,1,2,0:0:0:0:
92,216,266049,1,0,0:0:0:0:
100,180,266166,1,0,0:0:0:0:
124,152,266283,1,2,0:0:0:0:
404,296,266635,37,8,0:0:0:0:
180,76,266986,1,0,0:0:0:0:
324,356,267338,1,8,0:0:0:0:
104,132,267689,1,0,0:0:0:0:
420,128,268040,1,8,0:0:0:0:
184,336,268392,5,8,0:0:0:0:
332,56,268744,1,0,0:0:0:0:
56,208,269096,2,0,P|64:296|92:176,1,420,8|4,0:0|0:0,0:0:0:0:
368,76,270268,5,8,0:0:0:0:
388,104,270385,1,0,0:0:0:0:
328,140,270502,1,0,0:0:0:0:
312,172,270619,1,0,0:0:0:0:
356,224,270736,1,8,0:0:0:0:
172,328,270971,2,0,L|144:256,1,70,8|0,0:0|0:0,0:0:0:0:
120,196,271205,38,8,B|150:159|71:176|105:149|105:149|131:115|55:127|88:100|88:100|116:78|40:82|75:58|75:58|67:35,2,210.000008010865,8|8|10,0:0|0:0|0:0,0:0:0:0:
152,212,271791,5,2,0:0:0:0:
184,220,271908,1,0,0:0:0:0:
196,152,272025,1,0,0:0:0:0:
220,128,272143,2,0,L|272:68,1,70,10|2,0:0|0:0,0:0:0:0:
404,72,272494,1,0,0:0:0:0:
404,140,272611,6,8,B|445:163|365:174|405:189|405:189|442:211|366:225|407:240|407:240|440:251|368:273|409:284|409:284|409:308,2,210.000008010865,8|8|10,0:0|0:0|0:0,0:0:0:0:
312,84,273197,38,0,L|228:40,1,70,2|0,0:0|0:0,0:0:0:0:
152,92,273432,2,0,L|136:24,1,70,2|2,0:0|0:0,0:0:0:0:
72,156,273783,6,8,B|113:179|33:190|73:205|73:205|110:227|34:241|75:256|75:256|108:267|36:289|77:300|77:300|77:324,1,210.000008010865,8|10,0:0|0:0,0:0:0:0:
144,280,274135,2,0,L|204:232,1,70,2|0,0:0|0:0,0:0:0:0:
232,300,274369,1,0,0:0:0:0:
336,276,274486,5,8,0:0:0:0:
336,276,274603,1,8,0:0:0:0:
336,276,274721,1,8,0:0:0:0:
336,276,274838,1,8,0:0:0:0:
336,276,274955,2,0,L|360:268,8,17.5
432,88,275424,38,8,P|376:56|288:72,2,140
448,120,276010,1,0,0:0:0:0:
448,156,276127,1,0,0:0:0:0:
432,188,276244,1,0,0:0:0:0:
408,216,276361,1,8,0:0:0:0:
216,304,276596,5,8,0:0:0:0:
188,284,276713,1,0,0:0:0:0:
164,260,276830,2,0,P|108:144|212:56,1,280,8|0,0:0|0:0,0:0:0:0:
224,56,277357,2,0,L|260:56,3,35
400,60,277768,5,10,0:0:0:0:
400,96,277885,1,2,0:0:0:0:
332,96,278002,1,0,0:0:0:0:
332,132,278119,1,2,0:0:0:0:
264,136,278236,2,8,P|184:168|160:220,3,140,10|8|8|8,0:0|0:0|0:0|0:0,0:0:0:0:
336,328,279174,38,0,L|392:272,1,70,8|0,0:0|0:0,0:0:0:0:
284,244,279408,2,0,L|232:292,1,70,8|0,0:0|0:0,0:0:0:0:
128,296,279643,1,8,0:0:0:0:
128,296,279760,2,0,P|84:232|104:136,1,140,8|0,0:0|0:0,0:0:0:0:
188,152,280111,6,8,B|233:164|184:100|223:118|223:118|265:128|221:65|260:83|260:83|291:98|256:32|293:53|293:53|310:36,2,210.000008010865,8|8|10,0:0|0:0|0:0,0:0:0:0:
192,224,280697,1,2,0:0:0:0:
228,224,280814,1,0,0:0:0:0:
264,224,280932,1,0,0:0:0:0:
300,224,281049,1,2,0:0:0:0:
428,168,281283,6,8,B|469:191|389:202|429:217|429:217|466:239|390:253|431:268|431:268|464:279|392:301|433:312|433:312|433:336,1,210.000008010865,8|10,0:0|0:0,0:0:0:0:
372,348,281635,38,2,L|276:348,1,70
268,348,281869,1,2,0:0:0:0:
232,348,281986,2,2,L|196:348,8,35
56,232,282689,2,0,L|104:180,1,70,8|0,0:0|0:0,0:0:0:0:
20,116,282924,2,0,L|76:56,1,70,8|0,0:0|0:0,0:0:0:0:
132,40,283158,1,8,0:0:0:0:
200,36,283275,1,0,0:0:0:0:
256,192,283393,12,2,284564,0:0:0:0:
408,88,284799,6,0,L|440:116,3,35
408,88,285033,2,0,L|368:128,3,35
408,88,285268,5,10,0:0:0:0:
280,256,285502,1,0,0:0:0:0:
152,88,285736,1,10,0:0:0:0:
24,256,285971,1,0,0:0:0:0:
152,88,286205,1,10,0:0:0:0:
360,88,286439,37,2,0:0:0:0:
360,124,286557,1,2,0:0:0:0:
420,208,286674,2,0,L|340:264,1,70,10|0,0:0|0:0,0:0:0:0:
332,268,286908,1,0,0:0:0:0:
304,288,287025,1,0,0:0:0:0:
276,308,287143,2,0,P|168:312|152:216,1,210,8|2,0:0|0:0,0:0:0:0:
184,132,287611,5,8,0:0:0:0:
184,132,287728,1,8,0:0:0:0:
184,132,287846,1,8,0:0:0:0:
184,132,287963,1,8,0:0:0:0:
184,132,288080,2,0,P|276:84|372:132,1,210,8|0,0:0|0:0,0:0:0:0:
400,224,288549,2,2,L|412:272,7,35
400,224,289018,6,8,P|344:148|224:112,1,210.000008010865
96,268,289721,1,0,0:0:0:0:
96,268,289838,2,0,P|176:320|248:280,1,140,8|0,0:0|0:0,0:0:0:0:
268,260,290189,2,0,B|288:241|321:238|321:238|352:292|352:292|398:239|398:239|420:216|424:212,1,210.000008010865,8|0,0:0|0:0,0:0:0:0:
364,132,290541,2,0,L|332:64,1,70,8|0,0:0|0:0,0:0:0:0:
300,68,290775,1,0,0:0:0:0:
264,68,290893,38,8,B|240:28|232:108|216:68|216:68|192:32|180:108|164:68|164:68|152:36|132:108|120:68|120:68|96:68,2,210.000008010865
180,132,291478,6,0,L|132:208,1,70,10|0,0:0|0:0,0:0:0:0:
104,288,291713,2,0,L|192:300,1,70,10|2,0:0|0:0,0:0:0:0:
276,276,291947,2,0,L|200:248,1,70,10|0,0:0|0:0,0:0:0:0:
128,184,292182,2,0,L|212:192,1,70,10|2,0:0|0:0,0:0:0:0:
268,112,292416,6,0,L|252:192,1,70,10|2,0:0|0:0,0:0:0:0:
328,104,292650,2,0,L|340:8,1,70,10|2,0:0|0:0,0:0:0:0:
384,128,292885,2,0,L|384:212,1,70,8|0,0:0|0:0,0:0:0:0:
384,232,293119,1,0,0:0:0:0:
384,268,293236,38,8,P|376:348|344:272,1,210.000008010865
232,96,293939,6,0,B|244:64|244:64|216:48|216:48|232:12,1,105.000004005432,8|0,0:0|0:0,0:0:0:0:
176,216,294291,2,0,B|188:248|188:248|160:264|160:264|176:300,1,105.000004005432,8|0,0:0|0:0,0:0:0:0:
304,132,294643,5,10,0:0:0:0:
304,340,294877,2,0,B|336:352|336:352|352:324|352:324|388:340,1,105.000004005432,8|0,0:0|0:0,0:0:0:0:
188,280,295228,2,0,B|156:268|156:268|140:296|140:296|104:280,1,105.000004005432,8|0,0:0|0:0,0:0:0:0:
104,68,295580,38,0,B|140:88|160:32|185:64|185:64|208:104|232:32|268:60|268:60|296:88,1,210.000008010865,8|0,0:0|0:0,0:0:0:0:
328,136,295932,2,0,P|376:192|384:276,1,140,8|0,0:0|0:0,0:0:0:0:
387,255,296283,1,8,0:0:0:0:
72,232,296635,5,8,0:0:0:0:
368,124,296986,1,0,0:0:0:0:
116,312,297338,1,8,0:0:0:0:
408,196,297689,1,0,0:0:0:0:
104,112,298041,6,0,P|156:40|268:72,2,210,8|8|0,0:0|0:0|0:0,0:0:0:0:
384,204,299096,2,0,P|480:276|352:224,1,420,8|4,0:0|0:0,0:0:0:0:
120,68,300268,5,12,0:0:0:0:
260,68,300502,2,0,L|344:68,2,70,0|2|2,0:0|0:0|0:0,0:0:0:0:
256,208,300971,1,0,0:0:0:0:
260,68,301205,1,8,0:0:0:0:
256,208,301439,1,0,0:0:0:0:
256,244,301557,1,2,0:0:0:0:
256,280,301674,1,2,0:0:0:0:
420,52,302143,5,8,0:0:0:0:
420,192,302377,1,0,0:0:0:0:
408,224,302494,1,2,0:0:0:0:
380,244,302611,1,2,0:0:0:0:
248,288,302846,1,0,0:0:0:0:
144,196,303080,1,8,0:0:0:0:
88,68,303314,2,0,L|56:144,1,70,0|2,0:0|0:0,0:0:0:0:
44,200,303549,6,8,B|44:352|44:352|192:292|188:228|64:180,1,420.000016021729
196,112,304252,37,0,0:0:0:0:
232,112,304369,1,2,0:0:0:0:
268,112,304486,1,2,0:0:0:0:
392,44,304721,1,0,0:0:0:0:
392,184,304955,1,8,0:0:0:0:
320,64,305189,2,0,L|256:32,2,70,0|2|2,0:0|0:0|0:0,0:0:0:0:
40,88,305893,5,8,0:0:0:0:
180,88,306127,1,0,0:0:0:0:
200,116,306244,1,2,0:0:0:0:
220,144,306361,1,2,0:0:0:0:
340,220,306596,1,0,0:0:0:0:
200,208,306830,6,0,L|200:368,1,140,8|0,0:0|0:0,0:0:0:0:
304,340,307299,2,8,B|216:276|216:276|316:248,1,210.000008010865
388,128,308002,38,0,L|388:52,2,70,0|2|2,0:0|0:0|0:0,0:0:0:0:
256,76,308471,1,0,0:0:0:0:
124,124,308705,1,8,0:0:0:0:
256,76,308939,2,0,L|256:0,2,70,0|0|2,0:0|0:0|0:0,0:0:0:0:
416,308,309643,6,0,P|356:264|288:292,1,140,8|0,0:0|0:0,0:0:0:0:
240,320,309994,1,2,0:0:0:0:
176,352,310111,2,0,P|112:356|52:292,1,140,2|0,0:0|0:0,0:0:0:0:
56,168,310580,1,8,0:0:0:0:
172,88,310814,1,0,0:0:0:0:
196,112,310932,1,2,0:0:0:0:
216,140,311049,6,8,B|260:208|304:200|304:200|284:148|304:104|304:104|372:140|384:208|384:208|392:256|332:288,1,420.000016021729
200,276,311752,38,0,L|116:292,2,70,0|2|2,0:0|0:0|0:0,0:0:0:0:
124,156,312221,1,0,0:0:0:0:
200,40,312455,1,8,0:0:0:0:
332,88,312689,2,0,L|400:116,2,70,0|2|2,0:0|0:0|0:0,0:0:0:0:
144,296,313393,5,8,0:0:0:0:
284,296,313627,1,0,0:0:0:0:
316,280,313744,1,2,0:0:0:0:
336,252,313861,1,2,0:0:0:0:
336,112,314096,1,0,0:0:0:0:
196,112,314330,6,2,L|160:112,7,35
196,112,314799,2,8,P|152:180|224:152,1,210.000008010865,8|12,0:0|0:0,0:0:0:0:
256,288,315502,37,0,0:0:0:0:
288,272,315619,1,2,0:0:0:0:
320,256,315736,1,2,0:0:0:0:
320,116,315971,1,0,0:0:0:0:
180,116,316205,1,8,0:0:0:0:
180,256,316439,1,0,0:0:0:0:
212,272,316557,1,2,0:0:0:0:
244,288,316674,1,2,0:0:0:0:
428,76,317143,5,8,0:0:0:0:
428,216,317377,2,0,L|428:304,2,70,0|2|2,0:0|0:0|0:0,0:0:0:0:
320,128,317846,1,0,0:0:0:0:
212,216,318080,1,8,0:0:0:0:
112,116,318314,2,0,L|112:40,2,70,0|2|2,0:0|0:0|0:0,0:0:0:0:
112,256,318783,1,0,0:0:0:0:
232,332,319018,53,8,0:0:0:0:
364,288,319252,2,0,L|432:344,2,70,0|2|2,0:0|0:0|0:0,0:0:0:0:
352,148,319721,1,0,0:0:0:0:
232,224,319955,1,8,0:0:0:0:
228,84,320189,2,0,L|256:16,2,70,0|2|2,0:0|0:0|0:0,0:0:0:0:
388,316,320893,5,8,0:0:0:0:
324,192,321127,1,0,0:0:0:0:
300,216,321244,1,2,0:0:0:0:
272,236,321361,1,2,0:0:0:0:
140,192,321596,1,0,0:0:0:0:
256,116,321830,1,8,0:0:0:0:
120,84,322064,2,0,L|48:56,2,70,0|2|2,0:0|0:0|0:0,0:0:0:0:
400,84,322768,54,0,P|436:172|420:228,1,140,12|0,0:0|0:0,0:0:0:0:
416,244,323119,1,2,0:0:0:0:
392,272,323236,1,2,0:0:0:0:
256,308,323471,1,0,0:0:0:0:
120,284,323705,2,0,P|72:232|72:160,2,140,8|0|2,0:0|0:0|0:0,0:0:0:0:
320,88,324643,5,8,0:0:0:0:
196,152,324877,2,0,P|176:188|180:228,2,70,0|2|2,0:0|0:0|0:0,0:0:0:0:
312,232,325346,2,0,P|348:152|316:112,1,140,0|8,0:0|0:0,0:0:0:0:
236,228,325814,2,0,P|204:288|240:348,1,140,0|2,0:0|0:0,0:0:0:0:
132,84,326518,54,0,P|88:176|104:228,1,140,8|0,0:0|0:0,0:0:0:0:
236,212,326986,2,0,P|296:192|368:216,1,140,8|0,0:0|0:0,0:0:0:0:
472,308,327455,2,0,P|440:248|464:172,2,140,8|0|8,0:0|0:0|0:0,0:0:0:0:
352,56,328393,6,0,L|352:208,1,140,8|0,0:0|0:0,0:0:0:0:
348,336,328861,2,0,P|260:332|200:280,1,140,8|0,0:0|0:0,0:0:0:0:
100,48,329330,1,8,0:0:0:0:
316,228,329564,1,8,0:0:0:0:
52,320,329799,1,8,0:0:0:0:
256,192,330033,12,0,332377,0:0:0:0:
