osu file format v13

[General]
AudioFilename: Magic.mp3
AudioLeadIn: 0
PreviewTime: 120189
Countdown: 0
SampleSet: Soft
StackLeniency: 0.7
Mode: 0
LetterboxInBreaks: 1
WidescreenStoryboard: 0

[Editor]
Bookmarks: 45189,120189
DistanceSpacing: 2
BeatDivisor: 4
GridSize: 4
TimelineZoom: 1.2

[Metadata]
Title:Magic
TitleUnicode:Magic
Artist:Nhato
ArtistUnicode:Nhato
Creator:[ infL ]
Version:Extreme
Source:Voodooism
Tags:cysmix kusemono records original mix touhou 東方 electronic house dubstep
BeatmapID:433506
BeatmapSetID:180405

[Difficulty]
HPDrainRate:8
CircleSize:4
OverallDifficulty:8
ApproachRate:9
SliderMultiplier:1.4
SliderTickRate:1

[Events]
//Background and Video events
0,0,"bg.jpg",0,0
//Break Periods
//Storyboard Layer 0 (Background)
//Storyboard Layer 1 (Fail)
//Storyboard Layer 2 (Pass)
//Storyboard Layer 3 (Foreground)
//Storyboard Sound Samples
//Background Colour Transformations
3,100,163,162,255

[TimingPoints]
30189,468.75,4,2,1,50,1,0
75189,-90.9090909090909,4,2,1,50,0,0
87610,-66.6666666666667,4,2,1,50,0,0
88079,-55.5555555555556,4,2,1,50,0,0
88431,-90.9090909090909,4,2,1,50,0,0
90189,-83.3333333333333,4,2,1,50,0,0
119251,-50,4,2,1,50,0,0
119603,-83.3333333333333,4,2,1,50,0,0
120189,-66.6666666666667,4,2,1,70,0,1
120657,-66.6666666666667,4,2,1,70,0,1
121126,-50,4,2,1,70,0,1
121360,-66.6666666666667,4,2,1,70,0,1
122064,-50,4,2,1,70,0,1
122298,-66.6666666666667,4,2,1,70,0,1
123001,-50,4,2,1,70,0,1
123235,-66.6666666666667,4,2,1,70,0,1
123470,-50,4,2,1,70,0,1
124407,-66.6666666666667,4,2,1,70,0,1
125814,-133.333333333333,4,2,1,70,0,1
126165,-66.6666666666667,4,2,1,70,0,1
128157,-133.333333333333,4,2,1,70,0,1
128509,-66.6666666666667,4,2,1,70,0,1
128860,-133.333333333333,4,2,1,70,0,1
128978,-66.6666666666667,4,2,1,70,0,1
129798,-133.333333333333,4,2,1,70,0,1
129915,-66.6666666666667,4,2,1,70,0,1
130501,-50,4,2,1,70,0,1
130735,-66.6666666666667,4,2,1,70,0,1
133431,-50,4,2,1,70,0,1
135071,-66.6666666666667,4,2,1,70,0,1
136126,-50,4,2,1,70,0,1
136360,-66.6666666666667,4,2,1,70,0,1
137064,-50,4,2,1,70,0,1
137298,-66.6666666666667,4,2,1,70,0,1
138001,-50,4,2,1,70,0,1
138235,-66.6666666666667,4,2,1,70,0,1
138939,-50,4,2,1,70,0,1
139642,-66.6666666666667,4,2,1,70,0,1
140110,-50,4,2,1,70,0,1
140345,-66.6666666666667,4,2,1,70,0,1
140814,-133.333333333333,4,2,1,70,0,1
141165,-66.6666666666667,4,2,1,70,0,1
143157,-50,4,2,1,70,0,1
143626,-66.6666666666667,4,2,1,70,0,1
145501,-50,4,2,1,70,0,1
145735,-66.6666666666667,4,2,1,70,0,1
146556,-50,4,2,1,70,0,1
148665,-66.6666666666667,4,2,1,70,0,1
149603,-50,4,2,1,70,0,1
149954,-66.6666666666667,4,2,1,70,0,1
150657,-50,4,2,1,70,0,1
150892,-66.6666666666667,4,2,1,70,0,1
152649,-50,4,2,1,70,0,1
152884,-66.6666666666667,4,2,1,70,0,1
153704,-50,4,2,1,70,0,1
153939,-66.6666666666667,4,2,1,70,0,1
154407,-50,4,2,1,70,0,1
155110,-66.6666666666667,4,2,1,70,0,1
156751,-50,4,2,1,70,0,1
157571,-66.6666666666667,4,2,1,70,0,1
158157,-50,4,2,1,70,0,1
158860,-66.6666666666667,4,2,1,70,0,1
161204,-50,4,2,1,70,0,1
161439,-66.6666666666667,4,2,1,70,0,1
162376,-50,4,2,1,70,0,1
162610,-66.6666666666667,4,2,1,70,0,1
163314,-50,4,2,1,70,0,1
165130,-66.6666666666667,4,2,1,70,0,1
167064,-50,4,2,1,70,0,1
167415,-66.6666666666667,4,2,1,70,0,1
168001,-50,4,2,1,70,0,1
168235,-66.6666666666667,4,2,1,70,0,1
168939,-50,4,2,1,70,0,1
169173,-66.6666666666667,4,2,1,70,0,1
170110,-50,4,2,1,70,0,1
170345,-66.6666666666667,4,2,1,70,0,1
173157,-50,4,2,1,70,0,1
173509,-66.6666666666667,4,2,1,70,0,1
175501,-50,4,2,1,70,0,1
175735,-66.6666666666667,4,2,1,70,0,1
176439,-50,4,2,1,70,0,1
178665,-66.6666666666667,4,2,1,70,0,1
179603,-50,4,2,1,70,0,1
179954,-66.6666666666667,4,2,1,70,0,1
180189,-90.9090909090909,4,2,1,70,0,0

[Colours]
Combo1 : 97,31,67
Combo2 : 244,30,6
Combo3 : 81,81,81
Combo4 : 236,101,19

[HitObjects]
256,192,41439,12,0,44251,0:0:0:0:
460,336,44720,5,4,0:0:0:0:
408,136,45189,6,0,L|398:66,1,70,0|0,0:0|0:0,0:0:0:0:
208,132,45657,2,0,L|196:224,1,70,0|0,0:0|0:0,0:0:0:0:
276,200,46126,1,0,0:0:0:0:
128,208,46360,1,0,0:0:0:0:
128,336,46595,6,0,L|168:264,1,70,0|0,0:0|0:0,0:0:0:0:
384,156,47064,2,0,L|344:228,1,70,0|0,0:0|0:0,0:0:0:0:
408,264,47532,1,0,0:0:0:0:
276,200,47767,1,0,0:0:0:0:
48,156,48001,6,0,L|72:268,1,105,0|0,0:0|0:0,0:0:0:0:
109,264,48470,2,0,L|124:196,1,70,0|0,0:0|0:0,0:0:0:0:
168,320,48939,1,0,0:0:0:0:
168,320,49173,1,0,0:0:0:0:
290,132,49407,6,0,L|274:208,1,70,0|0,0:0|0:0,0:0:0:0:
436,276,49876,1,0,0:0:0:0:
436,276,49993,1,0,0:0:0:0:
436,276,50110,2,0,L|450:207,1,70,0|0,0:0|0:0,0:0:0:0:
188,104,50579,1,0,0:0:0:0:
276,320,50814,6,0,L|308:232,1,70
56,148,51282,2,0,L|80:224,1,70
296,92,51751,1,0,0:0:0:0:
296,92,51868,2,0,L|336:64,2,35
416,216,52220,2,0,L|394:149,1,70
216,44,52689,6,0,L|92:48,1,105
96,72,53157,2,0,L|120:148,1,70
20,68,53626,1,0,0:0:0:0:
192,152,53860,1,0,0:0:0:0:
308,104,54095,2,0,L|336:64,1,35
484,88,54329,2,0,L|463:116,1,35
304,264,54564,2,0,L|360:184,1,70
140,344,55032,6,0,L|196:264,1,70
116,84,55501,2,0,L|60:164,1,70
68,324,55970,1,0,0:0:0:0:
148,168,56204,2,0,L|208:168,1,35
316,76,56439,2,0,L|376:76,1,35
171,200,56673,2,0,L|136:200,1,35
336,320,56907,6,0,L|236:320,1,70
416,320,57376,1,0,0:0:0:0:
228,176,57610,1,0,0:0:0:0:
428,76,57845,2,0,L|356:20,1,70
228,176,58314,2,0,L|300:232,1,70
152,184,58782,2,0,L|164:96,1,70
200,244,59251,1,0,0:0:0:0:
168,40,59485,1,0,0:0:0:0:
304,184,59720,2,0,L|312:104,1,70
260,360,60189,5,8,0:0:0:0:
68,108,60657,1,8,0:0:0:0:
456,272,61126,1,8,0:0:0:0:
348,24,61595,1,8,0:0:0:0:
144,276,62064,1,8,0:0:0:0:
144,276,62298,6,0,L|124:312,1,35
128,152,62532,2,0,L|108:188,1,35
256,248,62767,2,0,L|236:284,1,35
192,200,63001,2,0,L|236:120,1,70
396,72,63470,1,0,0:0:0:0:
348,208,63704,1,0,0:0:0:0:
336,184,63821,1,0,0:0:0:0:
324,164,63939,6,0,L|272:72,1,105
256,44,64407,2,0,L|172:44,1,70
76,224,64876,6,0,L|56:168,1,35,0|0,0:0|0:0,0:0:0:0:
228,112,65110,2,0,L|240:68,1,35
316,252,65345,1,0,0:0:0:0:
168,344,65579,1,0,0:0:0:0:
392,344,65814,6,0,L|404:224,1,105
400,204,66282,2,0,L|356:136,1,70
116,136,66751,1,0,0:0:0:0:
344,72,66985,1,0,0:0:0:0:
112,280,67220,1,0,0:0:0:0:
212,52,67454,1,0,0:0:0:0:
272,320,67689,5,0,0:0:0:0:
264,292,67806,1,0,0:0:0:0:
259,263,67923,2,0,L|316:208,1,70
212,52,68392,2,0,L|204:124,1,70
384,72,68860,1,0,0:0:0:0:
390,250,69095,2,0,L|388:216,1,35
300,48,69329,2,0,L|302:82,1,35
228,280,69564,6,0,L|220:176,1,105
204,148,70032,2,0,L|232:64,1,70
120,244,70501,1,0,0:0:0:0:
356,324,70735,1,0,0:0:0:0:
136,68,70970,1,0,0:0:0:0:
176,344,71204,1,0,0:0:0:0:
304,120,71439,6,0,L|408:120,1,105
440,124,71907,2,0,L|356:184,1,70
144,204,72376,2,0,L|224:248,1,70
40,68,72845,2,0,L|40:12,1,35
144,204,73079,2,0,L|144:239,1,35
264,88,73314,2,0,L|320:36,1,70
328,264,73782,5,0,0:0:0:0:
116,256,74017,1,0,0:0:0:0:
400,160,74251,1,0,0:0:0:0:
184,288,74485,1,0,0:0:0:0:
444,220,74720,2,0,L|464:264,3,35
400,160,75189,6,0,L|436:104,1,38.5000011749268,0|0,0:0|0:0,0:0:0:0:
280,272,75423,2,0,L|256:304,1,38.5000011749268
324,144,75657,2,0,L|360:84,1,38.5000011749268,0|0,0:0|0:0,0:0:0:0:
204,240,75892,2,0,L|180:276,1,38.5000011749268
256,88,76126,2,0,L|296:32,2,38.5000011749268,0|0|0,0:0|0:0|0:0,0:0:0:0:
128,64,76595,5,0,0:0:0:0:
152,280,76829,1,0,0:0:0:0:
324,144,77064,2,0,L|384:40,1,115.50000352478,0|0,0:0|0:0,0:0:0:0:
416,40,77532,2,0,L|444:128,1,77.0000023498536,0|0,0:0|0:0,0:0:0:0:
388,320,78001,5,0,0:0:0:0:
296,68,78235,1,0,0:0:0:0:
504,240,78470,1,0,0:0:0:0:
216,72,78704,1,0,0:0:0:0:
252,288,78939,6,0,L|258:250,1,38.5000011749268
176,288,79173,1,0,0:0:0:0:
120,188,79290,2,0,L|144:232,1,38.5000011749268
192,168,79524,1,0,0:0:0:0:
100,284,79642,6,0,L|4:272,1,77.0000023498536,0|0,0:0|0:0,0:0:0:0:
240,308,80110,1,0,0:0:0:0:
184,144,80345,2,0,L|168:76,1,38.5000011749268,0|0,0:0|0:0,0:0:0:0:
364,44,80579,2,0,L|348:-24,1,38.5000011749268
376,240,80814,6,0,L|384:116,1,115.50000352478,0|0,0:0|0:0,0:0:0:0:
356,136,81282,2,0,L|292:196,1,77.0000023498536,0|0,0:0|0:0,0:0:0:0:
444,176,81751,2,0,L|484:200,1,38.5000011749268,0|0,0:0|0:0,0:0:0:0:
292,280,81985,2,0,L|304:344,1,38.5000011749268
96,244,82220,2,0,L|56:308,1,38.5000011749268,0|0,0:0|0:0,0:0:0:0:
256,88,82454,2,0,L|244:48,1,38.5000011749268
160,128,82689,6,0,L|56:52,1,115.50000352478,0|0,0:0|0:0,0:0:0:0:
44,80,83157,2,0,L|60:168,1,77.0000023498536,0|0,0:0|0:0,0:0:0:0:
256,216,83626,1,2,0:0:0:0:
52,304,83860,1,2,0:0:0:0:
196,328,84095,1,2,0:0:0:0:
160,128,84329,1,2,0:0:0:0:
364,88,84564,6,0,L|464:144,1,115.50000352478,0|0,0:0|0:0,0:0:0:0:
476,176,85032,2,0,L|460:260,1,77.0000023498536,0|0,0:0|0:0,0:0:0:0:
336,232,85501,2,0,L|368:184,1,38.5000011749268,0|0,0:0|0:0,0:0:0:0:
240,88,85735,2,0,L|288:120,1,38.5000011749268
112,136,85970,2,0,L|90:168,2,38.5000011749268,0|0|0,0:0|0:0|0:0,0:0:0:0:
124,360,86439,5,0,0:0:0:0:
112,340,86556,1,0,0:0:0:0:
105,316,86673,2,0,L|168:256,1,77.0000023498536,0|0,0:0|0:0,0:0:0:0:
360,300,87142,6,0,L|276:204,1,115.50000352478
360,300,87610,6,0,B|344:248|344:248|303:266|303:266|281:204,1,157.500006008148
360,300,88079,6,0,B|288:280|288:280|328:224|328:224|280:208,1,188.999994232178
260,192,88548,6,0,L|280:136,1,38.5000011749268
364,88,88782,2,0,L|388:32,1,38.5000011749268,0|0,0:0|0:0,0:0:0:0:
148,280,89017,2,0,L|172:224,1,38.5000011749268
128,44,89251,2,0,L|112:79,1,38.5000011749268,0|0,0:0|0:0,0:0:0:0:
60,224,89485,2,0,L|84:168,1,38.5000011749268
352,176,89720,5,2,0:0:0:0:
60,224,89954,1,0,0:0:0:0:
364,88,90189,6,0,L|352:36,1,41.9999987182618,0|0,0:0|0:0,0:0:0:0:
368,272,90423,2,0,L|380:324,1,41.9999987182618,0|0,0:0|0:0,0:0:0:0:
304,164,90657,2,0,L|294:123,1,41.9999987182618,0|0,0:0|0:0,0:0:0:0:
308,336,90892,2,0,L|317:376,1,41.9999987182618,0|0,0:0|0:0,0:0:0:0:
172,336,91126,2,0,L|116:332,1,41.9999987182618,0|0,0:0|0:0,0:0:0:0:
160,160,91360,2,0,L|116:112,1,41.9999987182618,0|0,0:0|0:0,0:0:0:0:
168,248,91595,6,0,L|216:216,1,41.9999987182618,0|0,0:0|0:0,0:0:0:0:
224,60,91829,2,0,L|189:83,1,41.9999987182618,0|0,0:0|0:0,0:0:0:0:
160,104,92064,2,0,L|40:56,1,125.999996154785,0|0,0:0|0:0,0:0:0:0:
32,92,92532,2,0,P|48:180|60:192,1,83.9999974365235,0|0,0:0|0:0,0:0:0:0:
232,136,93001,6,0,L|288:140,1,41.9999987182618,0|0,0:0|0:0,0:0:0:0:
392,216,93235,2,0,L|350:213,1,41.9999987182618
232,144,93470,6,0,L|288:148,1,41.9999987182618,0|0,0:0|0:0,0:0:0:0:
388,224,93704,2,0,L|346:221,1,41.9999987182618
204,300,93939,6,0,L|76:336,1,125.999996154785,0|0,0:0|0:0,0:0:0:0:
56,304,94407,2,0,L|100:232,1,83.9999974365235,0|0,0:0|0:0,0:0:0:0:
312,328,94876,1,2,0:0:0:0:
136,92,95110,1,2,0:0:0:0:
284,88,95345,1,2,0:0:0:0:
128,312,95579,1,2,0:0:0:0:
284,88,95814,6,0,P|364:80|408:108,1,125.999996154785,0|0,0:0|0:0,0:0:0:0:
416,128,96282,2,0,L|328:180,1,83.9999974365235,0|0,0:0|0:0,0:0:0:0:
420,224,96751,2,0,L|464:196,1,41.9999987182618,0|0,0:0|0:0,0:0:0:0:
319,65,96985,2,0,L|284:88,1,41.9999987182618
256,252,97219,2,0,L|300:224,1,41.9999987182618,0|0,0:0|0:0,0:0:0:0:
120,128,97454,2,0,L|68:68,1,41.9999987182618
88,324,97689,5,0,0:0:0:0:
88,324,97806,1,0,0:0:0:0:
88,324,97923,2,0,L|232:324,1,125.999996154785
232,296,98392,2,0,L|124:264,1,83.9999974365235,0|0,0:0|0:0,0:0:0:0:
384,340,98860,1,2,0:0:0:0:
176,180,99095,1,2,0:0:0:0:
368,240,99329,1,2,0:0:0:0:
176,180,99564,5,0,0:0:0:0:
176,180,99681,1,0,0:0:0:0:
176,180,99798,2,0,L|184:236,1,41.9999987182618
368,240,100032,1,0,0:0:0:0:
288,168,100149,1,0,0:0:0:0:
188,104,100267,6,0,L|112:88,1,41.9999987182618
112,312,100501,2,0,L|88:216,1,83.9999974365235,0|0,0:0|0:0,0:0:0:0:
216,240,100853,1,0,0:0:0:0:
336,144,100970,2,0,L|300:220,1,83.9999974365235,0|0,0:0|0:0,0:0:0:0:
372,64,101321,1,0,0:0:0:0:
408,168,101439,6,0,L|436:112,2,41.9999987182618,0|0|0,0:0|0:0|0:0,0:0:0:0:
130,274,101790,1,0,0:0:0:0:
130,274,101907,1,0,0:0:0:0:
130,274,102024,2,0,L|112:312,1,41.9999987182618
308,292,102259,2,0,L|364:320,1,41.9999987182618,0|0,0:0|0:0,0:0:0:0:
120,108,102493,2,0,L|64:80,1,41.9999987182618
216,312,102845,5,2,0:0:0:0:
192,64,103079,1,2,0:0:0:0:
268,112,103314,6,0,L|284:52,1,41.9999987182618,0|0,0:0|0:0,0:0:0:0:
384,244,103548,2,0,L|400:184,1,41.9999987182618
290,29,103782,6,0,L|274:89,1,41.9999987182618,0|0,0:0|0:0,0:0:0:0:
406,162,104017,2,0,L|390:222,1,41.9999987182618
216,312,104251,2,0,L|248:200,1,83.9999974365235,0|0,0:0|0:0,0:0:0:0:
88,188,104720,1,2,0:0:0:0:
88,188,104954,2,0,L|56:148,1,41.9999987182618
204,184,105189,6,0,L|192:128,1,41.9999987182618,0|0,0:0|0:0,0:0:0:0:
144,76,105423,1,0,0:0:0:0:
267,49,105540,2,0,L|228:64,1,41.9999987182618,0|0,0:0|0:0,0:0:0:0:
284,128,105774,1,0,0:0:0:0:
352,80,105892,2,0,L|388:120,1,41.9999987182618
344,188,106126,1,0,0:0:0:0:
267,273,106243,2,0,L|308:264,1,41.9999987182618
416,216,106478,1,0,0:0:0:0:
424,76,106595,2,0,L|431:117,1,41.9999987182618,0|0,0:0|0:0,0:0:0:0:
280,84,106829,6,0,L|216:120,1,41.9999987182618
80,176,107064,2,0,L|44:112,1,41.9999987182618,0|0,0:0|0:0,0:0:0:0:
228,284,107298,2,0,L|292:248,1,41.9999987182618
305,114,107532,6,0,L|233:129,1,41.9999987182618,0|0,0:0|0:0,0:0:0:0:
87,140,107767,2,0,L|72:68,1,41.9999987182618
194,288,108001,2,0,L|266:274,1,41.9999987182618,0|0,0:0|0:0,0:0:0:0:
360,288,108235,6,0,L|416:176,1,125.999996154785
424,144,108704,1,2,0:0:0:0:
228,156,108939,6,0,L|243:116,1,41.9999987182618,0|0,0:0|0:0,0:0:0:0:
236,316,109173,1,0,0:0:0:0:
168,268,109290,2,0,L|112:240,1,41.9999987182618,0|0,0:0|0:0,0:0:0:0:
320,332,109524,1,0,0:0:0:0:
304,144,109642,2,0,L|284:92,1,41.9999987182618
196,52,109876,6,0,L|76:108,1,125.999996154785,0|0,0:0|0:0,0:0:0:0:
64,144,110345,2,0,L|40:240,1,83.9999974365235,0|0,0:0|0:0,0:0:0:0:
124,240,110814,6,0,L|136:176,1,41.9999987182618,0|0,0:0|0:0,0:0:0:0:
308,220,111048,1,0,0:0:0:0:
293,297,111165,2,0,L|256:316,1,41.9999987182618,0|0,0:0|0:0,0:0:0:0:
160,124,111399,1,0,0:0:0:0:
372,276,111517,2,0,L|416:316,1,41.9999987182618
460,136,111751,6,0,L|364:52,1,125.999996154785,0|0,0:0|0:0,0:0:0:0:
336,64,112220,2,0,L|344:148,1,83.9999974365235,0|0,0:0|0:0,0:0:0:0:
216,104,112689,6,0,L|224:168,1,41.9999987182618,0|0,0:0|0:0,0:0:0:0:
176,40,112923,1,0,0:0:0:0:
276,200,113040,2,0,L|220:248,1,41.9999987182618,0|0,0:0|0:0,0:0:0:0:
292,104,113274,1,0,0:0:0:0:
136,104,113392,2,0,L|95:56,1,41.9999987182618
92,180,113626,6,0,B|80:240|80:240|92:320,1,125.999996154785,0|0,0:0|0:0,0:0:0:0:
96,344,114095,2,0,P|148:328|184:336,1,83.9999974365235,0|0,0:0|0:0,0:0:0:0:
264,236,114564,6,0,L|224:296,1,41.9999987182618,0|0,0:0|0:0,0:0:0:0:
400,196,114798,1,0,0:0:0:0:
272,64,114915,2,0,L|276:124,1,41.9999987182618,0|0,0:0|0:0,0:0:0:0:
344,288,115149,1,0,0:0:0:0:
404,96,115267,2,0,L|396:44,1,41.9999987182618
328,136,115501,6,0,B|308:132|308:132|280:172|184:160,1,125.999996154785,0|0,0:0|0:0,0:0:0:0:
180,164,115970,2,0,P|160:224|168:272,1,83.9999974365235,0|0,0:0|0:0,0:0:0:0:
256,192,116439,12,0,118314,0:0:0:0:
256,192,118548,5,2,0:0:0:0:
256,192,119017,1,2,0:0:0:0:
368,64,119251,6,0,B|384:84|384:84|360:96|360:96|384:128,1,70
420,256,119485,6,0,B|404:236|404:236|428:224|428:224|404:192,1,70
256,264,119720,6,0,L|232:292,7,20.9999993591309
256,264,120189,6,0,L|184:200,1,52.5000020027161
344,268,120423,2,0,L|335:319,1,52.5000020027161
320,112,120657,6,0,P|248:73|200:81,1,105.000004005432,4|0,0:0|0:0,0:0:0:0:
376,168,121009,5,0,0:0:0:0:
172,120,121126,2,0,B|136:72|176:24|176:24|126:44|124:32,1,140
256,264,121478,1,0,0:0:0:0:
152,288,121595,6,0,L|84:296,1,52.5000020027161
172,120,121829,2,0,L|224:113,1,52.5000020027161
388,80,122064,6,0,B|400:104|388:120|388:120|412:128|412:128|392:152|416:208,1,140,4|0,0:0|0:0,0:0:0:0:
252,124,122415,1,0,0:0:0:0:
328,276,122532,2,0,L|368:300,7,26.2500010013581
152,288,123001,6,0,B|112:272|112:272|96:236|80:240|52:248|40:264|88:272,1,140,0|0,0:0|0:0,0:0:0:0:
152,176,123353,1,0,0:0:0:0:
272,212,123470,2,0,B|300:180|300:180|280:144|289:96|320:64,1,140
380,136,123821,1,0,0:0:0:0:
212,80,123939,6,0,B|160:80|152:48|152:48|128:84|128:84|88:24|16:92|88:184,1,280,4|0,0:0|0:0,0:0:0:0:
116,336,124642,6,0,P|128:292|140:264,1,52.5000020027161
224,236,124876,1,0,0:0:0:0:
328,312,124993,1,0,0:0:0:0:
420,200,125110,2,0,L|448:192,3,26.2500010013581
360,60,125345,2,0,L|372:4,1,52.5000020027161
212,80,125579,2,0,L|200:131,1,52.5000020027161
116,336,125814,6,0,L|76:320,2,26.2500010013581
328,200,126282,6,0,L|248:216,1,52.5000020027161
192,148,126517,1,0,0:0:0:0:
92,116,126634,1,0,0:0:0:0:
264,248,126751,1,0,0:0:0:0:
400,232,126868,1,0,0:0:0:0:
344,108,126985,2,0,L|400:120,2,52.5000020027161
224,200,127337,1,0,0:0:0:0:
80,140,127454,2,0,L|52:80,1,52.5000020027161
60,308,127689,6,0,L|116:304,1,52.5000020027161
271,222,127923,2,0,L|224:200,1,52.5000020027161
420,332,128157,6,0,L|448:288,1,52.5000020027161
345,111,128626,6,0,L|340:164,1,52.5000020027161
244,304,128860,6,0,L|253:329,1,26.2500010013581
240,80,129212,6,0,L|236:20,1,52.5000020027161
76,72,129564,1,0,0:0:0:0:
200,312,129798,6,0,L|208:336,1,26.2500010013581
340,164,130149,6,0,L|348:104,1,52.5000020027161
264,180,130384,1,0,0:0:0:0:
184,192,130501,2,0,B|188:192|164:128|168:96|76:84,1,140
96,168,130853,1,0,0:0:0:0:
96,168,131087,2,0,L|72:224,1,52.5000020027161
192,340,131439,6,0,L|144:348,4,26.2500010013581
300,252,131790,1,0,0:0:0:0:
400,328,131907,2,0,L|423:281,1,52.5000020027161
344,156,132142,1,0,0:0:0:0:
444,180,132259,1,0,0:0:0:0:
248,152,132376,6,0,L|208:80,1,52.5000020027161
164,192,132610,1,0,0:0:0:0:
68,236,132728,1,0,0:0:0:0:
252,276,132845,2,0,L|304:312,1,52.5000020027161
344,132,133079,2,0,L|324:192,1,52.5000020027161
168,120,133314,1,0,0:0:0:0:
168,120,133431,6,0,B|100:120|100:120|32:192,1,140
40,208,133782,2,0,L|128:320,1,140
160,340,134134,2,0,B|192:316|192:316|252:200,1,140
256,192,134485,2,0,B|352:200|352:200|404:272,1,140
400,260,134837,2,0,B|444:252|444:252|460:136,1,140
204,48,135189,6,0,L|280:80,1,52.5000020027161
360,100,135423,2,0,L|380:64,4,26.2500010013581
188,136,135774,1,0,0:0:0:0:
124,192,135892,2,0,L|60:160,1,52.5000020027161
88,280,136126,6,0,B|128:288|128:288|136:248|168:304|216:200,1,140,4|0,0:0|0:0,0:0:0:0:
256,312,136478,1,0,0:0:0:0:
360,216,136595,2,0,L|336:268,1,52.5000020027161
444,336,136829,2,0,L|468:284,1,52.5000020027161
440,56,137064,6,0,B|388:56|408:96|408:96|420:152|344:136,1,140,4|0,0:0|0:0,0:0:0:0:
276,72,137415,1,0,0:0:0:0:
112,92,137532,6,0,L|152:136,1,52.5000020027161
88,280,137767,2,0,L|52:241,1,52.5000020027161
149,235,138001,6,0,B|182:289|145:331|145:331|195:311|197:323,1,140
224,224,138353,1,0,0:0:0:0:
300,156,138470,1,0,0:0:0:0:
392,192,138587,2,0,L|428:200,5,26.2500010013581
400,284,138939,6,0,B|376:316|376:316|348:300|332:288|308:320|268:340|228:288,1,140,4|0,0:0|0:0,0:0:0:0:
96,248,139290,2,0,B|108:326|132:298|196:326,1,140
216,172,139642,6,0,L|228:240,1,52.5000020027161
300,188,139876,1,0,0:0:0:0:
348,120,139993,1,0,0:0:0:0:
368,40,140110,6,0,B|312:40|312:40|300:72|272:40|272:40|232:64|208:72|244:88,1,140
152,80,140462,6,0,L|136:140,1,52.5000020027161
160,216,140696,1,0,0:0:0:0:
152,316,140814,6,0,L|160:340,1,26.2500010013581
368,340,141048,2,0,L|380:312,1,26.2500010013581
240,292,141282,6,0,L|316:288,1,52.5000020027161
372,220,141517,1,0,0:0:0:0:
288,160,141634,1,0,0:0:0:0:
192,120,141751,2,0,L|216:180,1,52.5000020027161
264,76,141985,1,0,0:0:0:0:
352,20,142103,1,0,0:0:0:0:
384,160,142220,2,0,L|375:108,1,52.5000020027161
344,256,142454,1,0,0:0:0:0:
264,324,142571,1,0,0:0:0:0:
168,208,142689,6,0,L|128:156,1,52.5000020027161
80,256,142923,2,0,L|40:316,1,52.5000020027161
152,320,143157,6,0,B|192:328|196:292|196:292|224:328|236:336|252:272|248:268|260:332|296:340|316:328|336:300|348:296,1,210,4|0,0:0|0:0,0:0:0:0:
264,220,143626,1,0,0:0:0:0:
360,88,143860,2,0,L|384:36,1,52.5000020027161
325,312,144212,2,0,L|349:260,1,52.5000020027161
260,112,144564,5,0,0:0:0:0:
144,236,144798,2,0,L|88:280,1,52.5000020027161
416,212,145149,2,0,L|464:252,1,52.5000020027161
412,112,145501,6,0,B|432:148|432:148|396:160|396:160|424:180|424:184|416:212|416:232,1,140,4|0,0:0|0:0,0:0:0:0:
320,160,145853,1,0,0:0:0:0:
56,80,146087,6,0,L|108:116,1,52.5000020027161
76,196,146321,1,0,0:0:0:0:
112,300,146439,1,0,0:0:0:0:
112,300,146556,6,0,B|168:312|168:312|248:264,1,140
272,256,146907,2,0,B|208:196|208:196|320:168,1,140
288,160,147259,2,0,B|272:76|272:76|216:48,1,140
236,24,147610,2,0,B|336:20|336:20|376:48,1,140
400,68,147962,2,0,B|376:100|376:100|412:216,1,140
424,232,148314,2,0,P|360:288|236:292,1,210
100,324,148782,6,0,L|145:297,1,52.5000020027161
72,248,149017,2,0,B|68:128|68:128|72:96|96:112|88:128,1,157.500006008148
180,68,149485,1,0,0:0:0:0:
288,84,149603,6,0,B|312:100|312:100|296:124|296:124|320:148|320:148|324:284,1,210
404,216,150071,1,0,0:0:0:0:
376,84,150189,2,0,L|396:164,1,52.5000020027161
180,68,150423,2,0,L|124:128,1,52.5000020027161
280,216,150657,6,0,B|248:252|216:260|216:260|192:256|200:236|216:212,1,140
128,152,151009,1,0,0:0:0:0:
132,352,151126,2,0,L|140:296,1,52.5000020027161
32,204,151360,2,0,L|20:148,1,52.5000020027161
116,60,151595,6,0,L|52:92,1,52.5000020027161
208,172,151829,1,0,0:0:0:0:
204,68,151946,1,0,0:0:0:0:
336,72,152064,2,0,L|276:56,1,52.5000020027161
304,152,152298,1,0,0:0:0:0:
356,240,152415,2,0,L|376:176,1,52.5000020027161
480,164,152649,6,0,B|452:196|452:196|472:232|463:280|432:312,1,140
328,332,153001,2,0,L|392:344,1,52.5000020027161
224,276,153235,1,0,0:0:0:0:
96,260,153353,2,0,L|80:188,1,52.5000020027161
184,160,153587,1,0,0:0:0:0:
192,60,153704,6,0,P|124:80|84:164,1,140
184,160,154056,1,0,0:0:0:0:
316,144,154173,2,0,L|236:128,1,52.5000020027161
320,232,154407,6,0,B|288:264|288:264|312:300|312:300|280:328,2,105
404,240,154876,2,0,B|432:232|432:232|444:216|408:200|392:168|396:164|432:148|468:164,1,140
400,56,155228,2,0,L|468:92,1,52.5000020027161
288,80,155462,1,0,0:0:0:0:
184,160,155579,1,0,0:0:0:0:
80,212,155696,1,0,0:0:0:0:
104,336,155814,5,0,0:0:0:0:
104,336,155931,2,0,L|48:272,1,52.5000020027161
204,328,156165,1,0,0:0:0:0:
160,240,156282,1,0,0:0:0:0:
280,248,156399,1,0,0:0:0:0:
280,248,156517,2,0,L|316:164,1,52.5000020027161
184,160,156751,6,0,B|116:152|92:104|92:104|80:64|120:64|124:112,1,175
200,84,157220,2,0,B|224:56|224:56|240:96|240:96|248:60|248:64|284:100|320:80|360:24,1,210
256,176,157689,1,0,0:0:0:0:
336,336,157806,2,0,L|304:276,1,52.5000020027161
460,168,158040,1,0,0:0:0:0:
404,288,158157,6,0,B|384:242|404:218|404:218|380:210|380:210|392:194|380:170,1,140
336,336,158509,1,0,0:0:0:0:
150,263,158626,2,0,B|160:272|176:264|216:236|188:288|232:280|216:312|216:312|248:332,1,140
72,224,158978,1,0,0:0:0:0:
176,140,159095,6,0,L|128:56,1,52.5000020027161
276,200,159329,2,0,L|324:284,1,52.5000020027161
112,148,159564,2,0,L|120:72,1,52.5000020027161
416,316,159915,2,0,L|424:240,1,52.5000020027161
396,136,160149,5,0,0:0:0:0:
396,136,160267,1,0,0:0:0:0:
396,136,160384,2,0,L|356:192,1,52.5000020027161
304,264,160618,1,0,0:0:0:0:
176,280,160735,1,0,0:0:0:0:
40,284,160853,2,0,L|70:241,1,52.5000020027161
36,152,161087,1,0,0:0:0:0:
36,152,161204,6,0,B|60:116|60:116|104:128|88:64|116:112|140:72|168:80,1,140
188,168,161556,1,0,0:0:0:0:
200,296,161673,2,0,L|164:232,1,52.5000020027161
304,264,161907,2,0,L|292:312,7,26.2500010013581
360,180,162376,6,0,B|316:144|316:144|304:176|280:160|276:124|256:140|236:152|216:140|216:140,1,140
304,264,162728,1,0,0:0:0:0:
408,124,162845,2,0,L|364:88,1,52.5000020027161
464,236,163079,1,0,0:0:0:0:
416,328,163196,1,0,0:0:0:0:
324,340,163314,6,0,P|240:328|176:244,1,140
384,252,163665,1,0,0:0:0:0:
296,152,163782,2,0,L|308:72,1,70
140,152,164017,2,0,L|129:221,1,70
232,52,164251,2,0,L|208:220,1,140
312,40,164603,1,0,0:0:0:0:
376,156,164720,2,0,L|408:120,7,35
320,224,165189,6,0,L|216:300,1,105.000004005432
368,280,165540,1,0,0:0:0:0:
244,180,165657,2,0,L|192:104,1,52.5000020027161
144,304,165892,2,0,L|80:344,1,52.5000020027161
84,92,166126,6,0,L|96:208,1,105.000004005432
168,128,166478,1,0,0:0:0:0:
260,76,166595,1,0,0:0:0:0:
352,128,166712,1,0,0:0:0:0:
336,232,166829,1,0,0:0:0:0:
404,312,166946,1,0,0:0:0:0:
288,328,167064,6,0,B|264:340|264:340|236:360|220:304|168:332,2,105
216,232,167532,2,0,L|212:168,1,52.5000020027161
352,76,167767,2,0,L|355:128,1,52.5000020027161
132,232,168001,6,0,B|124:212|136:200|136:200|104:156|104:156|136:96,1,140
176,300,168353,1,0,0:0:0:0:
280,160,168470,2,0,L|272:120,7,26.2500010013581
360,308,168939,6,0,B|388:276|388:276|368:240|377:192|408:160,1,140
460,232,169290,1,0,0:0:0:0:
432,60,169407,2,0,L|432:124,1,52.5000020027161
280,160,169642,2,0,L|280:107,1,52.5000020027161
207,217,169876,1,0,0:0:0:0:
244,304,169993,1,0,0:0:0:0:
244,304,170110,6,0,B|192:300|176:328|176:328|128:352|104:288,1,140
72,232,170462,1,0,0:0:0:0:
72,232,170579,2,0,L|32:280,1,52.5000020027161
156,124,170814,2,0,L|152:97,2,26.2500010013581
324,132,171048,2,0,L|279:159,1,52.5000020027161
368,256,171282,6,0,L|368:200,1,52.5000020027161
440,19,171517,1,0,0:0:0:0:
440,124,171634,1,0,0:0:0:0:
304,64,171751,2,0,L|248:48,1,52.5000020027161
204,208,171985,2,0,L|256:168,1,52.5000020027161
272,292,172220,1,0,0:0:0:0:
168,304,172337,1,0,0:0:0:0:
92,228,172454,1,0,0:0:0:0:
132,132,172571,1,0,0:0:0:0:
228,88,172689,6,0,L|176:48,1,52.5000020027161
92,228,172923,6,0,L|133:260,1,52.5000020027161
252,336,173157,6,0,B|296:348|296:348|320:320|320:320|340:360|396:364|424:272,1,210
400,168,173626,2,0,L|424:236,1,52.5000020027161
220,160,173860,5,0,0:0:0:0:
88,56,173978,1,0,0:0:0:0:
180,220,174212,5,0,0:0:0:0:
20,228,174329,1,0,0:0:0:0:
392,88,174564,6,0,L|428:24,1,52.5000020027161
432,224,174798,6,0,L|406:269,1,52.5000020027161
400,220,175149,6,0,L|374:265,1,52.5000020027161
268,284,175384,1,0,0:0:0:0:
268,284,175501,6,0,B|244:296|228:284|228:284|220:308|220:308|196:288|140:312,1,140
184,196,175853,1,0,0:0:0:0:
120,116,175970,1,0,0:0:0:0:
72,204,176087,2,0,L|100:268,1,52.5000020027161
184,196,176321,1,0,0:0:0:0:
184,196,176439,1,0,0:0:0:0:
184,196,176556,6,0,B|192:116|192:116|248:92,1,140
280,76,176907,2,0,L|428:104,1,140
424,136,177259,2,0,B|424:176|424:176|296:196,1,140
304,224,177610,2,0,B|392:248|392:248|348:284,1,140
336,304,177962,2,0,B|368:344|368:344|252:356,1,140
248,360,178314,2,0,P|144:312|132:200,1,210
152,132,178782,5,0,0:0:0:0:
240,76,178899,1,0,0:0:0:0:
344,84,179017,1,0,0:0:0:0:
392,176,179134,1,0,0:0:0:0:
472,112,179251,1,0,0:0:0:0:
492,216,179368,1,0,0:0:0:0:
416,288,179485,1,0,0:0:0:0:
326,311,179603,6,0,B|336:300|316:328|296:340|260:332|248:268|252:272|236:336|224:328|196:292|196:292|192:328|152:320,1,210
256,192,180071,12,0,187220,0:0:0:0:
