osu file format v12

[General]
AudioFilename: Nhato - LIMBO.mp3
AudioLeadIn: 3000
PreviewTime: 180010
Countdown: 1
SampleSet: Normal
StackLeniency: 0.7
Mode: 0
LetterboxInBreaks: 1
EpilepsyWarning: 1
WidescreenStoryboard: 0

[Editor]
Bookmarks: 15010,30010,45010,60010,75010,90010,105010,120010,135010,150010,165010,180010,195010,210010,225010,240010,255010
DistanceSpacing: 0.9
BeatDivisor: 4
GridSize: 4

[Metadata]
Title:LIMBO
TitleUnicode:LIMBO
Artist:Nhato
ArtistUnicode:Nhato
Creator:Reiji-RJ
Version:Collab
Source:Touhou
Tags:Alstroemeria Records Otographic Dream of a Spring Breeze Perfect Cherry Blossom DEGENERATE DANCEHALL IceBeam Vass_Bass TicClick
BeatmapID:261697
BeatmapSetID:98020

[Difficulty]
HPDrainRate:7
CircleSize:4
OverallDifficulty:8
ApproachRate:9
SliderMultiplier:1.6
SliderTickRate:1

[Events]
//Background and Video events
0,0,"bg.jpg",0,0
//Break Periods
2,30209,44410
2,120210,134410
//Storyboard Layer 0 (Background)
//Storyboard Layer 1 (Fail)
//Storyboard Layer 2 (Pass)
//Storyboard Layer 3 (Foreground)
Sprite,Foreground,Centre,"sb\123.jpg",320,240 S,0,-5615,,0.8 F,0,-5615,28135,1 F,0,30127,58135,1
Sprite,Foreground,Centre,"sb\black.png",320,240 S,0,-5615,,1 F,0,-5615,10,1,0 F,0,27197,28135,0,1 F,0,28135,30010,1
Sprite,Foreground,Centre,"sb\ssshhh.jpg",320,240 S,0,3291,3760,0.8,0.8059607 F,0,3291,3877,1,0 F,0,7041,7627,1,0 S,0,7041,7627,0.8,0.8059607 F,0,10791,11377,1,0 S,0,10791,11377,0.8,0.8059607 F,0,14541,15127,1,0 S,0,14541,15127,0.8,0.8059607 F,0,18291,18877,1,0 S,0,18291,18877,0.8,0.8059607 F,0,22041,22627,1,0 S,0,22041,22627,0.8,0.8059607 F,0,25791,26377,1,0 S,0,25791,26377,0.8,0.8059607 S,0,26377,,0.8059607 F,0,29541,,1 F,0,29541,30010,1,0 F,0,60010,60595,1,0 S,0,60010,60595,0.8,0.8302869 F,0,63760,64345,1,0 S,0,63760,64345,0.8,0.8302869 F,0,67510,68095,1,0 S,0,67510,68095,0.8,0.8302869 F,0,71260,71845,1,0 S,0,71260,71845,0.8,0.8302869
Sprite,Foreground,Centre,"sb\cloud4.png",320,240 F,0,22041,22978,0,0.6305455 M,0,22041,29541,261,416,333,415 S,0,22510,,2.594182 C,0,22510,28135,255,255,255,210,167,228 F,0,22978,,0.6305455 F,0,22978,29541,0.6305455,1
Sprite,Foreground,Centre,"sb\123.jpg",320,240 S,0,72666,,0.8 F,0,72666,73135,0,1 F,0,73135,75010,1
Sprite,Foreground,Centre,"sb\cloud4.png",320,240 S,0,30010,,3.949818 F,0,30010,30947,0,0.5927272 M,0,30010,58135,425,379,290,377 P,0,30010,58135,H F,0,30947,45010,0.5927272,1 F,0,45010,58135,1,0 C,0,45010,58135,255,255,255,210,167,228
Sprite,Foreground,Centre,"sb\cloud4.png",320,240 S,0,30010,,2.861818 F,0,30010,30947,0,0.5810909 M,0,30010,58135,310,423,492,421 F,0,30947,45010,0.5810909,1 F,0,45010,58135,1,0 C,0,45010,58135,255,255,255,210,167,228
Sprite,Foreground,Centre,"sb\123.jpg",320,240 S,0,88135,,0.8 F,0,88135,88252,1,0 F,0,88252,88369,0,1 F,0,88369,88486,1,0 F,0,88486,88603,0,1
Sprite,Foreground,Centre,"sb\light.jpg",320,240 S,0,88838,,0.8 F,0,88838,88955,1,0 F,0,88955,89072,0,1 F,0,89072,89189,1,0 F,0,89189,89306,0,1 F,0,89306,89424,1,0 F,0,89424,,0
Sprite,Foreground,Centre,"bg.jpg",320,240 S,0,61885,62353,0.8,0.8196365 F,0,61885,62588,1,0 S,0,65635,66103,0.8,0.8196365 F,0,65635,66338,1,0 S,0,69385,69853,0.8,0.8196365 F,0,69385,70088,1,0 F,0,75010,75478,1,0 S,0,75010,75478,0.8,0.8196365 F,0,76416,76650,1,0 S,0,76416,76650,0.8,0.8196365 F,0,76885,77353,1,0 S,0,76885,77353,0.8,0.8196365 F,0,78760,79228,1,0 S,0,78760,79228,0.8,0.8196365 F,0,80166,80400,1,0 S,0,80166,80400,0.8,0.8196365 F,0,80635,81103,1,0 S,0,80635,81103,0.8,0.8196365 F,0,82510,82978,1,0 S,0,82510,82978,0.8,0.8196365 F,0,83916,84150,1,0 S,0,83916,84150,0.8,0.8196365 F,0,84385,84853,1,0 S,0,84385,84853,0.8,0.8196365 F,0,86260,86728,1,0 S,0,86260,86728,0.8,0.8196365
Sprite,Foreground,Centre,"sb\pink.jpg",320,240 S,0,180010,,0.8 F,0,180010,193135,1 F,0,193135,195010,1,0
Sprite,Foreground,Centre,"sb\pink.jpg",320,240 F,0,180010,180244,1,0 S,0,180010,180244,0.8,0.8370909 F,0,180478,180713,1,0 S,0,180478,180713,0.8370909 F,0,180947,181181,1,0 S,0,180947,181181,0.8370909 F,0,181416,181650,1,0 S,0,181416,181650,0.8370909 F,0,181885,182119,1,0 S,0,181885,182119,0.8370909 F,0,182353,182588,1,0 S,0,182353,182588,0.8370909 F,0,182822,183056,1,0 S,0,182822,183056,0.8370909 F,0,183291,183525,1,0 S,0,183291,183525,0.8370909 F,0,183760,183994,1,0 S,0,183760,183994,0.8370909 F,0,184228,184463,1,0 S,0,184228,184463,0.8370909 F,0,184697,184931,1,0 S,0,184697,184931,0.8370909 F,0,185166,185400,1,0 S,0,185166,185400,0.8370909 F,0,187510,187744,1,0 S,0,187510,187744,0.8370909 F,0,187978,188213,1,0 S,0,187978,188213,0.8370909 F,0,188447,188681,1,0 S,0,188447,188681,0.8370909 F,0,188916,189150,1,0 S,0,188916,189150,0.8370909 F,0,189385,189619,1,0 S,0,189385,189619,0.8370909 F,0,189853,190088,1,0 S,0,189853,190088,0.8370909 F,0,190322,190556,1,0 S,0,190322,190556,0.8370909 F,0,190791,191025,1,0 S,0,190791,191025,0.8370909 F,0,191260,191494,1,0 S,0,191260,191494,0.8370909 F,0,191728,191963,1,0 S,0,191728,191963,0.8370909 F,0,192197,192431,1,0 S,0,192197,192431,0.8370909 F,0,192666,192900,1,0 S,0,192666,192900,0.8370909
Sprite,Foreground,Centre,"sb\blue.jpg",320,240 S,0,195010,,0.8 F,0,195010,208135,1 F,0,208135,210010,1,0
Sprite,Foreground,Centre,"sb\ssshhh.jpg",320,240 S,0,205791,,0.802182 F,0,205791,206260,1,0
Sprite,Foreground,Centre,"sb\blue.jpg",320,240 F,0,195010,195244,1,0 S,0,195010,195244,0.8,0.8370909 F,0,195478,195713,1,0 S,0,195478,195713,0.8370909 F,0,195947,196181,1,0 S,0,195947,196181,0.8370909 F,0,196416,196650,1,0 S,0,196416,196650,0.8370909 F,0,196885,197119,1,0 S,0,196885,197119,0.8370909 F,0,197353,197588,1,0 S,0,197353,197588,0.8370909 F,0,197822,198056,1,0 S,0,197822,198056,0.8370909 F,0,198291,198525,1,0 S,0,198291,198525,0.8370909 F,0,198760,198994,1,0 S,0,198760,198994,0.8370909 F,0,199228,199463,1,0 S,0,199228,199463,0.8370909 F,0,199697,199931,1,0 S,0,199697,199931,0.8370909 F,0,200166,200400,1,0 S,0,200166,200400,0.8370909 F,0,200635,200869,1,0 S,0,200635,200869,0.8370909 F,0,201103,201338,1,0 S,0,201103,201338,0.8370909 F,0,201572,201806,1,0 S,0,201572,201806,0.8370909 F,0,202041,202275,1,0 S,0,202041,202275,0.8370909 F,0,202510,202744,1,0 S,0,202510,202744,0.8370909 F,0,202978,203213,1,0 S,0,202978,203213,0.8370909 F,0,203447,203681,1,0 S,0,203447,203681,0.8370909 F,0,203916,204150,1,0 S,0,203916,204150,0.8370909 F,0,204385,204619,1,0 S,0,204385,204619,0.8370909 F,0,204853,205088,1,0 S,0,204853,205088,0.8370909 F,0,205322,205556,1,0 S,0,205322,205556,0.8370909 F,0,206260,206494,1,0 S,0,206260,206494,0.8370909 F,0,206728,206963,1,0 S,0,206728,206963,0.8370909 F,0,207197,207431,1,0 S,0,207197,207431,0.8370909 F,0,207666,207900,1,0 S,0,207666,207900,0.8370909
Sprite,Foreground,Centre,"sb\black.png",320,240 F,0,179541,180010,0,1 M,0,180010,,320,240
Sprite,Foreground,Centre,"sb\pink.jpg",320,240 S,0,178603,,0.8 F,0,178603,179072,1
Sprite,Foreground,Centre,"sb\blue.jpg",320,240 S,0,179072,,0.8 F,0,179072,179424,1 F,0,179424,,1
Sprite,Foreground,Centre,"sb\flower1.png",320,240 S,0,30010,,0.3309091 F,0,30010,30947,0,1 R,0,30010,30947,1.28 M,0,30010,45010,148,-25,155,262 F,0,30947,44541,1,0.8345785 R,0,30947,45010,1.28,2.245818 M,0,45010,,155,262
Sprite,Foreground,Centre,"sb\flower3.png",320,240 S,0,30010,,0.3658182 M,0,30010,45010,275,-20,290,156 R,0,30010,45010,0,-3.293091
Sprite,Foreground,Centre,"sb\flower4.png",320,240 S,0,30010,,0.4472727 M,0,30010,45010,513,-35,538,278 R,0,30010,45010,1.256727,2.815999
Sprite,Foreground,Centre,"bg.jpg",320,240 F,0,90010,90478,1,0 S,0,90010,90478,0.8,0.8254545
Sprite,Foreground,Centre,"bg.jpg",320,240 F,0,90010,90244,1,0 S,0,90010,90244,0.8,0.8232726 F,0,90478,90713,1,0 S,0,90478,90713,0.8232726 F,0,90947,91181,1,0 S,0,90947,91181,0.8232726 F,0,91416,91650,1,0 S,0,91416,91650,0.8232726 F,0,91885,92119,1,0 S,0,91885,92119,0.8232726 F,0,92353,92588,1,0 S,0,92353,92588,0.8232726 F,0,92822,93056,1,0 S,0,92822,93056,0.8232726 F,0,93291,93525,1,0 S,0,93291,93525,0.8232726 F,0,93760,93994,1,0 S,0,93760,93994,0.8232726 F,0,94228,94463,1,0 S,0,94228,94463,0.8232726 F,0,94697,94931,1,0 S,0,94697,94931,0.8232726 F,0,95166,95400,1,0 S,0,95166,95400,0.8232726 F,0,95635,95869,1,0 S,0,95635,95869,0.8232726 F,0,96103,96338,1,0 S,0,96103,96338,0.8232726 F,0,96572,96806,1,0 S,0,96572,96806,0.8232726 F,0,97041,97275,1,0 S,0,97041,97275,0.8232726 F,0,97510,97744,1,0 S,0,97510,97744,0.8232726 F,0,97978,98213,1,0 S,0,97978,98213,0.8232726 F,0,98447,98681,1,0 S,0,98447,98681,0.8232726 F,0,98916,99150,1,0 S,0,98916,99150,0.8232726 F,0,99385,99619,1,0 S,0,99385,99619,0.8232726 F,0,99853,100088,1,0 S,0,99853,100088,0.8232726 F,0,100322,100556,1,0 S,0,100322,100556,0.8232726 F,0,101260,101494,1,0 S,0,101260,101494,0.8232726 F,0,101728,101963,1,0 S,0,101728,101963,0.8232726 F,0,102197,102431,1,0 S,0,102197,102431,0.8232726 F,0,102666,102900,1,0 S,0,102666,102900,0.8232726 F,0,105010,105244,1,0 S,0,105010,105244,0.8232726 F,0,105478,105713,1,0 S,0,105478,105713,0.8232726 F,0,105947,106181,1,0 S,0,105947,106181,0.8232726 F,0,106416,106650,1,0 S,0,106416,106650,0.8232726 F,0,106885,107119,1,0 S,0,106885,107119,0.8232726 F,0,107353,107588,1,0 S,0,107353,107588,0.8232726 F,0,107822,108056,1,0 S,0,107822,108056,0.8232726 F,0,108291,108525,1,0 S,0,108291,108525,0.8232726 F,0,108760,108994,1,0 S,0,108760,108994,0.8232726 F,0,109228,109463,1,0 S,0,109228,109463,0.8232726 F,0,109697,109931,1,0 S,0,109697,109931,0.8232726 F,0,110166,110400,1,0 S,0,110166,110400,0.8232726 F,0,110635,110869,1,0 S,0,110635,110869,0.8232726 F,0,111103,111338,1,0 S,0,111103,111338,0.8232726 F,0,111572,111806,1,0 S,0,111572,111806,0.8232726 F,0,112041,112275,1,0 S,0,112041,112275,0.8232726 F,0,112510,112744,1,0 S,0,112510,112744,0.8232726 F,0,112978,113213,1,0 S,0,112978,113213,0.8232726 F,0,113447,113681,1,0 S,0,113447,113681,0.8232726 F,0,113916,114150,1,0 S,0,113916,114150,0.8232726 F,0,114385,114619,1,0 S,0,114385,114619,0.8232726 F,0,114853,115088,1,0 S,0,114853,115088,0.8232726 F,0,115322,115556,1,0 S,0,115322,115556,0.8232726 F,0,116260,116494,1,0 S,0,116260,116494,0.8232726 F,0,116728,116963,1,0 S,0,116728,116963,0.8232726 F,0,117197,117431,1,0 S,0,117197,117431,0.8232726 F,0,117666,117900,1,0 S,0,117666,117900,0.8232726
Sprite,Foreground,Centre,"sb\light.jpg",320,240 F,0,59541,60010,1,0 S,0,59541,60010,0.8,0.8254545 S,0,60010,,0.8254545 S,0,73135,,0.8 F,0,73135,73252,1,0 S,0,73135,73252,0.8,0.808 F,0,73369,73486,1,0 S,0,73369,73486,0.8,0.808 F,0,73603,73838,1,0 S,0,73603,73838,0.8,0.808 F,0,74072,74189,1,0 S,0,74072,74189,0.8,0.808 F,0,74306,74424,1,0 S,0,74306,74424,0.8,0.808 F,0,74541,74775,1,0 S,0,74541,74775,0.8,0.808
Sprite,Foreground,Centre,"sb\123.jpg",320,240 M,0,240010,,320,240 S,0,240010,,0.8021818 F,0,240010,268135,1
Sprite,Foreground,Centre,"sb\pink.jpg",320,240 S,0,240011,,0.8021818
Sprite,Foreground,Centre,"sb\ssshhh.jpg",320,240 M,0,185635,,320,240 S,0,185635,,0.8021818 F,0,186103,186162,1,0 F,0,186162,186220,0,1 F,0,186220,186279,1,0 F,0,186279,186338,0,1 F,0,186338,186396,1,0 F,0,186396,186455,0,1 F,0,186455,186513,1,0 F,0,186513,186572,0,1 F,0,186572,186689,1,0 F,0,186806,186865,1,0 F,0,186865,186924,0,1 F,0,186924,186982,1,0 F,0,186982,187041,0,1 F,0,187041,187217,1,0
Sprite,Foreground,Centre,"sb\black.png",320,240 S,0,262510,,1 F,0,262510,268135,0,1 M,0,268135,270010,320,240
Sprite,Foreground,Centre,"sb\light.jpg",320,240 S,0,268135,,0.8021818 F,0,268135,268193,1,0 F,0,268193,268252,0,1 F,0,268252,268310,1,0 F,0,268310,268369,0,1 F,0,268369,268427,1,0 F,0,268427,268486,0,1 F,0,268486,268545,1,0 F,0,268545,268603,0,1 F,0,268603,268662,1,0 F,0,268662,268720,0,1 F,0,268720,268779,1,0 F,0,268779,268838,0,1 F,0,268838,268896,1,0 F,0,268896,268955,0,1 F,0,268955,269013,1,0 F,0,269013,269072,0,1 F,0,269072,269131,1,0 F,0,269131,269189,0,1 F,0,269189,269248,1,0 F,0,269248,269306,0,1 F,0,269306,269365,1,0 F,0,269365,269424,0,1 F,0,269424,269482,1,0 F,0,269482,269541,0,1 F,0,269541,269599,1,0 F,0,269599,269658,0,1 F,0,269658,269717,1,0 F,0,269717,269775,0,1 F,0,269775,269834,1,0 F,0,269834,269892,0,1 F,0,269892,269951,1,0
Sprite,Foreground,Centre,"sb\flower5.png",320,240 S,0,30010,,0.7963635 M,0,30010,45010,12,-32,56,262 R,0,30010,45010,0,-3.863273
Sprite,Foreground,Centre,"sb\flower2.png",320,240 S,0,30010,,0.3425455 M,0,30010,45010,364,-21,365,116 R,0,30010,45010,0.8727272,2.688
Sprite,Foreground,Centre,"sb\black.png",320,240 S,0,118603,,1 F,0,118603,120010,0,1 F,0,120010,,1 F,0,120010,150010,1,0.9971571
Sprite,Foreground,Centre,"sb\ssshhh.jpg",320,240 F,0,100791,101260,1,0 S,0,100791,101260,0.8021818,0.8138182 F,0,115791,116260,1,0 S,0,115791,116260,0.8021818,0.8196364
Sprite,Foreground,Centre,"sb\123.jpg",320,240 S,0,135010,,0.8021818 F,0,135010,142510,0,1 M,0,139962,,320,240 F,0,142510,148135,1 F,0,148135,150010,1,0 F,0,150010,150595,0,1 F,0,150595,178135,1,0
Sprite,Foreground,Centre,"sb\flower3.png",320,240 S,0,120010,,0.5752728 M,0,120010,135010,295,-22,246,500 R,0,120010,135010,0,3.002182
Sprite,Foreground,Centre,"sb\flower1.png",320,240 S,0,120010,,0.3018183 M,0,120010,135010,402,-19,403,269 R,0,120010,135010,1.431273,2.885818 F,0,134072,135010,1,0
Sprite,Foreground,Centre,"sb\flower5.png",320,240 S,0,120010,,0.4647275 M,0,120010,135010,129,-3,111,413 R,0,120010,135010,1.617454,4.293818 F,0,134072,135010,1,0
Sprite,Foreground,Centre,"sb\flower2.png",320,240 F,0,137353,137822,0,1 M,0,137353,138291,192,301,159,275 S,0,137822,,1 R,0,137822,,0.9309088 F,0,137822,138291,1,0
Sprite,Foreground,Centre,"sb\flower4.png",320,240 S,0,135010,,0.7090909 R,0,135010,,0.954182 F,0,135010,135947,0,1 M,0,135010,136885,356,149,318,234 F,0,135947,136885,1,0
Sprite,Foreground,Centre,"sb\flower5.png",320,240 F,0,138760,139697,0,1 M,0,138760,140635,469,393,325,373 F,0,139697,140635,1,0
Sprite,Foreground,Centre,"sb\light.jpg",320,240 S,0,122353,,0.8 F,0,122353,122822,0,0.03054544 F,0,122822,123760,0.03054544,0 F,0,125635,126103,0,0.03054544 F,0,126103,127041,0.03054544,0 F,0,129385,129853,0,0.09018189 F,0,129853,130791,0.09018189,0 F,0,133135,133603,0,0.03054544 F,0,133603,134541,0.03054544,0 F,0,136885,137353,0.0009831382,0.4402558 F,0,137353,138291,0.4402558,0 F,0,140635,141103,0.002346785,0.4328922 F,0,141103,142041,0.4328922,0.002346785 F,0,144385,144853,0.005559808,0.6077417 F,0,144853,145791,0.6077417,0.005559808 F,0,150010,178135,0.005559808,1
Sprite,Foreground,Centre,"sb\flower1.png",320,240 S,0,141338,,0.4356364 F,0,141338,141806,0,1 M,0,141338,142510,414,107,400,178 F,0,141806,142510,1,0 F,0,163603,163838,0,1 M,0,163603,164072,310,218,334,268 F,0,163838,164072,1,0
Sprite,Foreground,Centre,"sb\flower4.png",320,240 S,0,143447,,0.5054547 R,0,143447,,1.291636 F,0,143447,143916,0,1 M,0,143447,144853,106,227,166,228 F,0,143916,144853,1,0
Sprite,Foreground,Centre,"sb\flower1.png",320,240 S,0,152353,,0.3018179 F,0,152353,152588,0,1 M,0,152353,152822,375,137,322,130 F,0,152588,152822,1,0 S,0,156103,,0.435636 R,0,156103,,1.617454 F,0,156103,156338,0,1 M,0,156103,156572,208,278,186,280 F,0,156338,156572,1,0 S,0,159853,,0.3541816 F,0,159853,160088,0.02564102,1 M,0,159853,160322,459,371,480,381 F,0,160088,160322,1,0.02564102 F,0,163603,163838,0.02564102,1 M,0,163603,164072,326,224,357,214 F,0,163838,164072,1,0.02564102
Sprite,Foreground,Centre,"sb\flower5.png",320,240 S,0,152353,,0.4879999 F,0,152353,152588,0,1 M,0,152353,152822,375,137,373,166 F,0,152588,152822,1,0 F,0,156103,156338,0,1 M,0,156103,156572,228,264,274,278 F,0,156338,156572,1,0 F,0,159853,160088,0,1 M,0,159853,160322,439,390,445,337 F,0,160088,160322,1,0
Sprite,Foreground,Centre,"sb\flower2.png",320,240 S,0,152353,,0.7963635 F,0,152353,152588,0,1 M,0,152353,152822,376,133,416,144 F,0,152588,152822,1,0 F,0,156103,156338,0.02136755,1 M,0,156103,156572,206,243,212,198 F,0,156338,156572,1,0.02136755 R,0,163603,,0.6632727 F,0,163603,163838,0.02136755,1 M,0,163603,164072,336,214,306,193 F,0,163838,164072,1,0.02136755
Sprite,Foreground,Centre,"sb\flower3.png",320,240 S,0,159853,,0.3309091 F,0,159853,160088,0,1 M,0,159853,160322,450,393,390,383 F,0,160088,160322,1,0
Sprite,Foreground,Centre,"sb\ssshhh.jpg",320,240 M,0,220791,,320,240 S,0,220791,,0.8021818 F,0,220791,221260,1,0 F,0,235791,236260,1,0.01279318 F,0,238135,238369,0.01910794,1 F,0,238369,239072,1,0 F,0,238369,239072,1,0 F,0,239306,239365,1,0 F,0,239365,239424,0,1 F,0,239424,239482,1,0 F,0,239482,239541,0,1 F,0,239541,239599,1,0 F,0,239775,239834,1,0 F,0,239834,239892,0,1 F,0,239892,239951,1,0 F,0,239951,240010,0
Sprite,Foreground,Centre,"sb\White.jpg",320,240 S,0,228291,,1.064 F,0,228291,228408,1,0 F,0,228525,228642,1,0 F,0,228760,228994,1,0 F,0,232041,232158,1,0 F,0,232275,232392,1,0 F,0,232510,232744,1,0
Sprite,Foreground,Centre,"sb\White.jpg",320,240 F,0,15010,15478,1,0 F,0,30010,30947,1,0 S,0,30010,61885,1.077151 F,0,45010,45478,1,0 F,0,58135,58213,1,0 F,0,58291,58369,1,0 F,0,58447,58525,1,0 F,0,58603,58681,1,0 F,0,58760,58838,1,0 F,0,58916,58994,1,0 F,0,59072,59150,1,0 F,0,59228,59306,1,0 F,0,59385,59463,1,0 F,0,60010,60478,1,0 F,0,75010,75478,1,0 F,0,89541,89717,1,0 F,0,89775,89951,1,0 F,0,90010,90478,1,0 F,0,93291,93408,1,0 F,0,93525,93642,1,0 F,0,93760,93994,1,0 F,0,97041,97158,1,0 F,0,97275,97392,1,0 F,0,97510,97744,1,0 S,0,103135,,1.067636 F,0,103135,103193,0.3832728,0 F,0,103193,103252,0,0.3832728 F,0,103252,103310,0.3832728,0 F,0,103310,103369,0,0.3832728 F,0,103369,103427,0.3832728,0 F,0,103427,103486,0,0.3832728 F,0,103486,103545,0.3832728,0 F,0,103545,103603,0,0.3832728 F,0,103603,103662,0.3832728,0 F,0,103662,103720,0,0.3832728 F,0,103720,103779,0.3832728,0 F,0,103779,103838,0,0.3832728 F,0,103838,103896,0.3832728,0 F,0,103896,103955,0,0.3832728 F,0,103955,104013,0.3832728,0 F,0,104013,104072,0,0.3832728 F,0,104072,104131,0.3832728,0 F,0,104131,104189,0,0.3832728 F,0,104189,104248,0.3832728,0 F,0,104248,104306,0,0.3832728 F,0,104306,104365,0.3832728,0 F,0,104365,104424,0,0.3832728 F,0,104424,104482,0.3832728,0 F,0,104482,104541,0,0.3832728 F,0,104541,104599,0.3832728,0 F,0,104599,104658,0,0.3832728 F,0,104658,104717,0.3832728,0 F,0,104717,104775,0,0.3832728 F,0,104775,104834,0.3832728,0 F,0,104834,104892,0,0.3832728 F,0,104892,104951,0.3832728,0 F,0,104951,105010,0,1 F,0,105010,105478,1,0 F,0,108291,108408,1,0 F,0,108525,108642,1,0 F,0,108760,108994,1,0 F,0,112041,112158,1,0 F,0,112275,112392,1,0 F,0,112510,112744,1,0 F,0,118135,119541,1,0 F,0,178135,,1 S,0,178135,,1.069818 F,0,178135,178369,1,0 F,0,178603,178838,1,0.02564102 F,0,179072,179306,1,0.02564102 S,0,198291,,1.064 F,0,198291,198408,1,0 F,0,198525,198642,1,0 F,0,198760,198994,1,0 F,0,202041,202158,1,0.008547008 F,0,202275,202392,1,0.008547008 F,0,202510,202744,1,0.008547008 F,0,210010,210947,1,0.008547008 S,0,223135,,1.064 F,0,223135,223193,0.3832728,0 F,0,223193,223252,0,0.3832728 F,0,223252,223310,0.3832728,0 F,0,223310,223369,0,0.3832728 F,0,223369,223427,0.3832728,0 F,0,223427,223486,0,0.3832728 F,0,223486,223545,0.3832728,0 F,0,223545,223603,0,0.3832728 F,0,223603,223662,0.3832728,0 F,0,223662,223720,0,0.3832728 F,0,223720,223779,0.3832728,0 F,0,223779,223838,0,0.3832728 F,0,223838,223896,0.3832728,0 F,0,223896,223955,0,0.3832728 F,0,223955,224013,0.3832728,0 F,0,224013,224072,0,0.3832728 F,0,224072,224131,0.3832728,0 F,0,224131,224189,0,0.3832728 F,0,224189,224248,0.3832728,0 F,0,224248,224306,0,0.3832728 F,0,224306,224365,0.3832728,0 F,0,224365,224424,0,0.3832728 F,0,224424,224482,0.3832728,0 F,0,224482,224541,0,0.3832728 F,0,224541,224599,0.3832728,0 F,0,224599,224658,0,0.3832728 F,0,224658,224717,0.3832728,0 F,0,224717,224775,0,0.3832728 F,0,224775,224834,0.3832728,0 F,0,224834,224892,0.3832728,0 F,0,224892,224951,0.3832728,0 F,0,224951,225010,0.3832728,0 F,0,225010,225478,1,0 S,0,240010,,1.069818 F,0,240010,240478,1,0
Sprite,Foreground,Centre,"sb\White.jpg",320,240 T,HitSoundFinish,180010,194892 F,0,0,469,1,0 S,0,0,469,2 T,HitSoundFinish,194892,209892 F,0,0,469,1,0 S,0,0,469,2
Sprite,Foreground,Centre,"sb\flower1.png",320,240 S,0,165010,,0.2669089 R,0,165010,,1.152 F,0,165010,165244,0,1 M,0,165010,165478,103,134,48,115 F,0,165244,165478,1,0 F,0,167353,167588,0,1 M,0,167353,167822,434,280,477,276 F,0,167588,167822,1,0 F,0,168760,168994,0,1 M,0,168760,169228,140,376,94,354 F,0,168994,169228,1,0 F,0,171103,171338,0,1 M,0,171103,171572,283,102,286,138 F,0,171338,171572,1,0 F,0,172510,172744,0,1 M,0,172510,172978,407,376,441,372 F,0,172744,172978,1,0 F,0,174853,175088,0,1 M,0,174853,175322,477,113,447,84 F,0,175088,175322,1,0
Sprite,Foreground,Centre,"sb\flower2.png",320,240 S,0,165010,,0.6450909 R,0,165010,,0.4538178 F,0,165010,165244,0,1 M,0,165010,165478,110,148,94,197 F,0,165244,165478,1,0 F,0,167353,167588,0,1 M,0,167353,167822,435,256,441,221 F,0,167588,167822,1,0 F,0,168760,168994,0,1 M,0,168760,169228,137,378,126,410 F,0,168994,169228,1,0 F,0,171103,171338,0,1 M,0,171103,171572,282,110,333,107 F,0,171338,171572,1,0 F,0,172510,172744,0,1 M,0,172510,172978,410,376,388,370 F,0,172744,172978,1,0 F,0,174853,175088,0,1 M,0,174853,175322,495,132,508,170 F,0,175088,175322,1,0
Sprite,Foreground,Centre,"sb\flower4.png",320,240 S,0,165010,,0.3832727 R,0,165010,,-1.501091 F,0,165010,165244,0,1 M,0,165010,165478,116,155,172,142 F,0,165244,165478,1,0 F,0,167353,167588,0,1 M,0,167353,167822,435,245,395,270 F,0,167588,167822,1,0 F,0,168760,168994,0.06837606,1 M,0,168760,169228,140,376,191,362 F,0,168994,169228,1,0.06837606 F,0,171103,171338,0.06837606,1 M,0,171103,171572,283,107,252,119 F,0,171338,171572,1,0 F,0,172510,172744,0.09624518,1 M,0,172510,172978,408,377,421,312 F,0,172744,172978,1,0 F,0,174853,175088,0,1 M,0,174853,175322,485,123,446,159 F,0,175088,175322,1,0
//Storyboard Sound Samples
//Background Colour Transformations
3,100,163,162,255

[TimingPoints]
10,468.75,4,1,0,40,1,0
3291,-133.333333333333,4,1,0,40,0,0
3877,-100,4,1,0,40,0,0
7041,-133.333333333333,4,1,0,40,0,0
7627,-100,4,1,0,40,0,0
10791,-133.333333333333,4,1,0,40,0,0
11377,-100,4,1,0,40,0,0
18291,-133.333333333333,4,1,0,40,0,0
18877,-100,4,1,0,40,0,0
21924,-133.333333333333,4,1,0,40,0,0
22744,-100,4,1,0,40,0,0
25674,-133.333333333333,4,1,0,40,0,0
26377,-100,4,1,0,40,0,0
28017,-100,4,2,0,60,0,0
29541,-133.333333333333,4,1,0,40,0,0
30127,-100,4,1,0,40,0,0
45010,-133.333333333333,4,1,0,40,0,0
48760,-133.333333333333,4,1,0,45,0,0
50635,-133.333333333333,4,1,0,50,0,0
52510,-133.333333333333,4,1,0,55,0,0
54385,-133.333333333333,4,1,0,60,0,0
56260,-133.333333333333,4,1,0,65,0,0
58135,-133.333333333333,4,1,0,80,0,1
59541,-100,4,1,0,40,0,0
60010,-133.333333333333,4,1,0,60,0,1
60127,-133.333333333333,4,1,0,60,0,0
60595,-76.9230769230769,4,1,0,60,0,0
63760,-133.333333333333,4,1,0,60,0,0
64345,-76.9230769230769,4,1,0,60,0,0
67510,-133.333333333333,4,1,0,60,0,0
68095,-76.9230769230769,4,1,0,60,0,0
71260,-133.333333333333,4,1,0,60,0,0
71845,-76.9230769230769,4,1,0,60,0,0
73135,-100,4,1,0,60,0,0
75010,-76.9230769230769,4,1,0,65,0,0
88135,-76.9230769230769,4,1,0,55,0,0
89541,-50,4,2,0,60,0,1
89951,-50,4,2,0,60,0,0
90010,-76.9230769230769,4,1,0,60,0,1
90127,-76.9230769230769,4,1,0,60,0,0
93291,-50,4,1,0,60,0,0
93408,-50,4,2,0,40,0,0
93525,-50,4,1,0,60,0,0
93642,-50,4,2,0,40,0,0
93760,-76.9230769230769,4,1,0,60,0,0
97041,-50,4,1,0,60,0,0
97158,-50,4,2,0,40,0,0
97275,-50,4,1,0,60,0,0
97392,-50,4,2,0,40,0,0
97510,-76.9230769230769,4,1,0,60,0,0
100791,-50,4,1,0,60,0,0
101260,-76.9230769230769,4,1,0,60,0,0
103135,-100,4,1,0,40,0,0
103603,-100,4,1,0,45,0,0
104072,-100,4,1,0,50,0,0
104541,-100,4,1,0,55,0,0
105010,-76.9230769230769,4,1,0,60,0,1
105127,-76.9230769230769,4,1,0,60,0,0
108291,-50,4,1,0,60,0,0
108760,-76.9230769230769,4,1,0,60,0,0
115791,-50,4,1,0,60,0,0
116260,-76.9230769230769,4,1,0,60,0,0
118135,-76.9230769230769,4,1,0,50,0,0
135010,-133.333333333333,4,1,0,30,0,0
138760,-133.333333333333,4,1,0,35,0,0
142510,-100,4,1,0,40,0,0
146260,-100,4,1,0,45,0,0
153760,-100,4,1,0,50,0,0
157510,-100,4,1,0,55,0,0
161260,-100,4,1,0,60,0,0
165010,-100,4,1,0,65,0,0
168760,-100,4,1,0,70,0,0
172510,-100,4,1,0,75,0,0
178135,-76.9230769230769,4,1,0,80,0,1
179541,-50,4,1,0,50,0,0
179892,-50,4,1,0,50,0,0
180010,-76.9230769230769,4,1,0,60,0,1
185517,-76.9230769230769,4,1,0,60,0,0
185635,-50,4,1,0,80,0,1
187392,-50,4,1,0,60,0,0
187510,-76.9230769230769,4,1,0,60,0,1
193135,-76.9230769230769,4,1,0,60,0,0
195010,-76.9230769230769,4,1,0,60,0,1
198291,-50,4,1,0,60,0,1
198760,-76.9230769230769,4,1,0,60,0,1
202041,-50,4,1,0,60,0,1
202510,-76.9230769230769,4,1,0,60,0,1
205791,-50,4,1,0,60,0,1
206260,-76.9230769230769,4,1,0,60,0,1
209541,-50,4,1,0,60,0,1
210010,-76.9230769230769,4,1,0,60,0,0
220791,-50,4,1,0,60,0,0
221260,-76.9230769230769,4,1,0,60,0,0
223135,-76.9230769230769,4,1,0,45,0,0
223603,-76.9230769230769,4,1,0,50,0,0
224072,-76.9230769230769,4,1,0,55,0,0
224541,-76.9230769230769,4,1,0,60,0,0
228291,-50,4,1,0,60,0,0
228760,-76.9230769230769,4,1,0,60,0,0
232041,-50,4,1,0,60,0,0
232510,-76.9230769230769,4,1,0,60,0,0
235791,-50,4,1,0,60,0,0
236260,-76.9230769230769,4,1,0,60,0,0
238135,-76.9230769230769,4,1,0,40,0,0
239775,-76.9230769230769,4,1,0,50,0,0
240010,-100,4,1,0,40,0,0
255010,-100,4,1,0,30,0,0
268135,-100,4,1,0,40,0,0

[Colours]
Combo1 : 115,115,115
Combo2 : 48,1,235
Combo3 : 157,172,255
Combo4 : 183,28,175
Combo5 : 210,167,228

[HitObjects]
68,308,10,38,0,P|126:302|192:300,1,120,4|0,0:0|0:0,0:0:0:0:
204,308,478,2,0,P|208:261|212:228,1,80,0|2,0:0|2:0,0:0:0:0:
336,216,947,1,0,0:0:0:0:
336,216,1064,2,0,P|376:224|420:220,1,80
432,232,1416,1,0,0:0:0:0:
368,108,1650,1,2,2:0:0:0:
368,108,1885,2,0,P|280:96|208:100,1,160
96,156,2588,1,2,2:0:0:0:
8,64,2822,2,0,L|96:56,1,80,0|2,0:0|0:0,0:0:0:0:
96,156,3291,22,0,B|112:204|112:204|96:272,1,120.000004577637,0|0,0:0|0:0,0:0:0:0:
284,336,4111,53,0,0:0:0:0:
284,336,4228,2,0,L|368:328,1,80,0|2,0:0|2:0,0:0:0:0:
488,272,4697,1,0,0:0:0:0:
488,272,4814,1,0,0:0:0:0:
376,200,5049,1,0,0:0:0:0:
376,200,5166,2,0,P|368:164|376:120,1,80,0|2,0:0|2:0,0:0:0:0:
248,88,5635,2,0,L|80:104,1,160
40,232,6338,1,0,0:0:0:0:
40,232,6455,1,0,0:0:0:0:
40,232,6572,2,0,L|128:224,1,80,0|2,0:0|0:0,0:0:0:0:
240,224,7041,6,0,B|224:276|224:276|248:348,1,120.000004577637,4|0,0:0|0:0,0:0:0:0:
248,340,7861,37,0,0:0:0:0:
248,340,7978,2,0,L|336:334,1,80,0|2,0:0|2:0,0:0:0:0:
432,276,8447,1,0,0:0:0:0:
432,276,8564,2,0,P|440:232|432:196,1,80
440,180,8916,1,0,0:0:0:0:
280,72,9150,1,2,2:0:0:0:
280,72,9385,2,0,P|268:132|292:184,1,120
284,200,9853,2,0,L|200:196,1,80,0|2,0:0|2:0,0:0:0:0:
56,248,10322,1,0,0:0:0:0:
60,272,10439,1,0,0:0:0:0:
64,296,10556,1,2,0:0:0:0:
160,192,10791,22,0,B|176:152|176:152|164:72,1,120.000004577637,4|0,0:0|0:0,0:0:0:0:
360,60,11611,53,0,0:0:0:0:
360,60,11728,2,0,P|396:61|444:64,1,80,0|2,0:0|2:0,0:0:0:0:
488,180,12197,1,0,0:0:0:0:
488,180,12314,1,0,0:0:0:0:
368,216,12549,1,0,0:0:0:0:
368,216,12666,2,0,L|276:212,1,80,0|2,0:0|2:0,0:0:0:0:
156,276,13135,2,0,P|145:217|140:156,1,120
132,144,13603,2,0,P|92:152|48:148,1,80,0|2,0:0|2:0,0:0:0:0:
128,40,14072,1,0,0:0:0:0:
152,40,14189,1,0,0:0:0:0:
176,40,14306,1,2,0:0:0:0:
268,108,14541,5,4,2:0:0:0:
488,72,14775,1,2,2:0:0:0:
268,108,15010,6,0,P|260:172|276:232,1,120,4|0,0:0|0:0,0:0:0:0:
272,225,15478,2,0,P|280:272|272:316,1,80,0|2,0:0|2:0,0:0:0:0:
120,256,15947,2,0,P|104:200|116:124,1,120
110,139,16416,2,0,L|192:132,1,80,0|2,0:0|2:0,0:0:0:0:
424,160,16885,2,0,P|436:244|416:324,1,160
308,288,17588,1,2,2:0:0:0:
188,300,17822,1,0,0:0:0:0:
188,300,17939,1,0,0:0:0:0:
188,300,18056,1,2,0:0:0:0:
176,180,18291,54,0,B|184:136|184:136|172:108|172:108|180:64,1,120.000004577637,4|4,0:0|0:0,0:0:0:0:
384,64,19111,21,0,0:0:0:0:
384,64,19228,1,0,0:0:0:0:
372,148,19463,1,2,2:0:0:0:
360,232,19697,2,0,P|364:300|380:352,1,120
336,340,20166,2,0,L|236:328,1,80,0|2,0:0|2:0,0:0:0:0:
68,248,20635,1,0,0:0:0:0:
72,252,20986,1,0,0:0:0:0:
72,252,21103,2,0,B|60:216|60:216|68:168,1,80,0|2,0:0|2:0,0:0:0:0:
248,68,21572,2,0,B|260:104|260:104|252:152,1,80,0|2,0:0|0:0,0:0:0:0:
156,328,22041,38,0,P|228:324|296:320,1,120.000004577637,4|4,0:0|0:0,0:0:0:0:
300,320,22861,5,0,0:0:0:0:
300,320,22978,2,0,P|368:316|392:316,1,80,0|2,0:0|2:0,0:0:0:0:
440,228,23447,2,0,L|448:188,1,40
312,140,23799,2,0,L|320:192,1,40
408,60,24150,1,2,2:0:0:0:
188,112,24385,2,0,L|176:32,2,80,0|2|0,0:0|2:0|0:0,0:0:0:0:
88,176,25088,1,2,2:0:0:0:
88,176,25556,1,2,0:0:0:0:
176,316,25791,54,0,B|236:292|236:292|304:304,1,120.000004577637,4|4,0:0|0:0,0:0:0:0:
452,224,26611,21,0,0:0:0:0:
452,224,26728,2,0,P|460:180|456:136,1,80,0|2,0:0|2:0,0:0:0:0:
276,72,27197,2,0,P|272:136|292:192,1,120
276,216,27666,2,0,P|320:208|372:212,1,80
208,288,28135,1,0,0:0:0:0:
120,232,28369,1,2,0:0:0:0:
124,236,28838,1,2,0:0:0:0:
128,240,29306,1,2,0:0:0:0:
144,108,29541,38,0,L|276:96,1,120.000004577637,0|4,0:0|0:0,0:0:0:0:
424,256,45010,37,4,0:0:0:0:
348,304,45244,2,0,P|324:244|348:128,1,180.000006866455,0|0,0:0|0:0,0:0:0:0:
156,88,46299,1,0,0:0:0:0:
256,48,46533,1,0,0:0:0:0:
256,48,46650,1,8,3:0:0:0:
296,148,46885,1,0,0:0:0:0:
196,192,47119,2,0,P|152:188|104:184,2,90.0000034332277,0|0|0,0:0|0:0|0:0,0:0:0:0:
280,256,48056,1,0,0:0:0:0:
284,260,48760,5,0,0:0:0:0:
372,312,48994,2,0,P|396:256|372:140,1,180.000006866455,0|0,0:0|0:0,0:0:0:0:
176,76,50049,1,0,0:0:0:0:
195,181,50283,1,0,0:0:0:0:
195,181,50400,1,8,3:0:0:0:
277,113,50635,1,0,0:0:0:0:
96,148,50869,2,0,P|47:142|-8:140,2,90.0000034332277
216,204,51806,2,0,P|276:196|335:197,1,120.000004577637,0|0,0:0|2:0,0:0:0:0:
424,244,52510,53,0,0:0:0:0:
340,200,52744,2,0,P|324:148|340:84,1,120.000004577637,0|0,0:0|2:0,0:0:0:0:
196,84,53447,2,0,P|151:85|100:92,1,90.0000034332277
40,216,54033,1,0,0:0:0:0:
40,216,54150,2,0,P|68:216|100:212,1,60.0000022888184,8|0,3:0|0:0,0:0:0:0:
208,252,54619,2,0,L|200:344,2,90.0000034332277
312,228,55556,1,0,0:0:0:0:
316,232,56260,6,0,L|312:164,1,60.0000022888184
248,88,56728,1,0,0:0:0:0:
248,88,56845,1,0,0:0:0:0:
204,188,57080,1,0,0:0:0:0:
204,188,57197,1,0,0:0:0:0:
136,104,57431,1,0,0:0:0:0:
100,208,57666,1,0,0:0:0:0:
95,231,57783,1,0,0:0:0:0:
95,254,57900,1,0,0:0:0:0:
100,277,58017,1,0,0:0:0:0:
121,308,58135,54,0,L|103:332,17,20.0000007629395,0|0|0|0|0|0|0|0|0|0|0|0|0|0|0|0|0|0,0:0|2:0|0:0|2:0|0:0|2:0|0:0|2:0|0:0|2:0|0:0|2:0|0:0|2:0|0:0|2:0|0:0|2:0,0:0:0:0:
141,319,59541,2,0,P|206:312|273:311,1,120,4|0,2:0|2:0,0:0:0:0:
344,344,60010,22,2,B|404:312|404:312|432:256,1,120.000004577637,6|0,0:0|0:0,0:0:0:0:
368,100,60713,5,2,0:0:0:0:
368,100,60830,2,0,P|304:60|224:72,1,155.999992858887,0|0,0:0|0:0,0:0:0:0:
188,224,61416,2,2,P|244:208|276:172,1,103.999995239258,2|0,0:0|0:0,0:0:0:0:
72,168,61885,2,2,P|60:276|132:340,1,207.999990478516,2|0,0:0|0:0,0:0:0:0:
248,312,62588,1,2,0:0:0:0:
248,312,62705,2,0,L|420:296,1,155.999992858887
440,148,63291,2,0,B|456:100|456:100|444:44,1,103.999995239258,2|0,0:0|0:0,0:0:0:0:
284,104,63760,54,2,B|272:164|272:164|300:228,1,120.000004577637,6|0,0:0|0:0,0:0:0:0:
248,312,64463,21,2,0:0:0:0:
248,312,64580,2,0,P|172:288|108:232,1,155.999992858887
48,112,65166,2,0,L|100:116|152:120,1,103.999995239258,2|0,0:0|0:0,0:0:0:0:
440,64,65635,2,2,P|456:168|376:216,1,207.999990478516,2|0,0:0|0:0,0:0:0:0:
352,116,66338,1,2,0:0:0:0:
352,116,66455,2,0,L|504:180,1,155.999992858887
288,312,67041,2,0,L|184:268,1,103.999995239258,2|0,0:0|0:0,0:0:0:0:
56,108,67510,38,2,B|64:152|64:152|56:180|56:180|72:224,1,120.000004577637,6|0,1:0|0:0,0:0:0:0:
212,176,68213,5,2,0:0:0:0:
212,176,68330,2,0,P|288:160|360:108,1,155.999992858887
436,224,68916,2,0,P|440:280|420:336,1,103.999995239258,2|0,0:0|0:0,0:0:0:0:
236,272,69385,2,2,P|212:172|236:72,1,207.999990478516,2|0,0:0|0:0,0:0:0:0:
296,172,70088,1,2,0:0:0:0:
296,172,70205,2,0,L|132:164,1,155.999992858887
320,328,70791,2,0,L|432:332,1,103.999995239258,2|0,0:0|0:0,0:0:0:0:
448,188,71260,54,2,B|464:136|464:136|444:60,1,120.000004577637,6|0,0:0|0:0,0:0:0:0:
264,56,71963,21,2,0:0:0:0:
264,56,72080,2,0,B|228:76|192:52|192:52|164:80|112:76,1,155.999992858887
48,172,72666,1,2,0:0:0:0:
64,276,72900,1,0,0:0:0:0:
164,260,73135,54,0,L|252:252,1,80
344,308,73603,1,4,2:0:0:0:
364,304,73720,1,0,0:0:0:0:
384,300,73838,1,0,0:0:0:0:
456,68,74072,2,0,L|364:56,1,80
268,88,74541,1,4,2:0:0:0:
248,84,74658,1,0,0:0:0:0:
228,80,74775,1,0,0:0:0:0:
116,120,75010,22,2,B|104:192|104:192|132:272,1,155.999992858887,4|0,0:0|0:0,0:0:0:0:
124,292,75478,1,0,0:0:0:0:
240,328,75713,1,8,0:0:0:0:
240,328,75830,2,0,P|308:300|388:320,1,155.999992858887,0|0,0:0|0:0,0:0:0:0:
456,224,76416,2,2,L|476:68,1,155.999992858887,0|0,0:0|2:0,0:0:0:0:
352,48,76885,6,2,L|332:204,1,155.999992858887,4|0,0:0|0:0,0:0:0:0:
320,216,77353,1,0,0:0:0:0:
208,280,77588,1,8,0:0:0:0:
208,280,77705,2,0,B|168:264|168:264|108:276,1,103.999995239258,0|0,0:0|0:0,0:0:0:0:
20,200,78056,2,0,L|124:180,1,103.999995239258,0|2,0:0|0:0,0:0:0:0:
248,164,78525,1,2,0:0:0:0:
268,176,78642,1,0,0:0:0:0:
288,188,78760,54,2,B|324:144|324:144|312:44,1,155.999992858887,4|0,0:0|0:0,0:0:0:0:
312,45,79228,1,0,0:0:0:0:
172,28,79463,1,8,0:0:0:0:
172,28,79580,1,0,0:0:0:0:
148,168,79814,1,0,0:0:0:0:
148,168,79931,1,0,0:0:0:0:
288,188,80166,2,2,P|360:204|436:168,1,155.999992858887,0|0,0:0|2:0,0:0:0:0:
432,171,80635,6,2,L|416:328,1,155.999992858887,4|0,0:0|0:0,0:0:0:0:
416,326,81103,1,0,0:0:0:0:
236,308,81338,1,8,0:0:0:0:
236,308,81455,2,0,L|124:320,1,103.999995239258,0|0,0:0|0:0,0:0:0:0:
40,232,81806,2,0,L|144:220,1,103.999995239258,0|8,0:0|0:0,0:0:0:0:
356,188,82275,1,8,0:0:0:0:
148,220,82510,54,2,P|124:144|144:64,1,155.999992858887,4|0,0:0|0:0,0:0:0:0:
132,56,82978,1,0,0:0:0:0:
280,96,83213,1,8,0:0:0:0:
280,96,83330,2,0,B|328:68|328:68|436:80,1,155.999992858887
380,336,83916,2,2,B|344:256|344:256|356:184,1,155.999992858887,0|0,0:0|2:0,0:0:0:0:
240,208,84385,6,2,P|172:172|96:184,1,155.999992858887,4|0,0:0|0:0,0:0:0:0:
96,183,84853,1,0,0:0:0:0:
4,100,85088,1,8,0:0:0:0:
4,100,85205,1,0,0:0:0:0:
124,60,85439,1,0,0:0:0:0:
124,60,85556,1,0,0:0:0:0:
248,96,85791,2,2,L|352:88,1,103.999995239258,0|8,0:0|0:0,0:0:0:0:
368,80,86142,1,0,0:0:0:0:
384,72,86260,54,2,P|368:152|396:228,1,155.999992858887,4|0,0:0|0:0,0:0:0:0:
384,240,86728,1,0,0:0:0:0:
280,332,86963,1,8,0:0:0:0:
280,332,87080,2,0,B|244:312|244:312|176:328,1,103.999995239258
96,256,87431,2,0,L|200:232,1,103.999995239258,0|4,0:0|0:0,0:0:0:0:
312,200,87900,1,0,0:0:0:0:
197,232,88135,5,4,3:0:0:0:
169,188,88252,1,4,3:0:0:0:
161,136,88369,1,4,3:0:0:0:
171,85,88486,1,4,3:0:0:0:
196,39,88603,1,4,3:0:0:0:
424,130,88838,53,4,3:0:0:0:
452,174,88955,1,4,3:0:0:0:
460,226,89072,1,4,3:0:0:0:
450,277,89189,1,4,3:0:0:0:
425,323,89306,1,4,3:0:0:0:
264,320,89541,22,2,L|144:329,1,120,2|0,0:1|0:0,0:1:0:0:
48,196,89775,2,2,L|168:187,1,120,2|0,0:1|0:0,0:1:0:0:
348,224,90010,6,2,P|376:144|336:40,1,155.999992858887,4|0,0:0|0:0,0:0:0:0:
348,56,90478,1,0,0:0:0:0:
184,84,90713,1,10,0:0:0:0:
184,84,90830,2,0,L|40:92,1,103.999995239258,0|0,0:0|0:0,0:0:0:0:
56,92,91181,1,0,0:0:0:0:
244,232,91416,2,0,L|348:224,1,103.999995239258,2|0,0:0|0:0,0:0:0:0:
476,88,91885,2,2,B|460:144|460:144|472:180|472:180|448:260,1,155.999992858887,2|0,0:0|0:0,0:0:0:0:
452,260,92353,1,0,0:0:0:0:
300,324,92588,1,10,0:0:0:0:
300,324,92705,2,0,B|264:288|264:288|196:284,1,103.999995239258,0|0,0:0|0:0,0:0:0:0:
192,296,93056,1,0,0:0:0:0:
56,184,93291,54,0,P|40:128|52:68,1,120,2|0,0:0|0:0,0:0:0:0:
208,136,93525,2,0,P|220:196|204:252,1,120,2|0,0:0|0:0,0:0:0:0:
148,328,93760,22,2,P|216:292|296:304,1,155.999992858887,6|0,0:0|0:0,0:0:0:0:
364,264,94228,2,0,L|476:272,1,103.999995239258,0|8,0:0|0:0,0:0:0:0:
460,188,94580,2,0,P|476:136|448:56,1,103.999995239258,0|0,0:0|0:0,0:0:0:0:
460,68,94931,1,0,0:0:0:0:
296,56,95166,2,2,L|188:48,1,103.999995239258,2|0,0:0|0:0,0:0:0:0:
76,140,95635,2,0,P|120:208|92:292,1,155.999992858887,6|0,0:0|0:0,0:0:0:0:
112,296,96103,1,0,0:0:0:0:
272,348,96338,1,10,0:0:0:0:
272,348,96455,2,0,L|416:328,1,103.999995239258,0|0,0:0|0:0,0:0:0:0:
400,332,96806,1,0,0:0:0:0:
428,180,97041,38,0,P|440:124|424:60,1,120,2|0,0:0|0:0,0:0:0:0:
316,128,97275,2,0,P|304:184|320:248,1,120,2|0,0:0|0:0,0:0:0:0:
380,316,97510,6,2,P|320:276|224:284,1,155.999992858887,6|0,0:0|0:0,0:0:0:0:
224,292,97978,1,0,0:0:0:0:
88,228,98213,1,10,0:0:0:0:
88,228,98330,1,0,0:0:0:0:
72,100,98564,1,0,0:0:0:0:
72,100,98681,1,0,0:0:0:0:
200,84,98916,2,0,L|304:72,1,103.999995239258,2|0,0:0|0:0,0:0:0:0:
476,228,99385,2,2,L|372:220,1,103.999995239258,2|0,0:0|0:0,0:0:0:0:
132,320,99853,2,0,L|256:308,1,103.999995239258,0|10,0:0|0:0,0:0:0:0:
248,324,100205,2,0,P|232:276|252:212,1,103.999995239258,0|0,0:0|0:0,0:0:0:0:
260,208,100556,1,0,0:0:0:0:
384,56,100791,54,2,B|392:68|392:68|376:80|376:80|400:84|400:84|384:96|384:96|396:104|396:104|380:112|380:112|404:120|404:120|388:128|388:128|404:136|404:136|384:144|384:144|408:152|408:152|396:160|396:160|400:172,1,240,2|0,0:0|0:0,0:0:0:0:
400,192,101260,22,2,P|336:156|252:168,1,155.999992858887,6|0,0:0|0:0,0:0:0:0:
240,180,101728,1,0,0:0:0:0:
64,152,101963,1,10,0:0:0:0:
64,152,102080,2,0,P|44:104|60:40,1,103.999995239258,0|0,0:0|0:0,0:0:0:0:
68,40,102431,1,0,0:0:0:0:
204,200,102666,2,2,P|216:248|188:312,1,103.999995239258,2|0,0:0|0:0,0:0:0:0:
360,328,103135,53,0,0:0:0:0:
368,332,103252,1,0,0:0:0:0:
376,336,103369,1,0,0:0:0:0:
384,340,103486,1,0,0:0:0:0:
428,256,103603,5,0,0:0:0:0:
436,260,103720,1,0,0:0:0:0:
444,264,103838,1,0,0:0:0:0:
452,268,103955,1,0,0:0:0:0:
356,160,104072,53,0,0:0:0:0:
364,164,104189,1,0,0:0:0:0:
372,168,104306,1,0,0:0:0:0:
380,172,104424,1,0,0:0:0:0:
436,100,104541,5,0,0:0:0:0:
444,104,104658,1,0,0:0:0:0:
452,108,104775,1,0,0:0:0:0:
460,112,104892,1,0,0:0:0:0:
316,52,105010,6,2,B|260:32|260:32|160:64,1,155.999992858887,4|0,0:0|0:0,0:0:0:0:
168,61,105478,1,0,0:0:0:0:
48,176,105713,1,8,0:0:0:0:
48,176,105830,2,0,P|32:124|48:76,1,103.999995239258
46,78,106181,1,0,0:0:0:0:
188,184,106416,2,2,P|204:236|188:284,1,103.999995239258,0|0,0:0|2:0,0:0:0:0:
116,236,106885,6,2,L|272:236,1,155.999992858887,4|0,0:0|0:0,0:0:0:0:
284,244,107353,1,0,0:0:0:0:
372,332,107588,1,8,0:0:0:0:
372,332,107705,1,8,0:0:0:0:
472,256,107939,1,0,0:0:0:0:
472,256,108056,1,0,0:0:0:0:
384,160,108291,6,2,P|378:97|372:40,1,120,0|0,0:0|2:0,0:0:0:0:
264,28,108525,2,2,P|268:84|276:148,1,120,0|0,0:0|2:0,0:0:0:0:
208,236,108760,38,2,P|136:208|56:224,1,155.999992858887,4|0,0:0|0:0,0:0:0:0:
60,221,109228,1,0,0:0:0:0:
124,328,109463,1,8,0:0:0:0:
124,328,109580,1,0,0:0:0:0:
244,348,109814,1,0,0:0:0:0:
244,348,109931,1,0,0:0:0:0:
368,320,110166,2,2,P|412:304|476:312,1,103.999995239258,0|0,0:0|2:0,0:0:0:0:
468,309,110635,6,2,B|496:252|496:252|476:152,1,155.999992858887,4|0,0:0|0:0,0:0:0:0:
477,161,111103,1,0,0:0:0:0:
364,64,111338,1,8,0:0:0:0:
364,64,111455,2,0,P|412:52|464:64,1,103.999995239258,8|0,0:0|0:0,0:0:0:0:
348,164,111806,2,0,P|300:176|248:164,1,103.999995239258,0|8,0:0|0:0,0:0:0:0:
60,104,112275,1,8,0:0:0:0:
248,164,112510,54,2,B|272:240|272:240|240:364,1,207.999990478516,4|0,0:0|0:0,0:0:0:0:
136,292,113213,1,8,0:0:0:0:
136,292,113330,2,0,L|32:280,1,103.999995239258
32,280,113681,1,0,0:0:0:0:
116,76,113916,2,2,P|124:128|108:176,1,103.999995239258,0|0,0:0|2:0,0:0:0:0:
240,80,114385,6,2,B|308:72|308:72|364:96|364:96|444:88,1,207.999990478516,4|0,0:0|0:0,0:0:0:0:
400,308,115088,1,8,0:0:0:0:
400,308,115205,2,0,P|388:260|404:208,1,103.999995239258,8|0,0:0|0:0,0:0:0:0:
403,208,115556,1,0,0:0:0:0:
272,216,115791,6,2,B|254:205|254:205|240:219|240:219|223:209|223:209|208:222|208:222|191:212|191:212|176:226|176:226|159:215|159:215|144:229|144:229|127:219|127:219|112:232|112:232|91:222|91:222|73:236,1,240,0|0,0:0|0:0,0:0:0:0:
68,248,116260,38,2,P|36:172|56:96,1,155.999992858887,4|0,0:0|0:0,0:0:0:0:
44,88,116728,1,0,0:0:0:0:
212,56,116963,1,8,0:0:0:0:
212,56,117080,2,0,L|316:64,1,103.999995239258
360,180,117431,2,0,L|256:172,1,103.999995239258
152,232,117900,1,0,0:0:0:0:
48,180,118135,6,0,L|44:148,4,25.9999988098145,2|0|0|0|0,0:0|0:0|0:0|2:0|0:0,0:0:0:0:
256,192,118486,12,4,120010,0:0:0:0:
72,100,135010,22,0,P|144:88|200:84,1,120.000004577637
384,64,135947,2,0,P|388:124|360:188,1,120.000004577637
264,328,136885,2,0,P|200:320|124:312,1,120.000004577637,0|0,0:0|0:0,0:0:0:0:
152,236,137588,2,0,P|216:244|292:252,1,120.000004577637,2|2,0:0|0:0,0:0:0:0:
336,296,138291,1,0,0:0:0:0:
340,300,138760,6,0,P|352:244|348:180,1,120.000004577637
176,96,139697,2,0,P|116:76|72:40,1,120.000004577637
40,224,140635,2,0,P|48:284|60:344,1,120.000004577637
144,328,141338,2,0,P|136:268|124:208,1,120.000004577637,2|2,0:0|0:0,0:0:0:0:
72,148,142041,1,0,0:0:0:0:
76,152,142510,54,0,P|64:108|68:64,1,80
160,56,142978,1,0,0:0:0:0:
160,56,143095,2,0,L|292:44,1,120
364,52,143681,1,0,0:0:0:0:
364,52,143799,1,0,0:0:0:0:
448,60,144033,1,0,0:0:0:0:
428,184,144385,2,0,P|432:264|400:344,1,160
416,352,145088,2,0,B|352:336|352:336|324:340|324:340|236:320,1,160,2|2,1:0|1:0,0:0:0:0:
176,304,145791,1,0,0:0:0:0:
180,308,146260,6,0,L|92:312,1,80
136,220,146728,1,0,0:0:0:0:
136,220,146845,2,0,L|260:212,1,120
340,212,147431,1,2,2:0:0:0:
340,212,147549,1,0,0:0:0:0:
424,208,147783,1,0,0:0:0:0:
256,192,148135,12,4,150010,0:0:0:0:
112,60,150478,5,0,0:0:0:0:
112,60,150595,2,0,P|108:120|120:180,1,120
144,336,151181,1,0,0:0:0:0:
144,336,151299,1,0,0:0:0:0:
48,272,151533,1,0,0:0:0:0:
48,272,151650,1,8,3:0:0:0:
212,244,151885,6,0,P|253:241|296:240,1,80,0|0,0:0|0:0,0:0:0:0:
432,272,152353,2,0,P|436:312|424:360,1,80,4|0,2:0|0:0,0:0:0:0:
312,224,152822,1,0,0:0:0:0:
312,224,153056,2,0,B|292:176|292:176|312:68,1,160
476,144,153760,54,0,L|392:148,1,80
184,172,154228,1,0,0:0:0:0:
184,172,154345,2,0,P|124:152|68:160,1,120
116,260,154931,1,0,0:0:0:0:
116,260,155049,1,0,0:0:0:0:
188,344,155283,1,0,0:0:0:0:
188,344,155400,1,8,3:0:0:0:
256,252,155635,6,0,L|340:244,1,80
436,328,156103,2,0,L|396:334,2,40,4|0|0,2:0|0:0|0:0,0:0:0:0:
444,228,156572,1,0,0:0:0:0:
444,228,156806,2,0,P|464:148|436:76,1,160
332,120,157510,54,0,L|248:128,1,80,4|0,0:0|0:0,0:0:0:0:
88,160,157978,1,0,0:0:0:0:
88,160,158095,2,0,B|68:116|68:116|80:40,1,120
200,196,158681,1,0,0:0:0:0:
200,196,158799,1,0,0:0:0:0:
160,308,159033,1,0,0:0:0:0:
160,308,159150,1,8,3:0:0:0:
280,284,159385,6,0,L|360:280,1,80
416,172,159853,2,0,L|336:176,1,80,4|0,2:0|0:0,0:0:0:0:
200,196,160322,1,0,0:0:0:0:
72,224,160556,2,0,P|44:152|64:72,1,160
152,112,161260,53,4,0:0:0:0:
144,24,161494,1,0,0:0:0:0:
232,56,161728,1,0,0:0:0:0:
232,56,161845,2,0,L|352:48,1,120
476,100,162431,2,0,L|468:148,1,40
368,200,162783,2,0,L|360:140,1,40,0|8,0:0|3:0,0:0:0:0:
360,296,163135,5,0,0:0:0:0:
264,332,163369,1,0,0:0:0:0:
228,236,163603,1,4,2:0:0:0:
324,200,163837,1,0,0:0:0:0:
160,312,164072,1,0,0:0:0:0:
128,308,164189,1,0,0:0:0:0:
96,304,164306,1,0,0:0:0:0:
64,300,164424,1,0,0:0:0:0:
64,300,165010,21,4,0:0:0:0:
24,216,165244,1,0,0:0:0:0:
88,148,165478,1,0,0:0:0:0:
88,148,165595,2,0,P|144:124|184:76,1,120
264,36,166181,1,0,0:0:0:0:
264,36,166299,1,0,0:0:0:0:
340,92,166533,1,0,0:0:0:0:
344,96,166885,6,0,L|440:88,1,80
264,284,167353,2,0,L|168:292,1,80
88,148,167822,2,0,L|184:140,1,80
452,212,168290,2,0,L|356:220,1,80
264,284,168760,53,4,0:0:0:0:
176,292,168994,1,0,0:0:0:0:
84,300,169228,1,0,0:0:0:0:
84,300,169345,2,0,P|76:240|80:168,1,120
72,88,169931,1,0,0:0:0:0:
72,88,170049,1,0,0:0:0:0:
164,84,170283,1,0,0:0:0:0:
168,88,170635,6,0,P|160:48|164:8,1,80
360,120,171103,2,0,P|368:160|364:200,1,80
224,296,171572,2,0,P|216:256|220:216,1,80
476,264,172041,2,0,P|484:304|480:344,1,80
376,344,172510,53,4,0:0:0:0:
320,264,172744,1,0,0:0:0:0:
224,296,172978,1,0,0:0:0:0:
224,296,173095,2,0,P|160:280|96:240,1,120
96,168,173681,1,0,0:0:0:0:
96,168,173799,1,0,0:0:0:0:
80,84,174033,1,0,0:0:0:0:
84,88,174385,5,0,0:0:0:0:
176,76,174619,1,0,0:0:0:0:
276,156,174853,53,0,0:0:0:0:
184,168,175087,1,0,0:0:0:0:
268,64,175322,5,0,0:0:0:0:
360,52,175556,1,0,0:0:0:0:
464,136,175791,53,0,0:0:0:0:
372,148,176025,1,0,0:0:0:0:
388,324,176260,5,0,0:0:0:0:
368,320,176377,1,0,0:0:0:0:
348,316,176494,1,0,0:0:0:0:
328,312,176611,1,0,0:0:0:0:
308,308,176728,1,0,0:0:0:0:
288,304,176845,1,0,0:0:0:0:
268,300,176963,1,0,0:0:0:0:
248,296,177080,1,0,0:0:0:0:
228,292,177197,1,0,0:0:0:0:
208,288,177314,1,0,0:0:0:0:
188,284,177431,1,0,0:0:0:0:
168,280,177549,1,0,0:0:0:0:
148,276,177666,1,0,0:0:0:0:
128,272,177783,1,0,0:0:0:0:
108,268,177900,1,0,0:0:0:0:
88,264,178017,1,0,0:0:0:0:
68,260,178135,54,0,L|60:184,1,69.3333301595054,4|0,0:0|0:0,0:0:0:0:
52,108,178447,1,0,0:0:0:0:
216,36,178603,6,0,L|208:108,1,69.3333301595054,4|0,0:0|0:0,0:0:0:0:
200,204,178916,1,0,0:0:0:0:
356,288,179072,54,0,L|348:212,1,69.3333301595054,4|0,0:0|0:0,0:0:0:0:
336,100,179385,1,0,0:0:0:0:
460,48,179541,54,2,B|468:60|468:60|452:72|452:72|476:76|476:76|460:88|460:88|472:96|472:96|456:104|456:104|480:112|480:112|464:120|464:120|480:128|480:128|460:136|460:136|484:144|484:144|472:152|472:152|476:164,1,240,2|0,0:0|0:0,0:0:0:0:
484,188,180010,38,2,P|408:168|332:184,1,155.999992858887,4|0,0:0|0:0,0:0:0:0:
320,196,180478,2,2,L|332:312,1,103.999995239258,0|8,0:0|0:0,0:0:0:0:
236,348,180830,2,0,L|224:228,1,103.999995239258,0|0,0:0|0:0,0:0:0:0:
216,232,181181,1,0,0:0:0:0:
16,168,181416,2,2,B|80:180|80:180|168:148,1,155.999992858887,0|0,0:0|2:0,0:0:0:0:
112,72,181885,6,2,B|200:40|200:40|280:44,1,155.999992858887,4|0,0:0|0:0,0:0:0:0:
276,56,182353,1,0,0:0:0:0:
456,148,182588,1,8,0:0:0:0:
456,148,182705,2,0,P|464:200|448:248,1,103.999995239258,0|0,0:0|0:0,0:0:0:0:
360,152,183056,2,0,P|352:100|372:52,1,103.999995239258,0|6,0:0|0:0,0:0:0:0:
328,248,183525,1,2,0:0:0:0:
312,260,183642,1,0,0:0:0:0:
296,272,183760,54,2,L|140:256,1,155.999992858887,4|0,0:0|0:0,0:0:0:0:
16,176,184228,2,2,L|120:160,1,103.999995239258,0|8,0:0|0:0,0:0:0:0:
240,168,184580,2,0,P|228:124|240:68,1,103.999995239258
240,67,184931,1,0,0:0:0:0:
496,92,185166,2,2,L|336:116,1,155.999992858887,0|0,0:0|2:0,0:0:0:0:
376,208,185635,22,0,B|364:252|364:252|376:284|376:284|364:332,1,120,4|0,0:0|2:0,0:0:0:0:
366,323,185869,2,2,P|292:296|212:312,1,160,2|0,0:0|0:0,0:0:0:0:
172,332,186220,1,0,0:0:0:0:
128,316,186338,1,0,0:0:0:0:
84,296,186455,1,0,0:0:0:0:
40,276,186572,2,2,B|68:224|68:224|48:124,1,160,6|0,0:0|0:0,0:0:0:0:
80,88,186924,1,0,0:0:0:0:
116,56,187041,2,2,L|236:64,1,120,6|0,0:0|2:0,0:0:0:0:
184,160,187275,2,0,L|304:168,1,120,4|0,0:0|2:0,0:0:0:0:
304,168,187510,38,2,P|284:248|312:320,1,155.999992858887,4|0,0:0|0:0,0:0:0:0:
512,220,187978,2,2,L|408:212,1,103.999995239258,0|8,0:0|0:0,0:0:0:0:
400,196,188330,2,0,P|416:144|408:96,1,103.999995239258
407,95,188681,1,0,0:0:0:0:
300,64,188916,2,2,B|248:68|248:68|196:52|196:52|144:56,1,155.999992858887,0|0,0:0|2:0,0:0:0:0:
68,124,189385,6,2,L|84:280,1,155.999992858887,4|0,0:0|0:0,0:0:0:0:
76,296,189853,1,0,0:0:0:0:
196,348,190088,1,8,0:0:0:0:
196,348,190205,1,0,0:0:0:0:
204,228,190439,1,0,0:0:0:0:
204,228,190556,1,0,0:0:0:0:
324,280,190791,2,2,B|372:256|372:256|476:268,1,155.999992858887,0|0,0:0|2:0,0:0:0:0:
473,267,191260,54,2,P|500:192|472:124,1,155.999992858887,4|0,0:0|0:0,0:0:0:0:
472,124,191728,1,0,0:0:0:0:
360,48,191963,1,8,0:0:0:0:
360,48,192080,2,0,L|256:60,1,103.999995239258
248,72,192431,1,0,0:0:0:0:
40,164,192666,2,2,P|116:148|184:180,1,155.999992858887,0|0,0:0|2:0,0:0:0:0:
272,264,193135,5,0,0:0:0:0:
276,268,193369,1,0,0:0:0:0:
392,220,193603,1,4,2:0:0:0:
388,224,193838,1,0,0:0:0:0:
240,144,194072,1,0,0:0:0:0:
244,148,194306,1,0,0:0:0:0:
400,80,194541,1,4,2:0:0:0:
396,88,194775,1,0,0:0:0:0:
56,44,195010,22,2,P|48:128|80:204,1,155.999992858887,6|0,0:0|0:0,0:0:0:0:
68,216,195478,1,0,0:0:0:0:
184,340,195713,1,10,0:0:0:0:
184,340,195830,2,0,L|328:328,1,103.999995239258,0|0,0:0|0:0,0:0:0:0:
312,332,196181,1,0,0:0:0:0:
444,264,196416,2,0,P|456:208|444:152,1,103.999995239258,2|0,0:0|0:0,0:0:0:0:
460,140,196767,1,0,0:0:0:0:
472,116,196885,2,2,B|404:96|404:96|348:20,1,155.999992858887,6|0,0:0|0:0,0:0:0:0:
328,36,197353,1,0,0:0:0:0:
168,88,197588,1,10,0:0:0:0:
168,88,197705,2,0,L|64:96,1,103.999995239258
40,100,198056,1,0,0:0:0:0:
256,160,198291,54,2,B|308:132|308:132|384:144,1,120,6|0,0:0|0:0,0:0:0:0:
320,312,198525,2,2,B|268:340|268:340|192:328,1,120,6|0,0:0|0:0,0:0:0:0:
80,216,198760,22,2,B|52:144|52:144|80:32,1,155.999992858887,6|0,0:0|0:0,0:0:0:0:
92,72,199228,1,0,0:0:0:0:
336,88,199463,1,10,0:0:0:0:
336,88,199580,2,0,P|384:68|448:80,1,103.999995239258
448,92,199931,1,0,0:0:0:0:
268,288,200166,2,2,P|196:320|108:304,1,155.999992858887,2|0,0:0|0:0,0:0:0:0:
84,332,200635,2,2,B|76:272|76:272|52:240|52:240|44:168,1,155.999992858887,6|0,0:0|0:0,0:0:0:0:
52,164,201103,1,0,0:0:0:0:
180,124,201338,1,8,0:0:0:0:
180,124,201455,2,0,B|216:88|216:88|220:24,1,103.999995239258,0|0,0:0|0:0,0:0:0:0:
240,40,201806,1,0,0:0:0:0:
452,48,202041,38,0,P|378:38|298:28,1,120,6|0,0:0|2:0,0:0:0:0:
348,144,202275,2,0,P|422:154|502:164,1,120,2|0,1:0|2:0,0:0:0:0:
468,184,202510,6,2,P|476:260|412:328,1,155.999992858887,6|0,0:0|0:0,0:0:0:0:
360,268,202978,2,0,P|316:248|252:264,1,103.999995239258,0|8,0:0|0:0,0:0:0:0:
204,324,203330,2,0,P|248:344|312:328,1,103.999995239258,0|0,0:0|0:0,0:0:0:0:
324,340,203681,1,0,0:0:0:0:
144,184,203916,2,0,L|16:192,1,103.999995239258,2|0,0:0|0:0,0:0:0:0:
216,76,204385,2,2,B|276:68|276:68|312:84|312:84|396:72,1,155.999992858887,6|0,0:0|0:0,0:0:0:0:
380,100,204853,1,0,0:0:0:0:
460,204,205088,1,10,0:0:0:0:
460,204,205205,2,0,P|468:256|444:308,1,103.999995239258
440,320,205556,1,0,0:0:0:0:
264,284,205791,54,2,B|251:291|251:291|240:275|240:275|235:299|235:299|224:282|224:282|215:294|215:294|208:278|208:278|199:301|199:301|191:285|191:285|183:301|183:301|176:280|176:280|167:304|167:304|159:292|159:292|147:295,1,240,2|0,0:0|0:0,0:0:0:0:
120,316,206260,22,2,P|92:240|124:144,1,155.999992858887,6|0,0:0|0:0,0:0:0:0:
144,92,206728,2,0,L|248:80,1,103.999995239258,0|8,0:0|0:0,0:0:0:0:
300,164,207080,2,0,L|196:176,1,103.999995239258,0|0,0:0|0:0,0:0:0:0:
172,180,207431,1,0,0:0:0:0:
460,156,207666,2,2,P|468:212|436:264,1,103.999995239258,2|0,0:0|0:0,0:0:0:0:
335,330,208135,53,4,0:0:0:0:
296,303,208252,1,0,0:0:0:0:
251,288,208369,1,0,2:0:0:0:
204,289,208486,1,0,0:0:0:0:
158,300,208603,1,0,0:0:0:0:
86,38,208838,5,4,0:0:0:0:
59,77,208955,1,0,0:0:0:0:
44,122,209072,1,0,2:0:0:0:
45,169,209189,1,0,0:0:0:0:
56,215,209306,1,0,0:0:0:0:
60,220,209541,38,2,B|140:248|228:224|268:140,1,240,2|0,0:0|0:0,0:0:0:0:
284,100,210010,38,0,B|332:124|332:124|440:112,1,155.999992858887,4|0,0:0|0:0,0:0:0:0:
433,112,210478,1,0,0:0:0:0:
408,232,210713,1,8,0:0:0:0:
408,232,210830,2,0,P|420:284|400:340,1,103.999995239258
392,348,211181,1,0,0:0:0:0:
140,304,211416,2,2,B|192:272|192:272|300:288,1,155.999992858887,0|0,0:0|2:0,0:0:0:0:
285,285,211885,5,4,0:0:0:0:
320,168,212119,1,0,0:0:0:0:
292,168,212236,1,0,0:0:0:0:
264,168,212353,1,0,0:0:0:0:
96,188,212588,1,8,0:0:0:0:
96,188,212705,2,0,P|80:140|92:88,1,103.999995239258,0|0,0:0|0:0,0:0:0:0:
84,72,213056,2,0,L|188:72,1,103.999995239258,0|2,0:0|0:0,0:0:0:0:
420,56,213525,1,2,0:0:0:0:
420,56,213642,1,0,0:0:0:0:
420,56,213760,54,0,B|408:112|408:112|428:152|428:152|416:208,1,155.999992858887,4|0,0:0|0:0,0:0:0:0:
428,224,214228,1,0,0:0:0:0:
328,320,214463,1,8,0:0:0:0:
328,320,214580,1,0,0:0:0:0:
464,356,214814,1,0,0:0:0:0:
464,356,214931,1,0,0:0:0:0:
316,300,215166,2,2,L|160:312,1,155.999992858887,0|0,0:0|2:0,0:0:0:0:
144,324,215635,6,0,P|116:252|132:176,1,155.999992858887,4|0,0:0|0:0,0:0:0:0:
131,176,216103,1,0,0:0:0:0:
84,60,216338,1,8,0:0:0:0:
84,60,216455,2,0,L|192:52,1,103.999995239258,0|0,0:0|0:0,0:0:0:0:
204,72,216806,2,0,L|312:64,1,103.999995239258,0|8,0:0|0:0,0:0:0:0:
480,116,217275,1,8,0:0:0:0:
308,64,217510,54,0,P|288:140|320:216,1,155.999992858887,4|0,0:0|0:0,0:0:0:0:
308,228,217978,1,0,0:0:0:0:
408,336,218213,1,8,0:0:0:0:
408,336,218330,2,0,L|420:232,1,103.999995239258
419,232,218681,1,0,0:0:0:0:
208,248,218916,2,2,L|196:352,1,103.999995239258,0|0,0:0|2:0,0:0:0:0:
76,272,219385,6,0,B|56:224|56:224|72:120,1,155.999992858887,4|0,0:0|0:0,0:0:0:0:
64,104,219853,2,0,L|168:96,1,103.999995239258,0|8,0:0|0:0,0:0:0:0:
167,96,220205,1,0,0:0:0:0:
312,32,220439,1,0,0:0:0:0:
312,32,220556,1,0,0:0:0:0:
476,76,220791,6,2,B|461:89|461:89|477:108|477:108|454:124|454:124|466:143|466:143|442:163|442:163|460:174|460:174|437:190|437:190,1,160,2|0,0:0|0:0,0:0:0:0:
432,192,221142,1,0,0:0:0:0:
415,204,221260,38,0,P|336:188|260:216,1,155.999992858887,4|0,0:0|0:0,0:0:0:0:
267,210,221728,1,0,0:0:0:0:
136,280,221963,1,8,0:0:0:0:
136,280,222080,1,0,0:0:0:0:
20,208,222314,1,0,0:0:0:0:
20,208,222431,1,0,0:0:0:0:
136,280,222666,2,2,B|160:232|160:232|148:128,1,155.999992858887,0|0,0:0|2:0,0:0:0:0:
236,52,223135,5,4,0:0:0:0:
248,52,223252,1,0,0:0:0:0:
260,52,223369,1,0,0:0:0:0:
272,52,223486,1,0,0:0:0:0:
272,148,223603,53,4,2:0:0:0:
292,148,223720,1,0,0:0:0:0:
312,148,223838,1,0,0:0:0:0:
332,148,223955,1,0,0:0:0:0:
316,244,224072,5,4,0:0:0:0:
328,244,224189,1,0,0:0:0:0:
340,244,224306,1,0,0:0:0:0:
352,244,224424,1,0,0:0:0:0:
356,336,224541,53,4,2:0:0:0:
376,336,224658,1,0,0:0:0:0:
396,336,224776,1,0,0:0:0:0:
416,336,224893,1,0,0:0:0:0:
436,336,225010,38,2,P|452:260|432:184,1,155.999992858887,6|0,0:0|0:0,0:0:0:0:
440,164,225478,1,0,0:0:0:0:
384,52,225713,1,10,0:0:0:0:
384,52,225830,2,0,L|220:44,1,155.999992858887,0|0,0:0|0:0,0:0:0:0:
84,88,226416,2,0,B|92:152|92:152|112:172|112:172|124:256,1,155.999992858887,2|0,0:0|0:0,0:0:0:0:
104,260,226885,2,2,P|164:248|208:248,1,103.999995239258,6|0,0:0|0:0,0:0:0:0:
432,328,227353,2,0,P|372:340|328:340,1,103.999995239258,0|10,0:0|0:0,0:0:0:0:
304,336,227705,1,0,0:0:0:0:
232,232,227939,1,0,0:0:0:0:
224,208,228056,1,0,0:0:0:0:
216,184,228174,1,0,0:0:0:0:
208,160,228291,54,0,L|76:176,1,120,2|0,0:0|2:0,0:0:0:0:
140,60,228525,2,0,L|272:44,1,120,2|0,0:0|2:0,0:0:0:0:
432,56,228760,22,2,P|444:140|404:204,1,155.999992858887,6|0,0:0|0:0,0:0:0:0:
420,220,229228,1,0,0:0:0:0:
336,336,229463,1,10,0:0:0:0:
336,336,229580,2,0,L|172:328,1,155.999992858887,0|0,0:0|0:0,0:0:0:0:
68,256,230166,2,0,B|44:184|44:184|64:104,1,155.999992858887,2|0,0:0|0:0,0:0:0:0:
63,106,230635,2,2,L|168:100,1,103.999995239258,6|0,0:0|0:0,0:0:0:0:
376,232,231103,2,0,L|271:225,1,103.999995239258,0|10,0:0|0:0,0:0:0:0:
272,225,231455,2,0,P|256:148|276:76,1,155.999992858887,0|0,0:0|0:0,0:0:0:0:
468,180,232041,38,0,P|476:248|448:320,1,120,2|0,0:0|2:0,0:0:0:0:
376,340,232275,2,0,P|316:336|252:332,1,120,2|0,0:0|2:0,0:0:0:0:
160,324,232510,5,6,0:0:0:0:
44,52,232861,1,0,0:0:0:0:
52,68,232978,1,0,0:0:0:0:
180,64,233213,1,10,0:0:0:0:
188,80,233330,2,0,L|344:68,1,155.999992858887,0|0,0:0|0:0,0:0:0:0:
472,104,233916,1,2,0:0:0:0:
472,104,234033,1,0,0:0:0:0:
472,104,234150,1,0,0:0:0:0:
376,172,234385,2,2,P|340:272|400:356,1,207.999990478516,2|0,0:0|0:0,0:0:0:0:
424,260,235088,1,10,0:0:0:0:
424,260,235205,2,0,L|264:272,1,155.999992858887,0|0,0:0|0:0,0:0:0:0:
136,332,235791,54,2,B|125:320|125:320|133:298|133:298|119:284|119:284|127:267|127:267|112:253|112:253|121:235|121:235|106:221|106:221|115:203|115:203|100:190|100:190|109:172|109:172|94:159|94:159|103:140,1,240,2|0,0:0|0:0,0:0:0:0:
80,112,236260,22,2,P|164:92|216:36,1,155.999992858887,6|0,0:0|0:0,0:0:0:0:
228,60,236728,1,0,0:0:0:0:
320,144,236963,1,10,0:0:0:0:
320,144,237080,2,0,L|480:128,1,155.999992858887,0|0,0:0|0:0,0:0:0:0:
344,280,237666,2,0,L|236:288,1,103.999995239258,2|0,0:0|0:0,0:0:0:0:
48,176,238135,37,4,0:0:0:0:
88,36,238369,1,2,2:0:0:0:
200,140,238603,1,0,0:0:0:0:
456,184,238955,1,0,0:0:0:0:
452,204,239072,1,4,2:0:0:0:
364,300,239306,2,0,L|356:332,4,25.9999988098145
240,248,239775,2,0,L|248:216,3,25.9999988098145
240,248,240010,38,0,P|252:176|252:120,1,120,4|0,0:0|0:0,0:0:0:0:
236,112,240478,2,0,L|156:116,1,80,0|4,0:0|2:0,0:0:0:0:
312,40,240947,2,0,L|432:32,1,120
444,48,241416,2,0,P|452:88|444:132,1,80,0|2,0:0|2:0,0:0:0:0:
352,304,241885,2,0,P|336:244|344:188,1,120
332,172,242353,1,0,0:0:0:0:
200,224,242588,1,4,2:0:0:0:
144,100,242822,1,0,0:0:0:0:
144,100,242939,1,0,0:0:0:0:
276,48,243174,1,0,0:0:0:0:
276,48,243291,1,0,0:0:0:0:
200,224,243525,1,0,0:0:0:0:
200,224,243642,1,0,0:0:0:0:
200,224,243760,6,0,P|139:216|80:216,1,120
68,224,244228,2,0,P|63:179|56:144,1,80,0|4,0:0|2:0,0:0:0:0:
232,108,244697,1,0,0:0:0:0:
232,108,244814,2,0,P|272:113|312:116,1,80
332,120,245166,1,0,0:0:0:0:
464,80,245400,1,2,2:0:0:0:
464,216,245635,2,0,B|472:268|472:268|446:334,1,120
447,330,246103,1,0,0:0:0:0:
336,296,246338,1,2,2:0:0:0:
220,328,246572,1,0,0:0:0:0:
192,311,246689,1,0,0:0:0:0:
161,302,246806,1,0,0:0:0:0:
128,301,246924,1,0,0:0:0:0:
96,305,247041,1,0,0:0:0:0:
92,308,247275,1,2,2:0:0:0:
88,312,247510,54,0,P|72:260|80:196,1,120
76,180,247978,2,0,P|84:140|80:100,1,80,0|4,0:0|2:0,0:0:0:0:
192,60,248447,2,0,L|320:52,1,120
324,68,248916,2,0,L|408:61,1,80,0|2,0:0|2:0,0:0:0:0:
440,168,249385,2,0,B|436:224|436:224|412:260|412:260|408:320,1,160
496,296,250088,1,4,2:0:0:0:
340,200,250322,1,0,0:0:0:0:
340,200,250439,1,0,0:0:0:0:
256,344,250674,1,0,0:0:0:0:
256,344,250791,1,0,0:0:0:0:
372,312,251025,1,2,2:0:0:0:
216,232,251260,6,0,P|154:228|96:224,1,120
76,232,251728,2,0,L|68:148,1,80,0|4,0:0|2:0,0:0:0:0:
108,40,252197,1,0,0:0:0:0:
108,40,252314,1,0,0:0:0:0:
216,56,252549,1,0,0:0:0:0:
216,56,252666,2,0,L|224:144,1,80,0|2,0:0|2:0,0:0:0:0:
328,188,253135,2,0,B|372:172|372:172|452:192,1,120
442,189,253603,1,0,0:0:0:0:
352,292,253838,1,2,2:0:0:0:
244,256,254072,1,0,0:0:0:0:
226,228,254189,1,0,0:0:0:0:
218,197,254306,1,0,0:0:0:0:
228,164,254424,1,0,0:0:0:0:
244,132,254541,1,0,0:0:0:0:
252,28,254775,1,2,2:0:0:0:
228,32,254892,1,0,0:0:0:0:
204,36,255010,22,0,P|140:32|72:28,1,120,4|0,0:0|0:0,0:0:0:0:
104,64,255478,2,0,L|24:60,1,80,0|4,0:0|2:0,0:0:0:0:
120,164,255947,1,0,0:0:0:0:
120,164,256064,2,0,L|200:168,2,80
216,68,256767,1,0,0:0:0:0:
216,68,256885,2,0,L|308:72,1,80
452,264,257353,2,0,L|360:260,1,80,0|4,0:0|2:0,0:0:0:0:
220,316,257822,1,0,0:0:0:0:
212,296,257939,1,0,0:0:0:0:
208,272,258056,1,0,0:0:0:0:
208,248,258174,1,0,0:0:0:0:
212,224,258291,2,0,P|208:180|216:140,1,80,4|0,2:0|0:0,0:0:0:0:
364,216,258760,6,0,P|368:276|344:348,1,120
351,333,259228,2,0,L|448:324,1,80,0|4,0:0|2:0,0:0:0:0:
256,284,259697,1,0,0:0:0:0:
256,284,259814,2,0,L|159:293,1,80
60,264,260283,1,0,0:0:0:0:
92,160,260517,1,0,0:0:0:0:
92,160,260635,2,0,P|80:124|84:76,1,80
272,128,261103,2,0,P|272:192|252:252,1,120
256,284,261572,2,0,P|300:276|340:272,1,80
448,264,262041,1,4,2:0:0:0:
448,264,262158,1,0,0:0:0:0:
448,264,262275,1,0,0:0:0:0:
400,156,262510,54,0,P|408:100|404:28,1,120
405,36,262978,2,0,L|312:32,1,80,0|4,0:0|2:0,0:0:0:0:
256,108,263447,1,0,0:0:0:0:
256,108,263564,1,0,0:0:0:0:
152,88,263799,1,0,0:0:0:0:
152,88,263916,1,0,0:0:0:0:
220,16,264150,1,2,2:0:0:0:
364,136,264385,2,0,P|372:200|352:264,1,120
356,280,264853,2,0,P|392:268|444:264,1,80,0|4,0:0|2:0,0:0:0:0:
256,332,265322,2,0,P|212:324|180:308,1,80
72,120,265791,2,0,B|80:164|80:164|72:188|72:188|84:240,1,120,4|0,2:0|0:0,0:0:0:0:
96,264,266260,5,0,0:0:0:0:
216,252,266494,1,0,0:0:0:0:
200,132,266728,1,0,0:0:0:0:
80,144,266963,1,4,2:0:0:0:
232,280,267197,2,0,L|360:264,1,120
368,280,267666,2,0,P|376:236|372:196,1,80,0|2,0:0|2:0,0:0:0:0:
444,108,268135,53,0,0:0:0:0:
420,104,268252,1,0,0:0:0:0:
396,100,268369,1,0,0:0:0:0:
372,96,268486,1,0,0:0:0:0:
348,92,268603,1,0,0:0:0:0:
324,88,268720,1,0,0:0:0:0:
300,84,268838,1,0,0:0:0:0:
276,80,268955,1,0,0:0:0:0:
252,76,269072,1,0,0:0:0:0:
228,72,269189,1,0,0:0:0:0:
204,68,269306,1,0,0:0:0:0:
180,64,269424,1,0,0:0:0:0:
156,60,269541,1,0,0:0:0:0:
132,56,269658,1,0,0:0:0:0:
108,52,269775,1,0,0:0:0:0:
84,48,269892,1,0,0:0:0:0:
