osu file format v5

[General]
AudioFilename: Newton - Streamline.mp3
AudioLeadIn: 0
PreviewTime: -1
Countdown: 1
SampleSet: Normal
StackLeniency: 0.7
Mode: 0
LetterboxInBreaks: 1
EditorBookmarks: 12974,25768,51356,57753,64350,76944,89738,115326,128720,153708

[Metadata]
Title:Streamline
Artist:Newton
Creator:Gens
Version:Normal
Source:
Tags:pepsi streamline commercial coke newton gens

[Difficulty]
HPDrainRate:5
CircleSize:4
OverallDifficulty:5
SliderMultiplier:0.9
SliderTickRate:2

[Events]
//Background and Video events
0,0,"Pepsi_Cola.jpg"
//Break Periods
2,38361,50155
2,102518,114418
2,141052,152746
//Storyboard Layer 0 (Background)
//Storyboard Layer 1 (Failing)
//Storyboard Layer 2 (Passing)
//Storyboard Layer 3 (Foreground)
//Storyboard Sound Samples
//Background Colour Transformations
3,100,163,162,255

[TimingPoints]
170,399.813420403812,4,1,1,50,1

[Colours]
Combo1 : 255,255,255
Combo2 : 0,17,168
Combo3 : 132,0,3

[HitObjects]
96,96,12964,5,6
160,96,13363,1,0
224,96,13763,1,0
288,96,14163,1,0
352,96,14563,1,0
416,96,14963,1,0
416,160,15362,1,0
352,160,15762,1,0
288,160,16162,5,8
224,160,16562,1,0
160,160,16962,1,0
96,160,17361,1,0
96,224,17761,1,0
160,224,18161,1,0
224,224,18561,1,0
288,224,18961,1,0
352,224,19361,5,6
416,224,19760,1,0
416,288,20160,1,0
352,288,20560,1,0
288,288,20960,1,0
224,288,21360,1,0
160,288,21759,1,8
96,288,22159,1,0
96,224,22559,6,4,L|96:32|401:33|400:176,1,630,0|4
368,312,25758,6,0,L|368:200,1,90
304,224,26557,2,0,L|192:224,2,90,0|8|0
304,160,27757,1,0
304,96,28156,1,6
240,96,28556,1,0
176,96,28956,6,0,L|176:208,1,90
176,248,29756,2,0,L|288:248,3,90,0|8|0|8
328,248,31355,1,4
328,184,31755,1,8
264,184,32155,5,0
200,184,32554,1,8
136,184,32954,2,8,L|136:296,1,90,0|8
200,272,33754,1,0
264,272,34154,2,0,L|264:160,2,90,8|6|8
328,272,35353,1,0
328,208,35753,1,8
328,144,36153,2,0,L|328:32,1,90,0|8
264,56,36952,6,8,L|152:56,3,90,6|8|6|8
256,192,51346,5,4
256,192,52745,1,4
256,192,52945,1,4
256,192,54544,1,4
256,192,55943,1,4
256,192,56143,1,4
288,96,57743,5,0
352,96,58142,1,0
352,160,58542,1,2
288,160,58942,1,4
224,160,59342,5,0
224,96,59742,1,0
160,96,60142,1,2
160,160,60541,1,4
160,224,60941,5,0
160,288,61341,1,0
224,288,61741,1,2
224,224,62141,1,4
288,224,62540,5,0
352,224,62940,1,0
352,288,63340,1,2
288,288,63740,1,4
256,192,64140,5,0
256,192,64340,1,0
256,192,64739,1,0
176,192,65139,1,4
176,192,65339,1,4
176,192,65539,1,4
256,192,65939,1,0
256,192,66339,1,0
256,192,66738,1,0
256,192,67138,1,0
256,192,67538,5,0
256,192,67938,1,0
336,192,68338,1,4
336,192,68538,1,4
336,192,68738,1,4
256,192,69137,1,0
256,192,69537,1,0
256,192,69937,1,0
256,192,70337,1,0
256,192,70737,5,0
256,192,71136,1,0
256,272,71536,1,4
256,272,71736,1,4
256,272,71936,1,4
256,192,72336,1,0
256,192,72736,1,0
256,192,73135,1,0
256,192,73535,1,0
256,192,73935,5,0
256,192,74335,1,0
256,112,74735,1,4
256,112,74935,1,4
256,112,75135,1,4
256,192,75534,1,0
256,192,75934,1,0
256,192,76334,1,0
256,192,76734,1,0
256,152,76934,6,0,L|392:152,2,135,0|4|0
192,152,78533,2,0,L|192:296,2,135,0|4|0
192,88,80132,2,0,L|344:88,2,135,0|4|0
192,24,81731,2,0,L|304:24,3,90,0|4|0|4
344,24,83331,6,0,L|344:168,2,135,0|4|0
280,24,84930,2,0,L|136:24,2,135,0|4|0
280,88,86529,2,0,L|280:240,2,135,0|4|0
216,88,88128,6,4,L|160:88,3,45
176,152,88928,2,4,L|176:208,3,45
184,160,89728,5,2
264,160,90128,1,4
264,160,90327,1,4
264,224,90527,1,0
264,224,90727,1,0
328,224,90927,1,6
328,224,91127,1,4
328,160,91327,1,4
328,160,91527,1,0
328,80,91927,1,6
248,80,92326,5,0
248,80,92526,1,8
248,80,92726,1,0
184,80,92926,1,6
88,80,93326,1,0
88,80,93526,1,0
88,144,93726,1,4
88,144,93926,1,0
88,208,94126,1,12
88,208,94326,1,4
88,272,94525,1,6
88,272,94725,1,2
176,272,95125,1,4
256,272,95525,5,4
256,272,95725,1,8
256,272,95925,1,4
320,272,96125,5,2
320,176,96525,1,4
320,176,96724,1,4
320,112,96924,1,0
320,112,97124,1,0
256,112,97324,1,6
256,112,97524,1,4
256,176,97724,1,0
256,176,97924,1,4
256,264,98324,1,6
256,352,98724,5,0
256,352,98923,1,8
256,352,99123,1,0
320,352,99323,1,6
424,352,99723,1,4
424,352,99923,1,0
424,288,100123,1,4
424,288,100323,1,4
424,224,100523,1,8
424,224,100723,1,4
424,160,100922,1,6
424,160,101122,1,2
344,160,101522,1,4
256,160,101922,5,4
256,160,102122,1,8
256,160,102322,1,4
96,144,115316,6,0,L|96:256,3,90,0|4|0|12
160,232,116915,2,0,L|160:120,3,90,0|4|0|12
224,144,118514,2,0,L|224:256,3,90,0|4|0|12
288,232,120114,2,0,L|288:120,3,90,0|4|0|12
352,144,121713,6,0,L|352:256,3,90,0|4|0|12
416,232,123312,2,0,L|416:120,3,90,0|4|0|12
256,192,124911,12,8,127710
256,192,128310,5,2
256,192,128710,1,2
256,192,129109,1,2
256,192,129509,1,2
256,192,129909,1,2
256,192,130309,1,2
256,192,130709,1,2
320,192,131108,1,6
320,128,131508,5,2
320,128,131908,1,2
320,128,132308,1,2
320,128,132708,1,2
320,128,133107,1,2
320,128,133507,1,2
320,128,133907,1,2
256,128,134307,1,6
256,192,134707,5,2
256,192,135107,1,2
256,192,135506,1,2
256,192,135906,1,2
256,192,136306,1,2
256,192,136706,1,2
256,192,137106,1,2
192,192,137505,1,6
256,192,137705,12,14,140904
256,192,153698,6,0,L|192:192,3,45
136,192,154697,1,4
136,192,155297,1,4
256,192,156896,6,0,L|320:192,3,45
376,192,157896,1,4
376,192,158496,1,4
376,192,159295,1,4
256,192,160095,6,0,L|144:192,1,90
168,224,160695,2,0,L|266:224,1,90,0|4
256,128,161694,1,4
256,192,163293,6,0,L|352:192,1,90
344,160,163893,2,0,L|246:160,1,90
256,264,164893,1,4
256,192,165292,12,14,166492
