osu file format v5

[General]
AudioFilename: Newton - Streamline.mp3
AudioLeadIn: 0
PreviewTime: -1
Countdown: 1
SampleSet: Normal
StackLeniency: 0.7
Mode: 0
LetterboxInBreaks: 1
EditorBookmarks: 12974,25768,51356,57753,64350,76944,89738,115326,128720,153708

[Metadata]
Title:Streamline
Artist:Newton
Creator:Gens
Version:Easy
Source:
Tags:pepsi streamline commercial coke newton gens

[Difficulty]
HPDrainRate:3
CircleSize:4
OverallDifficulty:4
SliderMultiplier:0.8
SliderTickRate:1

[Events]
//Background and Video events
0,0,"Pepsi_Cola.jpg"
//Break Periods
2,38299,49974
2,102518,114418
2,141052,152746
//Storyboard Layer 0 (Background)
//Storyboard Layer 1 (Failing)
//Storyboard Layer 2 (Passing)
//Storyboard Layer 3 (Foreground)
//Storyboard Sound Samples
//Background Colour Transformations
3,100,137,136,255

[TimingPoints]
170,399.813420403812,4,1,1,50,1

[Colours]
Combo1 : 255,255,255
Combo2 : 0,9,117
Combo3 : 159,0,4

[HitObjects]
136,152,12964,5,6
216,152,13763,1,0
296,152,14563,1,0
376,152,15362,1,0
376,232,16162,1,8
296,232,16962,1,0
216,232,17761,1,0
136,232,18561,1,0
136,152,19361,5,6
216,152,20160,1,0
296,152,20960,1,0
376,152,21759,1,0
456,152,22559,2,4,L|136:152|136:312,1,480,0|4
368,336,25758,6,0,L|368:176,2,160,0|4|0
288,336,28156,1,10
208,336,28956,6,0,L|208:160,2,160,0|4|0
128,336,31355,1,10
128,256,32155,5,0
128,176,32954,2,8,L|288:176,1,160,4|0
328,176,34154,2,4,L|328:336,1,160,0|10
408,336,35353,5,0
408,240,36153,2,0,L|408:144,1,80,0|8
408,128,36952,6,8,L|312:128,3,80,6|4|6|4
256,192,51346,5,4
256,192,52945,1,4
256,192,54544,1,4
256,192,56143,1,4
336,248,57743,6,4,B|168:248,3,160,4|4|4|12
176,152,60941,6,4,L|344:152,3,160,4|4|4|12
256,192,64140,5,0
256,192,64340,1,0
256,192,64739,1,0
176,192,65139,1,4
176,192,65539,1,4
256,192,65939,1,0
256,192,66339,1,0
336,192,66738,1,4
336,192,67138,1,4
256,192,67538,5,0
256,192,67938,1,0
176,192,68338,1,4
176,192,68738,1,4
256,192,69137,1,0
256,192,69537,1,0
336,192,69937,1,4
336,192,70337,1,4
256,192,70737,5,0
256,192,71136,1,0
256,272,71536,1,4
256,272,71936,1,4
256,192,72336,1,0
256,192,72736,1,0
256,112,73135,1,4
256,112,73535,1,4
256,192,73935,5,0
256,192,74335,1,0
256,112,74735,1,4
256,112,75135,1,4
256,192,75534,1,0
256,192,75934,1,0
256,272,76334,1,4
256,272,76734,1,4
224,192,77134,6,0,L|304:192,10,80
224,80,81731,2,0,L|352:80,2,120,4|0|4
152,80,83331,6,0,L|152:256,4,160
192,80,86929,2,4,L|272:80,2,80
192,160,88128,6,4,L|272:160,1,80
352,160,88928,2,4,B|448:160,1,80
416,232,89728,5,6
336,232,90128,1,4
256,232,90527,1,4
176,232,90927,1,6
96,232,91327,1,4
256,312,91927,1,6
136,312,92526,5,8
96,232,92926,1,4
176,232,93326,1,4
256,232,93726,1,4
336,232,94126,1,6
416,232,94525,1,4
256,312,95125,1,0
136,312,95725,1,8
96,232,96125,5,6
176,232,96525,1,4
256,232,96924,1,4
336,232,97324,1,6
416,232,97724,1,4
256,312,98324,1,6
376,312,98923,5,8
416,232,99323,1,4
336,232,99723,1,4
256,232,100123,1,4
176,232,100523,1,6
96,232,100922,1,4
256,312,101522,1,0
256,176,102122,1,6
96,192,115316,6,0,L|424:192,2,320
416,192,120114,6,0,L|96:192,3,320
256,192,125311,12,2,128310
256,192,129109,5,2
256,192,129909,1,2
256,192,130709,1,2
184,264,131508,5,2
184,264,132308,1,2
184,264,133107,1,2
184,264,133907,1,2
256,192,134707,5,2
256,192,135506,1,2
256,192,136306,1,2
256,192,137106,1,2
256,192,137705,12,12,140904
256,312,153698,6,0,L|256:176,1,120
256,192,154697,2,0,L|256:56,1,120,8|4
256,72,156896,6,0,L|256:208,1,120
256,192,157896,2,0,L|256:328,1,120,8|4
176,192,160095,5,0
256,192,160695,1,8
368,192,161694,1,4
256,192,163193,12,4,166492
