osu file format v5

[General]
AudioFilename: 106_new_order-bizarre_love_triangle.mp3
AudioLeadIn: 0
PreviewTime: 8792
Countdown: 1
SampleSet: Normal
StackLeniency: 0.7
Mode: 0
LetterboxInBreaks: 1
EditorBookmarks: 34610,35369
EditorDistanceSpacing: 0

[Metadata]
Title:Bizarre Love Triangle
Artist:New Order
Creator:fufe
Version:Normal
Source:
Tags:

[Difficulty]
HPDrainRate:6
CircleSize:4
OverallDifficulty:4
SliderMultiplier:1.4
SliderTickRate:0.5

[Events]
//Background and Video events
0,0,"BIZARRE LOVE TRIANGLE-bg copy.png"
//Break Periods
2,39629,47746
2,80895,87999
2,120768,128759
//Storyboard Layer 0 (Background)
//Storyboard Layer 1 (Failing)
//Storyboard Layer 2 (Passing)
//Storyboard Layer 3 (Foreground)
//Storyboard Sound Samples
//Background Colour Transformations
3,100,163,162,255

[TimingPoints]
6265,506.329113924051,4,1,0,70,1,0

[HitObjects]
160,192,6264,5,0
160,192,6391,1,0
160,192,6518,1,0
208,128,6771,1,4
256,192,7024,1,0
256,192,7151,1,0
304,256,7404,1,4
352,192,7657,1,0
352,192,7783,1,0
352,192,7910,1,0
352,192,8037,1,4
144,80,8796,6,2,B|132:146|175:144,1,70,0|2
320,144,9556,1,0
320,304,10062,2,2,B|304:352|144:352,1,175,0|2
160,240,11075,1,0
160,160,11328,1,0
240,160,11581,5,0
320,160,11834,1,0
320,80,12087,1,0
400,80,12340,1,2
240,80,12847,1,2
80,80,13353,1,2
80,240,13859,5,0
80,160,14113,1,0
160,160,14366,1,2
240,160,14619,1,0
368,80,15125,1,2
432,304,15885,5,8
352,288,16138,1,8
272,304,16391,2,2,B|192:304,1,70
128,288,16897,1,8
48,304,17151,1,4
48,144,17657,5,0
48,144,17910,1,8
128,160,18163,1,8
208,144,18416,2,2,B|304:144,1,70
352,160,18923,1,8
432,144,19176,1,4
256,296,20442,6,0,B|256:200,1,70,0|8
256,144,20948,1,0
256,64,21201,1,8
336,192,21708,1,8
256,192,21961,1,0
176,192,22214,1,8
176,336,22720,1,8
256,336,22973,1,0
336,336,23227,1,8
448,48,24999,5,0
384,96,25252,1,0
224,96,25758,1,0
64,96,26264,1,0
224,96,26771,1,0
224,96,27024,2,0,B|304:96,2,70,0|2|4
448,320,28290,5,0
368,320,28543,1,8
368,240,28796,1,0
288,240,29049,1,8
288,160,29302,1,0
208,160,29556,1,8
48,160,30062,1,2
48,320,30568,1,8
128,320,30821,1,8
288,320,31328,1,4
176,64,31834,5,8
256,32,32087,1,8
320,80,32340,1,8
336,160,32594,2,4,B|377:158|400:208,2,70
336,240,33353,2,2,B|336:288|320:336|256:343,1,140,2|10
181,337,34113,1,8
112,288,34366,1,8
64,224,34619,2,4,B|32:208|32:160,2,70,4|4|4
112,160,35378,2,2,B|112:112|128:64|192:64,1,140
256,240,36391,5,8
240,320,36644,2,0,B|288:336|320:304,1,70,0|8
448,240,37404,1,8
307,314,37910,1,8
144,304,38416,1,8
80,208,38923,1,8
64,128,39176,1,0
144,144,39429,1,12
256,192,48796,6,0,C|304:176|320:128|368:112|384:64|432:48|464:64,2,280,4|0|4
176,192,51075,5,0
176,272,51328,1,0
256,272,51581,1,0
336,272,51834,1,0
336,192,52087,1,0
336,112,52340,1,0
256,112,52594,1,4
256,192,52847,6,0,C|208:208|192:256|144:272|128:320|80:336|48:320,2,280,4|0|4
336,192,55125,5,0
336,112,55378,1,0
256,112,55632,1,0
176,112,55885,1,0
176,192,56138,1,0
176,272,56391,1,0
256,272,56644,1,4
256,192,56897,6,0,B|318:266|371:191,1,140
256,80,57910,1,8
256,80,58163,1,8
256,192,58670,2,0,B|194:118|141:193,1,140
142,191,59682,2,2,B|144:272|192:272|176:336,1,140
256,192,60695,5,8
304,256,60948,1,4
304,96,61454,1,2
432,192,61961,1,8
480,256,62214,1,4
480,96,62720,1,2
304,96,63227,1,2
128,96,63733,1,2
416,192,64746,5,8
416,192,64999,1,8
320,304,65505,1,0
224,192,66011,1,8
224,192,66265,1,8
320,80,66771,1,0
416,192,67277,1,8
320,80,67783,1,8
224,192,68290,1,8
128,304,68796,1,4
96,80,69556,5,8
176,80,69809,1,8
176,160,70062,1,8
256,160,70315,1,8
416,160,70821,1,4
416,320,71328,1,4
256,320,71834,1,4
256,192,72847,5,2
336,192,73100,5,0
416,192,73353,1,0
416,112,73606,1,0
416,32,73859,1,0
416,32,73986,1,0
336,32,74239,1,0
336,32,74366,1,0
256,32,74619,1,2
80,32,75125,5,0
80,112,75378,1,0
80,192,75632,1,0
80,272,75885,1,0
80,272,76011,1,0
160,272,76265,1,0
160,272,76391,1,0
160,192,76644,1,2
288,272,77151,5,0
288,352,77404,1,0
368,352,77657,1,0
368,272,77910,1,0
368,272,78037,1,0
368,192,78290,1,0
368,192,78416,1,0
448,192,78670,1,2
384,48,79176,5,0
304,48,79429,1,0
224,48,79682,1,0
224,128,79935,1,0
224,128,80062,1,0
224,208,80315,1,0
224,208,80442,1,0
304,208,80695,1,2
256,192,89049,5,2
32,192,89809,5,8
80,256,90062,1,4
80,96,90568,1,0
208,192,91075,1,0
352,192,91581,1,8
400,256,91834,1,4
400,96,92340,1,0
256,304,93606,5,8
256,224,93859,1,4
217,74,94366,1,8
297,74,94619,1,4
256,304,95378,1,8
256,224,95632,1,4
255,29,96138,1,2
128,112,96644,5,0
96,176,96897,1,0
128,240,97151,1,0
192,272,97404,2,0,B|208:304|272:304,3,70,0|0|0|2
384,272,98670,5,0
416,208,98923,1,0
384,144,99176,1,0
320,112,99429,2,0,B|304:80|240:80,3,70,0|0|0|2
256,240,100695,5,8
176,240,100948,1,8
176,320,101201,1,8
96,320,101454,1,8
96,240,101708,2,0,B|64:208|64:128|100:112,1,140,0|4
256,96,102720,2,8,B|320:96|336:64,2,70
256,240,103733,2,4,B|208:256|144:192,2,105
336,192,106011,5,2
256,192,106265,1,8
103,214,106771,2,0,B|8:192|110:174,2,105
256,192,108037,1,8
336,192,108290,1,2
80,288,109809,5,2
160,288,110062,2,0,C|160:240|208:240|208:176,1,140,8|0
336,288,111075,2,0,C|336:240|288:240|288:176,1,140,0|8
247,132,111834,1,2
248,285,112340,1,4
404,286,112847,6,0,C|404:206,1,70,0|8
404,216,113353,2,0,C|324:216,1,70
334,216,113859,2,0,C|334:138,1,70,0|8
334,146,114366,2,0,C|178:146,1,140
126,147,115125,5,8
126,147,115378,2,0,C|46:147,1,70
56,147,115885,2,0,C|56:227,1,70,0|8
56,217,116391,2,0,C|202:217,1,140,0|4
336,272,117404,5,0
288,336,117657,1,8
240,272,117910,1,8
288,128,118416,1,2
240,272,118923,1,8
288,336,119176,1,8
336,272,119429,1,0
336,112,119935,1,8
224,112,120315,2,0,C|128:112,1,70,0|4
64,320,129809,6,0,C|112:320|112:272,1,70,8|0
176,256,130315,2,0,C|224:256|224:208,1,70
288,192,130821,2,0,C|336:192|336:144,1,70,8|0
400,128,131328,2,0,C|448:128|448:80,1,70,0|0
400,48,131834,6,0,C|304:48,1,70,8|0
272,96,132340,1,0
208,48,132594,1,0
144,96,132847,2,0,C|64:96,1,70,8|0
32,160,133353,1,0
74,224,133606,1,0
256,192,133859,12,4,137404
256,192,137910,6,0,B|194:266|141:191,1,140
256,80,138923,1,8
256,80,139176,1,8
256,192,139682,2,0,B|318:118|371:193,1,140
370,191,140695,2,2,B|368:272|320:272|336:336,1,140
256,192,141708,5,8
208,256,141961,1,4
208,96,142467,1,2
80,192,142973,1,8
32,256,143227,1,4
32,96,143733,1,2
208,96,144239,1,2
384,96,144746,1,2
96,192,145758,5,8
96,192,146011,1,8
192,304,146518,1,0
288,192,147024,1,8
288,192,147277,1,8
192,80,147783,1,0
96,192,148290,1,8
192,80,148796,1,8
288,192,149302,1,8
384,304,149809,1,4
416,80,150568,5,0
336,80,150821,1,0
336,160,151075,1,0
256,160,151328,1,0
96,160,151834,1,0
96,320,152340,1,0
256,320,152847,1,0
48,320,154113,6,0,B|110:394|163:319,1,140
256,192,155125,1,10
256,192,155378,1,10
178,58,155885,2,2,B|112:0|64:48|29:95|80:144,1,210,0|0
128,192,156897,2,2,B|209:194|209:242|272:224,1,140
400,176,157910,5,8
224,32,158670,1,8
288,80,158923,1,8
224,128,159176,1,8
288,176,159429,1,8
256,320,159935,1,4
96,320,160442,1,4
96,160,160948,1,4
432,192,161961,5,8
432,192,162214,1,8
336,304,162720,1,0
176,304,163227,1,8
176,304,163480,1,8
80,192,163986,1,0
176,80,164492,1,8
336,80,164999,1,8
432,192,165505,1,8
336,304,166011,1,4
160,160,166771,5,8
208,224,167024,1,0
256,160,167277,1,8
304,224,167530,1,0
160,160,168037,1,2
304,224,168543,1,2
160,160,169049,1,2
256,192,169302,12,4,170315
96,96,170821,5,0
256,96,171328,1,0
256,176,171581,1,0
336,176,171834,1,0
416,320,172594,5,0
416,320,172847,1,0
256,320,173353,1,0
256,240,173606,1,0
176,240,173859,1,0
400,208,174619,6,0,C|400:112,1,70
240,144,175378,2,0,C|144:144,1,70
240,144,175885,1,0
96,176,176644,6,0,C|96:272,1,70
256,240,177404,2,0,C|352:240,1,70
256,240,177910,1,0
256,240,178163,1,0
256,240,178416,1,4
