osu file format v5

[General]
AudioFilename: 106_new_order-bizarre_love_triangle.mp3
AudioLeadIn: 0
PreviewTime: 8793
Countdown: 1
SampleSet: Normal
StackLeniency: 0.7
Mode: 0
LetterboxInBreaks: 1
EditorBookmarks: 34610,35369,37657,60302,116368,131809,143706
EditorDistanceSpacing: 1.20000004768372

[Metadata]
Title:Bizarre Love Triangle
Artist:New Order
Creator:fufe
Version:Hard
Source:
Tags:

[Difficulty]
HPDrainRate:8
CircleSize:5
OverallDifficulty:6
SliderMultiplier:1.7
SliderTickRate:0.5

[Events]
//Background and Video events
0,0,"BIZARRE LOVE TRIANGLE-bg copy.png"
//Break Periods
2,40642,47746
2,80895,87999
2,121654,128759
//Storyboard Layer 0 (Background)
//Storyboard Layer 1 (Failing)
//Storyboard Layer 2 (Passing)
//Storyboard Layer 3 (Foreground)
//Storyboard Sound Samples
//Background Colour Transformations
3,100,163,162,255

[TimingPoints]
6265,506.329113924051,4,1,0,70,1,0

[HitObjects]
96,192,6264,5,0
96,192,6391,1,0
96,192,6518,1,0
176,112,6771,1,4
256,192,7024,1,0
256,192,7151,1,0
336,272,7404,1,4
336,272,7530,1,0
336,272,7657,1,0
336,272,7783,1,0
336,272,7910,1,0
336,272,8037,1,4
336,272,8163,1,4
224,80,8796,6,2,B|212:146|272:144,1,85,0|2
352,144,9302,1,0
448,144,9556,1,0
432,176,9682,1,0
416,208,9809,1,0
336,272,10062,2,2,B|294:310|206:310|171:268,1,170,0|2
112,208,10821,1,0
48,144,11075,1,0
32,176,11201,1,0
16,208,11328,1,0
64,288,11581,5,0
112,208,11834,1,0
96,176,11961,1,0
80,144,12087,1,0
144,80,12340,2,2,B|255:189,1,127.5
234,170,12847,2,2,B|271:45,1,127.5,2|2
270,48,13353,2,2,B|119:86,1,127.5
146,79,13859,5,2
146,79,13986,1,0
146,79,14113,1,0
80,144,14366,1,2
144,208,14619,1,0
208,272,14872,1,0
144,336,15125,1,6
416,336,15885,5,8
384,336,16011,1,0
352,336,16138,1,8
240,336,16391,2,2,B|144:336,1,85
48,336,16897,1,8
48,240,17151,1,4
48,208,17277,1,2
144,208,17530,1,2
144,240,17657,1,0
240,240,17910,5,8
272,240,18037,1,0
304,240,18163,1,8
352,160,18416,2,2,B|448:160,1,85
352,160,18923,1,8
256,160,19176,1,4
224,160,19302,1,2
176,80,19556,1,0
144,96,19682,1,0
128,128,19809,1,0
128,160,19935,1,6
256,336,20442,6,0,B|256:240,1,85,0|8
256,144,20948,1,2
256,48,21201,1,8
256,144,21454,1,0
320,224,21708,1,8
288,224,21834,1,0
256,224,21961,1,2
160,224,22214,1,8
86,281,22467,1,0
160,336,22720,1,8
192,336,22847,1,0
224,336,22973,1,2
320,336,23227,1,8
400,288,23480,5,0
320,224,23733,1,0
400,160,23986,1,2
320,96,24239,1,2
400,32,24492,1,4
320,192,24999,5,0
320,192,25125,1,0
320,192,25252,1,0
320,192,25378,1,0
320,192,25505,1,8
224,192,25758,2,0,B|16:192,1,170
54,192,26391,1,0
160,272,26771,1,0
160,272,26897,1,0
160,272,27024,2,0,B|256:272,2,85,0|0|12
208,192,27783,2,0,B|256:192,1,42.5,0|8
336,192,28163,2,0,B|400:192,1,42.5,0|8
432,272,28543,5,0
352,336,28796,1,0
320,336,28923,1,0
288,336,29049,1,8
208,272,29302,1,0
176,272,29429,1,0
144,272,29556,2,2,B|128:240|128:240|144:208|144:208|128:176|128:176|144:144|144:144|135:111|135:111,1,170
336,114,30568,5,8
337,205,30821,1,8
192,208,31328,1,4
160,224,31454,1,0
160,128,31708,1,0
192,112,31834,1,8
272,64,32087,5,8
288,160,32340,1,8
384,144,32594,1,4
416,128,32720,1,4
448,112,32847,1,4
496,192,33100,1,4
384,224,33353,2,2,B|384:272|368:320|304:336,1,127.5,2|10
325,328,33859,1,2
222,325,34113,5,8
222,325,34366,1,8
144,256,34619,1,4
112,272,34746,1,4
80,288,34872,1,4
32,208,35125,1,4
144,176,35378,2,2,B|144:128|160:80|256:80,1,127.5
213,83,35885,1,2
320,80,36138,1,2
272,176,36391,5,8
272,272,36644,2,0,B|320:288|352:256,2,85
272,176,37404,1,8
272,272,37657,2,0,B|224:288|192:256,2,85
272,176,38416,5,8
272,80,38670,1,0
176,128,38923,1,8
272,176,39176,1,0
368,128,39429,1,12
272,80,39682,1,0
176,128,39935,1,8
272,176,40189,1,8
368,128,40442,1,12
256,192,48796,5,0
272,224,48923,1,0
288,192,49049,1,0
304,224,49176,1,0
320,192,49302,1,0
400,64,49682,1,0
304,64,49935,1,0
304,64,50062,1,0
208,32,50315,1,0
112,64,50568,1,0
80,160,50821,5,0
96,128,50948,1,0
112,160,51075,1,0
128,128,51201,1,0
144,160,51328,1,0
208,304,51708,1,0
208,304,51834,1,0
304,304,52087,1,0
384,240,52340,1,0
448,160,52594,1,4
384,80,52847,6,0,B|304:32|240:80|256:160,1,170
256,272,53733,1,0
160,320,53986,1,0
128,320,54113,1,0
32,272,54366,1,0
48,80,54872,5,0
64,112,54999,1,0
80,80,55125,1,0
96,112,55252,1,0
112,80,55378,1,0
320,64,55885,1,0
320,64,56011,1,0
320,64,56138,1,0
320,160,56391,1,0
320,160,56518,1,4
320,160,56644,1,4
256,224,56897,6,0,B|318:298|384:240,1,127.5,0|0
367,252,57404,1,0
400,160,57657,1,0
368,64,57910,1,8
272,32,58163,1,8
176,64,58416,1,8
144,160,58670,2,0,B|144:256|256:256,1,127.5
214,251,59176,1,0
306,236,59429,1,0
320,144,59682,2,2,B|384:176|370:225|416:288,1,170
144,112,60695,5,8
144,112,60821,1,0
144,112,60948,2,4,B|144:240,1,85
144,288,61454,1,2
288,288,61834,2,8,B|368:192,1,85
342,222,62214,1,4
240,224,62467,1,10
288,144,62720,2,2,B|352:80,2,85
192,144,63480,2,2,B|128:80,2,85
240,224,64239,1,2
240,224,64492,1,2
288,304,64746,5,8
192,304,64999,2,8,B|128:240,1,85
131,150,65505,2,8,B|195:86,1,85,8|8
284,90,66011,2,8,B|348:154,1,85
235,200,66518,1,8
346,238,66771,2,8,B|272:320,1,85
192,304,67277,1,8
96,304,67530,1,8
96,208,67783,1,8
256,64,68290,1,8
352,64,68543,1,4
352,160,68796,1,4
464,288,69556,5,8
432,272,69682,1,2
400,256,69809,1,8
464,144,70062,1,8
432,128,70189,1,2
400,112,70315,1,8
192,80,70821,1,4
192,320,71328,1,4
192,80,71834,1,4
256,192,72847,5,2
352,192,73100,5,0
448,176,73353,1,0
448,144,73480,1,2
448,112,73606,1,0
352,96,73859,1,0
352,96,73986,1,0
256,96,74239,1,0
256,96,74366,1,0
160,96,74619,1,2
160,96,74872,1,2
160,192,75125,5,0
144,288,75378,1,0
112,288,75505,1,2
80,288,75632,1,0
64,192,75885,1,0
64,192,76011,1,0
160,192,76265,1,0
160,192,76391,1,0
256,192,76644,1,2
256,192,76897,1,2
256,288,77151,5,0
352,288,77404,1,0
384,288,77530,1,2
416,288,77657,1,0
432,192,77910,1,0
432,192,78037,1,0
336,192,78290,1,0
336,192,78416,1,0
432,192,78670,1,2
432,96,78923,1,2
336,96,79176,5,0
240,96,79429,1,0
240,96,79556,1,2
240,96,79682,1,0
144,96,79935,1,0
112,96,80062,1,0
112,192,80315,1,0
144,192,80442,1,0
240,192,80695,1,4
256,192,89049,5,2
32,192,89809,5,8
80,288,90062,1,4
80,32,90568,1,0
256,192,91075,1,0
480,192,91581,1,8
432,288,91834,1,4
432,32,92340,1,0
256,256,93606,5,8
256,256,93859,1,8
256,256,94113,1,8
256,256,94366,1,8
304,176,94619,1,4
304,176,94746,1,2
208,176,94999,1,8
256,96,95252,1,0
256,96,95378,1,8
160,96,95632,1,4
160,96,95758,1,8
160,96,95885,1,8
208,176,96138,1,2
32,96,96644,5,0
64,192,96897,1,0
64,192,97024,1,0
64,192,97151,1,0
128,272,97404,2,0,B|144:304|208:304,3,85,0|0|0|2
288,304,98416,1,8
400,272,98670,5,0
464,192,98923,1,0
464,192,99049,1,0
464,192,99176,1,0
400,112,99429,2,0,B|384:80|320:80,3,85,0|0|0|2
224,80,100442,1,8
160,160,100695,5,8
256,192,100948,1,8
288,208,101075,1,0
320,224,101201,1,8
272,304,101454,1,8
272,304,101708,2,0,B|208:288|128:256|128:208,1,170,0|4
240,96,102720,2,8,B|272:64|352:64,1,85
416,64,103227,1,8
256,192,103733,2,4,B|208:176|112:272,1,127.5
32,336,104492,1,4
176,336,104872,5,4
320,336,105252,1,0
352,336,105378,1,0
384,336,105505,1,4
384,192,106011,5,2
304,192,106265,1,8
96,272,106644,1,8
96,272,106771,1,0
96,112,107024,1,8
96,112,107151,1,0
96,272,107404,1,8
96,272,107530,1,0
304,192,108037,1,8
384,192,108290,1,2
240,192,108670,5,2
336,288,109049,1,2
240,288,109302,1,2
208,288,109429,1,2
176,288,109556,1,2
80,288,109809,5,0
128,208,110062,1,0
368,64,110568,1,0
368,160,110821,1,0
368,160,110948,1,8
368,160,111075,1,0
272,160,111328,1,0
176,160,111581,1,0
176,160,111708,1,8
176,160,111834,1,4
176,256,112087,1,4
176,256,112340,1,4
404,286,112847,6,8,C|464:224,1,85,8|8
368,240,113353,2,0,C|432:176,1,85
336,192,113859,2,0,C|400:128,1,85,0|8
304,144,114366,2,0,C|176:272,1,170,0|0
96,272,115125,5,8
118,249,115252,1,8
144,224,115378,2,0,C|64:160,1,85
183,184,115885,2,0,C|103:120,1,85,0|8
224,144,116391,2,0,C|368:240,1,170,0|8
256,320,117151,5,8
224,320,117277,1,8
192,320,117404,1,0
192,224,117657,1,8
192,224,117910,1,8
256,32,118416,1,2
320,224,118923,5,8
320,320,119176,1,8
320,320,119302,1,8
320,320,119429,1,8
320,224,119682,1,0
192,224,119935,1,8
256,144,120189,5,4
256,48,120442,1,8
256,48,120568,1,8
256,48,120695,1,8
256,144,120948,1,4
256,240,121201,1,8
256,240,121328,1,8
256,240,121454,1,8
96,272,129809,5,0
112,240,129935,1,0
128,208,130062,1,0
144,176,130189,1,0
160,144,130315,2,0,B|240:0|284:136,1,170
288,144,130948,1,0
304,176,131075,1,0
320,208,131201,1,0
335,177,131328,2,0,B|368:112|352:64,1,85
448,112,131834,5,0
432,144,131961,1,0
416,176,132087,1,0
400,208,132214,1,0
384,240,132340,2,0,B|324:384|260:248,1,170
256,240,132973,1,0
240,208,133100,1,0
224,176,133227,1,0
208,208,133353,2,0,B|192:272|208:304,1,85
128,240,133859,5,4
64,160,134113,1,4
128,80,134366,1,4
224,80,134619,1,8
288,160,134872,1,8
288,160,134999,1,8
64,160,135378,1,8
224,240,135885,5,4
288,320,136138,1,4
384,320,136391,1,4
448,240,136644,1,0
384,160,136897,1,8
384,160,137024,1,8
336,240,137277,1,12
336,240,137404,1,12
336,240,137530,1,12
256,192,137910,6,0,B|194:266|160:224,1,85
188,239,138290,1,0
188,239,138416,1,0
304,64,138923,1,8
208,64,139176,1,8
208,64,139302,1,0
208,64,139429,1,0
256,144,139682,2,0,B|320:144|352:96,2,85
208,224,140442,1,0
144,144,140695,2,2,B|142:225|94:225|135:309,1,170,2|2
224,272,141454,1,0
256,176,141708,5,8
256,144,141834,1,8
256,112,141961,1,4
352,112,142214,1,0
352,144,142340,1,0
352,176,142467,1,0
336,256,142720,1,0
304,256,142847,1,0
272,256,142973,1,0
144,224,143227,5,4
256,112,143480,1,0
368,224,143733,1,2
256,336,143986,1,0
144,224,144239,1,2
256,112,144492,1,0
368,224,144746,1,2
256,224,144999,1,2
368,224,145252,1,2
480,224,145505,1,2
480,112,145758,5,8
480,224,146011,1,8
256,192,146518,1,0
256,192,146644,1,8
48,192,147024,1,8
96,112,147277,1,8
96,112,147404,1,8
96,112,147530,1,8
256,192,147783,5,0
256,192,147910,1,8
256,192,148037,1,8
416,272,148290,1,8
320,272,148543,1,8
256,192,148796,1,8
192,272,149049,1,8
96,272,149302,1,8
96,272,149429,1,8
96,272,149556,1,8
144,192,149809,1,4
416,80,150568,5,0
384,80,150695,1,4
352,80,150821,1,0
272,160,151075,1,0
272,160,151328,1,0
144,304,151834,1,0
144,80,152340,1,0
144,304,152847,1,0
240,304,153100,5,4
272,304,153227,1,4
304,304,153353,1,8
384,304,153606,1,8
464,304,153859,1,8
464,192,154113,6,0,B|402:118|368:144,2,85
368,192,154872,2,8,B|320:192,2,42.5
288,128,155378,1,8
208,80,155632,1,8
208,80,155758,1,8
208,80,155885,2,2,B|152:-4|80:53|25:107|126:172,1,255,0|0
208,160,156897,2,2,B|289:162|289:210|400:176,1,170
373,183,157530,1,8
336,272,157783,1,10
336,272,157910,1,8
224,32,158670,5,8
256,48,158796,1,2
288,64,158923,1,2
224,128,159176,1,8
256,144,159302,1,2
288,160,159429,1,2
384,288,159935,1,4
128,288,160315,1,8
128,288,160442,1,4
384,288,160821,1,8
384,288,160948,1,4
256,80,161328,5,8
256,80,161454,1,8
256,160,161708,1,8
224,240,161961,1,8
256,240,162087,1,0
288,240,162214,1,0
432,192,162720,1,0
80,192,163227,1,8
80,192,163480,1,8
336,272,163986,5,0
256,192,164239,1,10
176,272,164492,1,8
256,192,164746,1,10
176,112,164999,1,8
256,192,165252,1,10
336,112,165505,1,8
256,192,165758,1,10
336,272,166011,1,4
352,112,166771,5,8
320,112,166897,1,0
288,112,167024,1,0
224,176,167277,1,8
192,176,167404,1,0
160,176,167530,1,0
352,112,168037,1,2
160,176,168543,1,2
352,112,169049,1,2
256,192,169302,12,4,170315
112,96,170821,5,0
256,96,171201,1,0
256,96,171328,1,0
256,192,171581,1,0
352,192,171834,1,0
448,192,172087,2,0,B|480:243|435:288,1,85
352,272,172594,5,0
256,272,172847,1,0
96,272,173227,1,0
96,272,173353,1,0
128,192,173606,1,0
96,112,173859,1,0
128,32,174113,2,0,B|240:32,1,85
304,32,174619,6,0,C|400:32,1,85
304,32,175125,1,0
304,128,175378,2,0,C|304:224,1,85
304,128,175885,1,0
208,128,176138,1,0
112,128,176391,1,0
112,224,176644,6,0,C|112:320,1,85
112,224,177151,1,0
208,224,177404,1,0
208,224,177530,1,0
208,224,177657,1,0
304,224,177910,1,0
304,224,178037,1,0
304,224,178163,1,0
256,144,178416,1,4
