osu file format v5

[General]
AudioFilename: Netmusic.mp3
AudioLeadIn: 0
PreviewTime: -1
Countdown: 2
SampleSet: Normal
StackLeniency: 0.7
Mode: 0

[Metadata]
Title:Netmusic
Artist:
Creator:thin921123
Version:

[Difficulty]
HPDrainRate:0
CircleSize:0
OverallDifficulty:0
SliderMultiplier:1.4
SliderTickRate:4

[Events]
//Background and Video events
0,0,"2.jpg"
//Break Periods
//Storyboard Layer 0 (Background)
//Storyboard Layer 1 (Failing)
//Storyboard Layer 2 (Passing)
//Storyboard Layer 3 (Foreground)
//Storyboard Sound Samples
//Background Colour Transformations
3,100,163,162,255

[TimingPoints]
8,750,4,1,0,100

[HitObjects]
32,32,9383,2,0,B|480:320|480:32|32:320|480:352|512:320,4,630
32,64,27633,1,0
32,192,29758,1,0
32,320,30758,1,0
160,320,31508,1,0
342,320,33758,1,4
173,292,34383,1,4
433,72,36133,1,4
275,47,36883,1,4
82,61,37883,1,4
64,96,39883,1,0
192,128,40883,1,0
32,64,42133,1,0
320,192,43508,1,0
160,256,44633,1,0
64,160,45383,1,0
256,128,46383,1,0
384,192,47258,1,0
192,256,48008,1,0
96,160,48633,1,0
224,96,49133,1,0
352,160,50008,1,0
32,288,51758,1,0
96,160,52633,1,0
224,160,53633,1,0
416,288,54508,1,0
416,128,55383,1,0
64,64,56258,1,0
32,64,58258,1,0
64,192,59008,1,0
96,288,59633,1,0
224,288,60008,1,0
320,256,60508,1,0
384,128,60883,1,0
224,32,61258,1,0
96,64,61758,1,0
32,192,62258,1,0
160,256,62633,1,0
320,256,63133,1,0
416,192,63633,1,0
320,96,64258,1,0
320,96,64383,1,0
192,128,65133,1,0
64,160,65508,1,0
96,256,65883,1,0
224,288,66133,1,0
384,224,66633,1,0
288,128,67258,1,0
160,64,67883,1,0
32,192,68258,1,0
256,288,69008,1,0
384,160,69883,1,0
128,96,70758,1,0
64,256,71383,1,0
256,288,71883,1,0
416,128,73133,1,4
288,64,73633,1,4
448,288,74508,1,4
434,146,75508,1,4
264,64,76258,1,4
140,52,77133,1,4
48,196,78133,1,4
448,160,79883,1,0
384,320,80508,1,0
224,320,80883,1,0
64,224,81758,1,0
128,96,82758,1,0
416,64,83508,1,0
416,192,84383,1,0
416,320,85383,1,0
288,320,86383,1,0
160,320,87508,1,0
64,320,88383,1,0
64,224,89133,1,0
64,128,90508,1,0
192,96,91383,1,0
320,128,91758,1,0
448,224,92383,1,0
416,320,92883,1,0
0,32,95133,2,0,B|512:352|480:128,2,583.333333333333
32,64,102758,1,0
64,224,103633,1,0
448,160,105508,1,4
448,288,106383,1,4
288,288,107258,1,4
96,288,108133,1,4
64,160,109133,1,4
256,64,109883,1,4
448,64,110883,1,4
448,224,111883,1,0
320,320,112758,1,0
192,288,113133,1,0
128,160,113633,1,0
0,64,114008,1,0
256,64,114508,1,0
384,128,114883,1,0
352,256,115383,1,0
192,256,115883,1,0
128,96,116258,1,0
288,96,117008,1,0
288,96,117133,1,0
224,256,118008,1,0
64,192,119008,1,0
288,160,120008,1,0
416,224,120883,1,0
256,288,121883,1,0
64,192,122633,1,0
416,64,123633,1,0
416,288,124508,1,0
224,320,125508,1,0
64,320,126383,1,0
64,192,127258,1,0
224,160,128133,1,0
448,256,129133,1,0
288,320,129883,1,0
64,320,130883,1,0
64,64,131508,1,0
64,64,131758,1,0
192,64,133758,1,0
160,224,134383,1,0
32,192,134633,1,0
256,192,135383,1,0
384,128,136133,1,0
416,288,137133,1,0
160,288,138133,1,0
32,224,139133,1,0
128,96,139883,1,0
352,96,140883,1,0
448,224,142008,1,0
448,320,142633,1,0
256,320,143633,1,0
64,192,144633,1,0
32,64,145508,2,0,B|448:320,2,466.666666666667
256,192,151883,12,0,158758
32,96,160008,1,0
128,192,160883,1,0
32,288,161883,1,0
192,288,162633,1,0
352,288,163633,1,0
384,160,164383,1,0
384,160,164633,1,0
224,96,165258,1,0
64,64,166008,1,0
480,256,167258,1,4
416,96,168133,1,4
96,64,169008,1,4
224,192,170008,1,4
64,288,170758,1,4
320,288,171883,1,4
448,192,172758,1,4
384,96,173633,1,0
224,96,174508,1,0
352,224,175133,1,0
160,256,175508,1,0
64,160,176133,1,0
192,96,176508,1,0
352,128,177133,1,0
352,256,177633,1,0
192,256,178008,1,0
64,320,178258,1,0
128,128,178758,1,0
288,96,179133,1,0
416,160,179383,1,0
384,320,179883,1,0
288,256,180758,1,4
128,224,181008,1,4
128,96,181508,1,4
288,96,181758,1,4
448,160,183008,1,0
416,320,183508,1,0
224,256,183883,1,0
32,256,184383,1,0
160,64,185008,1,0
320,96,185383,1,0
320,224,185883,1,0
224,288,186258,1,0
96,256,186758,1,0
160,128,187133,1,0
320,128,187633,1,0
416,224,188008,1,0
448,352,188508,1,0
288,320,189008,1,0
160,288,190133,1,0
64,192,190883,1,0
192,96,191633,1,0
384,160,194633,1,4
384,160,196883,1,0
256,96,197383,1,0
160,64,198133,1,0
64,64,198758,1,0
32,160,199133,1,0
224,224,200008,1,0
352,224,201008,1,0
448,224,202008,1,0
384,128,203008,1,0
256,96,203883,1,0
128,160,205008,1,0
256,256,205758,1,0
96,256,206633,1,0
128,128,207258,1,0
224,96,207758,1,0
416,128,209883,1,4
64,64,211633,2,4,B|480:352,3,490
