osu file format v14

[General]
AudioFilename: Kagamine Rin - Abstract Nonsense.mp3
AudioLeadIn: 0
PreviewTime: 61936
Countdown: 0
SampleSet: Normal
StackLeniency: 0.7
Mode: 3
LetterboxInBreaks: 0
SpecialStyle: 0
WidescreenStoryboard: 0

[Editor]
DistanceSpacing: 1
BeatDivisor: 4
GridSize: 4
TimelineZoom: 1.5

[Metadata]
Title:Abstract Nonsense
TitleUnicode:アブストラクト・ナンセンス
Artist:Neru feat.Kagamine Rin
ArtistUnicode:Neru feat.鏡音リン
Creator:puxtu
Version:NM
Source:
Tags:押入れP Oshiire-P Vocaloid EXIT TUNES PRESENTS Vocalodream Unhappy Suicide pxt
BeatmapID:706188
BeatmapSetID:315193

[Difficulty]
HPDrainRate:7.5
CircleSize:4
OverallDifficulty:7.5
ApproachRate:9
SliderMultiplier:2.39999990463257
SliderTickRate:2

[Events]
//Background and Video events
0,0,"Rin_abstract_nonsense.jpg",0,0
//Break Periods
//Storyboard Layer 0 (Background)
//Storyboard Layer 1 (Fail)
//Storyboard Layer 2 (Pass)
//Storyboard Layer 3 (Foreground)
//Storyboard Sound Samples

[TimingPoints]
1215,288.461538461538,4,1,1,50,1,0
62224,-100,4,1,1,50,0,1
80686,-100,4,1,1,50,0,0
131455,-100,4,1,1,50,0,1
149916,-100,4,1,1,50,0,0
193041,-100,4,2,1,25,0,0
201839,-100,4,1,1,50,0,1
220301,-100,4,1,1,50,0,0

[Colours]
Combo1 : 111,111,111
Combo2 : 250,50,50
Combo3 : 222,222,222
Combo4 : 80,70,140

[HitObjects]
320,187,1215,5,4,2:0:0:0:
192,187,1503,1,4,2:0:0:0:
320,187,1791,1,4,2:0:0:0:
64,184,1936,1,8,0:0:0:0:
448,184,2008,1,8,0:0:0:0:
192,184,2080,1,8,0:0:0:0:
448,182,2224,128,4,2513:0:0:0:0:
320,182,2224,1,0,0:0:0:0:
64,192,2513,1,0,0:0:0:0:
320,192,2657,1,0,0:0:0:0:
192,192,2801,1,0,0:0:0:0:
448,192,2945,1,0,0:0:0:0:
64,192,3089,1,0,0:0:0:0:
320,192,3234,1,0,0:0:0:0:
64,182,3378,128,4,3666:0:0:0:0:
192,182,3378,1,0,0:0:0:0:
448,192,3666,1,0,0:0:0:0:
192,192,3811,1,0,0:0:0:0:
448,192,3955,1,0,0:0:0:0:
64,192,4099,1,0,0:0:0:0:
320,192,4243,1,0,0:0:0:0:
192,192,4388,1,0,0:0:0:0:
320,182,4532,1,0,0:0:0:0:
448,182,4532,128,4,4820:0:0:0:0:
64,192,4820,1,0,0:0:0:0:
320,192,4964,1,0,0:0:0:0:
192,192,5109,1,0,0:0:0:0:
448,192,5253,1,0,0:0:0:0:
64,192,5397,1,0,0:0:0:0:
448,192,5541,1,0,0:0:0:0:
64,182,5686,128,4,5974:0:0:0:0:
192,182,5686,1,0,0:0:0:0:
320,192,5974,1,0,0:0:0:0:
192,192,6118,1,0,0:0:0:0:
448,182,6263,1,8,0:0:0:0:
320,187,6335,1,8,0:0:0:0:
192,182,6407,1,8,0:0:0:0:
64,182,6551,1,0,0:0:0:0:
448,182,6695,1,0,0:0:0:0:
320,187,6839,128,4,7128:0:0:0:0:
192,187,6839,1,0,0:0:0:0:
448,192,7128,1,0,0:0:0:0:
64,187,7272,1,0,2:0:0:0:
192,192,7416,1,0,0:0:0:0:
320,187,7561,1,0,2:0:0:0:
448,192,7705,1,0,0:0:0:0:
192,187,7849,1,0,2:0:0:0:
320,192,7993,128,0,8282:0:0:0:0:
192,192,8282,1,0,0:0:0:0:
448,187,8426,1,0,2:0:0:0:
320,192,8570,1,0,0:0:0:0:
64,187,8714,1,0,2:0:0:0:
448,192,8859,1,0,0:0:0:0:
192,187,9003,1,0,2:0:0:0:
320,187,9147,1,0,0:0:0:0:
448,187,9147,128,4,9436:0:0:0:0:
64,187,9436,1,8,0:0:0:0:
320,192,9580,1,8,0:0:0:0:
192,187,9724,1,8,0:0:0:0:
448,192,9868,1,8,0:0:0:0:
64,187,10013,1,8,0:0:0:0:
320,187,10157,1,8,0:0:0:0:
64,187,10301,128,4,10589:0:0:0:0:
448,187,10301,1,0,0:0:0:0:
320,192,10589,1,0,0:0:0:0:
192,192,10734,1,0,0:0:0:0:
448,192,10878,1,0,0:0:0:0:
64,192,11022,1,0,0:0:0:0:
192,192,11166,1,0,0:0:0:0:
320,192,11311,1,0,0:0:0:0:
64,182,11455,1,0,0:0:0:0:
448,182,11455,1,4,0:0:0:0:
192,182,11743,1,0,0:0:0:0:
448,182,11888,1,8,0:0:0:0:
192,182,12176,1,0,0:0:0:0:
64,182,12320,1,0,0:0:0:0:
320,182,12464,1,8,0:0:0:0:
448,182,12609,1,0,0:0:0:0:
64,182,12609,1,4,0:0:0:0:
192,182,12897,1,0,0:0:0:0:
448,182,13041,1,8,0:0:0:0:
320,182,13330,1,0,0:0:0:0:
64,182,13474,1,0,0:0:0:0:
448,182,13618,1,8,0:0:0:0:
64,182,13763,1,0,0:0:0:0:
320,182,13763,1,4,0:0:0:0:
192,182,14051,1,0,0:0:0:0:
320,182,14195,1,8,0:0:0:0:
192,182,14484,1,0,0:0:0:0:
448,182,14628,1,0,0:0:0:0:
64,192,14772,1,8,0:0:0:0:
448,182,14916,1,0,0:0:0:0:
192,182,14916,1,4,0:0:0:0:
320,182,15205,1,0,0:0:0:0:
192,192,15349,1,8,0:0:0:0:
64,182,15493,1,8,0:0:0:0:
448,182,15638,1,0,0:0:0:0:
64,182,15782,1,0,0:0:0:0:
448,192,15926,1,8,0:0:0:0:
64,187,16070,1,0,0:0:0:0:
320,187,16070,1,4,0:0:0:0:
448,187,16359,1,0,0:0:0:0:
64,187,16503,1,8,0:0:0:0:
192,187,16791,1,0,0:0:0:0:
320,187,16936,1,0,0:0:0:0:
448,192,17080,1,8,0:0:0:0:
64,187,17224,1,0,0:0:0:0:
192,187,17224,1,4,0:0:0:0:
320,187,17513,1,0,0:0:0:0:
448,187,17657,1,8,0:0:0:0:
64,187,17945,1,0,0:0:0:0:
320,187,18089,1,0,0:0:0:0:
192,187,18234,1,8,0:0:0:0:
64,187,18378,1,0,0:0:0:0:
448,187,18378,1,4,0:0:0:0:
192,187,18666,1,0,0:0:0:0:
320,187,18811,1,8,0:0:0:0:
448,187,19099,1,0,0:0:0:0:
192,187,19243,1,0,0:0:0:0:
64,192,19388,1,8,0:0:0:0:
448,187,19532,1,0,0:0:0:0:
320,187,19532,1,4,0:0:0:0:
64,187,19820,1,0,0:0:0:0:
192,192,19964,1,8,0:0:0:0:
448,187,20109,1,0,0:0:0:0:
64,187,20253,1,8,0:0:0:0:
320,192,20397,128,8,20686:0:0:0:0:
64,183,20686,1,4,0:0:0:0:
448,192,20686,1,0,0:0:0:0:
320,192,20974,1,0,0:0:0:0:
192,192,21118,1,8,0:0:0:0:
64,192,21118,1,0,0:0:0:0:
448,192,21407,1,0,0:0:0:0:
320,192,21551,1,0,0:0:0:0:
64,192,21695,1,8,0:0:0:0:
448,192,21695,1,0,0:0:0:0:
192,192,21984,1,0,0:0:0:0:
448,192,22272,1,8,0:0:0:0:
64,192,22272,1,0,0:0:0:0:
192,192,22561,1,0,0:0:0:0:
64,192,22705,1,0,0:0:0:0:
320,192,22849,1,8,0:0:0:0:
448,192,22849,1,0,0:0:0:0:
448,192,23138,1,0,0:0:0:0:
64,192,23426,1,8,0:0:0:0:
192,192,23426,1,0,0:0:0:0:
320,192,23714,1,0,0:0:0:0:
448,192,23859,1,0,0:0:0:0:
192,192,24003,1,8,0:0:0:0:
320,192,24003,1,0,0:0:0:0:
64,192,24291,1,4,0:0:0:0:
448,192,24291,1,8,0:0:0:0:
320,192,24436,1,0,0:0:0:0:
64,192,24580,1,8,0:0:0:0:
192,192,24724,1,0,0:0:0:0:
448,192,24868,1,8,0:0:0:0:
320,192,25013,1,8,0:0:0:0:
192,192,25085,1,8,0:0:0:0:
64,192,25157,1,8,0:0:0:0:
320,192,25301,1,8,0:0:0:0:
64,192,25445,1,4,0:0:0:0:
192,192,25734,1,0,0:0:0:0:
448,192,26022,1,0,0:0:0:0:
64,192,26311,1,0,0:0:0:0:
448,192,26599,1,0,0:0:0:0:
320,192,26888,1,0,0:0:0:0:
192,192,27176,1,0,0:0:0:0:
448,192,27464,1,0,0:0:0:0:
64,192,27753,1,0,0:0:0:0:
320,192,28041,1,0,0:0:0:0:
192,192,28330,1,0,0:0:0:0:
448,192,28618,1,0,0:0:0:0:
320,192,28907,1,0,0:0:0:0:
64,192,29195,1,0,0:0:0:0:
448,192,29484,1,0,0:0:0:0:
192,192,29772,1,0,0:0:0:0:
320,192,30061,1,0,0:0:0:0:
64,192,30349,1,0,0:0:0:0:
448,192,30638,1,0,0:0:0:0:
320,192,30926,1,0,0:0:0:0:
192,192,31214,1,0,0:0:0:0:
448,192,31503,1,0,0:0:0:0:
320,192,31791,1,0,0:0:0:0:
448,192,31936,1,8,0:0:0:0:
64,192,32008,1,8,0:0:0:0:
320,192,32080,1,8,0:0:0:0:
192,192,32224,1,8,0:0:0:0:
448,192,32368,1,0,0:0:0:0:
64,192,32368,1,4,2:0:0:0:
192,192,32657,1,8,0:0:0:0:
448,192,32945,1,0,0:0:0:0:
192,192,33089,1,0,0:0:0:0:
320,192,33234,1,8,0:0:0:0:
64,192,33378,1,4,2:0:0:0:
448,192,33378,1,0,0:0:0:0:
320,192,33666,1,0,0:0:0:0:
64,192,33811,1,8,0:0:0:0:
320,192,33955,1,0,0:0:0:0:
448,192,33955,1,4,2:0:0:0:
64,192,34243,1,0,0:0:0:0:
192,192,34388,1,4,2:0:0:0:
448,192,34388,1,8,0:0:0:0:
64,192,34676,1,4,0:0:0:0:
448,192,34676,1,0,0:0:0:0:
320,192,34964,1,0,0:0:0:0:
192,192,35253,1,0,0:0:0:0:
448,192,35541,1,0,0:0:0:0:
64,192,35830,1,0,0:0:0:0:
320,192,36118,1,0,0:0:0:0:
192,192,36407,1,0,0:0:0:0:
448,192,36695,1,0,0:0:0:0:
64,192,36984,1,0,0:0:0:0:
320,192,37272,1,0,0:0:0:0:
192,192,37561,1,0,0:0:0:0:
448,192,37849,1,0,0:0:0:0:
64,192,38138,1,0,0:0:0:0:
192,192,38426,1,0,0:0:0:0:
448,192,38714,1,0,0:0:0:0:
192,192,39003,1,0,0:0:0:0:
320,192,39291,1,0,0:0:0:0:
64,192,39580,1,0,0:0:0:0:
448,192,39868,1,0,0:0:0:0:
320,192,40157,1,0,0:0:0:0:
192,192,40445,1,0,0:0:0:0:
448,192,40734,1,0,0:0:0:0:
64,192,41022,1,0,0:0:0:0:
448,192,41166,1,8,0:0:0:0:
64,192,41239,1,8,0:0:0:0:
320,192,41311,1,8,0:0:0:0:
192,192,41455,1,8,0:0:0:0:
448,192,41599,1,4,2:0:0:0:
64,192,41599,1,0,0:0:0:0:
192,192,41888,1,8,0:0:0:0:
448,192,42176,1,0,0:0:0:0:
64,192,42320,1,0,0:0:0:0:
448,192,42464,1,8,0:0:0:0:
192,192,42609,1,4,2:0:0:0:
64,192,42609,1,0,0:0:0:0:
320,192,42897,1,0,0:0:0:0:
192,192,43041,1,8,0:0:0:0:
320,192,43186,1,0,0:0:0:0:
64,192,43186,1,4,2:0:0:0:
448,192,43474,1,0,0:0:0:0:
192,192,43618,1,8,0:0:0:0:
64,192,43618,1,4,2:0:0:0:
448,192,43907,1,4,0:0:0:0:
320,192,44195,1,0,0:0:0:0:
192,192,44484,1,0,0:0:0:0:
448,192,44772,1,0,0:0:0:0:
320,192,45061,1,0,0:0:0:0:
192,192,45349,1,0,0:0:0:0:
64,192,45638,1,0,0:0:0:0:
448,192,45926,1,0,0:0:0:0:
320,192,46214,1,0,0:0:0:0:
64,192,46503,1,0,0:0:0:0:
448,192,46791,1,0,0:0:0:0:
192,192,47080,1,0,0:0:0:0:
320,192,47368,1,0,0:0:0:0:
64,192,47657,1,0,0:0:0:0:
448,192,47945,1,0,0:0:0:0:
192,192,48234,1,8,0:0:0:0:
320,192,48234,1,0,0:0:0:0:
448,192,48378,1,0,0:0:0:0:
64,192,48378,128,4,48666:2:0:0:0:
320,192,48666,1,0,0:0:0:0:
192,192,48811,1,8,0:0:0:0:
448,192,48955,1,8,0:0:0:0:
64,192,49099,1,0,0:0:0:0:
320,192,49243,1,0,0:0:0:0:
192,192,49388,1,8,0:0:0:0:
448,192,49532,1,0,0:0:0:0:
64,192,49532,128,4,49820:2:0:0:0:
320,192,49820,1,0,0:0:0:0:
192,192,49964,1,8,0:0:0:0:
448,192,50109,1,8,0:0:0:0:
64,192,50253,1,0,0:0:0:0:
320,192,50397,1,0,0:0:0:0:
192,192,50541,1,8,0:0:0:0:
64,192,50686,1,0,0:0:0:0:
448,192,50686,128,4,50974:2:0:0:0:
320,192,50974,1,0,0:0:0:0:
192,192,51118,1,8,0:0:0:0:
448,192,51263,1,8,0:0:0:0:
320,192,51407,1,0,0:0:0:0:
64,192,51551,1,0,0:0:0:0:
192,192,51695,1,8,0:0:0:0:
320,192,51839,1,0,0:0:0:0:
448,192,51839,128,4,52128:2:0:0:0:
64,192,52128,1,0,0:0:0:0:
320,192,52272,1,8,0:0:0:0:
192,192,52416,1,8,0:0:0:0:
448,192,52561,1,0,0:0:0:0:
64,192,52705,1,8,0:0:0:0:
192,192,52777,1,8,0:0:0:0:
320,192,52849,1,8,0:0:0:0:
192,192,52993,1,8,0:0:0:0:
448,192,53138,1,4,0:0:0:0:
320,192,53426,1,0,0:0:0:0:
192,192,53714,1,0,0:0:0:0:
448,192,54003,1,0,0:0:0:0:
64,192,54291,1,0,0:0:0:0:
320,192,54580,1,0,0:0:0:0:
192,192,54868,1,0,0:0:0:0:
448,192,55157,1,0,0:0:0:0:
320,192,55445,1,0,0:0:0:0:
64,192,55734,1,0,0:0:0:0:
448,192,56022,1,0,0:0:0:0:
192,192,56311,1,0,0:0:0:0:
320,192,56599,1,0,0:0:0:0:
64,192,56888,1,0,0:0:0:0:
448,192,57176,1,0,0:0:0:0:
192,192,57464,1,8,0:0:0:0:
320,192,57464,1,0,0:0:0:0:
64,192,57609,1,0,0:0:0:0:
448,192,57609,1,4,2:0:0:0:
320,192,57897,1,0,0:0:0:0:
192,192,58041,1,8,0:0:0:0:
448,192,58186,1,8,0:0:0:0:
64,192,58330,1,0,0:0:0:0:
448,192,58474,1,0,0:0:0:0:
192,192,58618,1,8,0:0:0:0:
320,192,58763,1,4,2:0:0:0:
64,192,58763,1,0,0:0:0:0:
64,192,59051,1,0,0:0:0:0:
448,192,59195,1,8,0:0:0:0:
192,192,59339,1,8,0:0:0:0:
320,192,59484,1,0,0:0:0:0:
64,192,59628,1,0,0:0:0:0:
448,192,59772,1,8,0:0:0:0:
192,192,59916,1,0,0:0:0:0:
320,192,59916,1,4,2:0:0:0:
64,192,60205,1,0,0:0:0:0:
320,192,60349,1,8,0:0:0:0:
192,192,60493,1,8,0:0:0:0:
448,192,60638,1,0,0:0:0:0:
64,192,60782,1,0,0:0:0:0:
320,192,60926,1,8,0:0:0:0:
192,192,61070,1,0,0:0:0:0:
448,192,61070,1,4,2:0:0:0:
64,192,61359,1,0,0:0:0:0:
448,192,61503,1,8,0:0:0:0:
192,192,61575,1,8,0:0:0:0:
320,192,61791,1,8,0:0:0:0:
64,192,61936,1,8,0:0:0:0:
192,192,62008,1,8,0:0:0:0:
320,192,62080,1,8,0:0:0:0:
448,192,62152,1,8,0:0:0:0:
64,192,62224,1,0,0:0:0:0:
192,192,62224,1,4,0:0:0:0:
448,192,62513,1,0,0:0:0:0:
192,192,62657,1,8,0:0:0:0:
320,192,62945,1,0,0:0:0:0:
64,192,63089,1,0,0:0:0:0:
448,192,63234,1,8,0:0:0:0:
192,192,63378,1,0,0:0:0:0:
320,192,63378,1,4,2:0:0:0:
64,192,63666,1,0,0:0:0:0:
320,192,63811,1,8,0:0:0:0:
448,192,64099,1,0,0:0:0:0:
64,192,64243,1,0,0:0:0:0:
320,192,64388,1,8,0:0:0:0:
448,192,64532,1,0,0:0:0:0:
64,192,64532,1,4,2:0:0:0:
192,192,64820,1,0,0:0:0:0:
320,192,64964,1,8,0:0:0:0:
448,192,65253,1,0,0:0:0:0:
320,192,65397,1,0,0:0:0:0:
192,192,65541,1,8,0:0:0:0:
64,192,65686,1,4,2:0:0:0:
448,192,65686,1,0,0:0:0:0:
192,192,65974,1,0,0:0:0:0:
448,192,66118,1,8,0:0:0:0:
64,192,66263,1,8,0:0:0:0:
320,192,66407,1,0,0:0:0:0:
64,192,66551,1,0,0:0:0:0:
448,192,66695,1,8,0:0:0:0:
320,192,66839,1,0,0:0:0:0:
192,192,66839,1,4,2:0:0:0:
64,192,67128,1,0,0:0:0:0:
320,192,67272,1,8,0:0:0:0:
192,192,67561,1,0,0:0:0:0:
320,192,67705,1,0,0:0:0:0:
64,192,67849,1,8,0:0:0:0:
448,192,67993,1,0,0:0:0:0:
192,192,67993,1,4,2:0:0:0:
320,192,68282,1,0,0:0:0:0:
192,192,68426,1,8,0:0:0:0:
64,192,68714,1,0,0:0:0:0:
448,192,68859,1,0,0:0:0:0:
192,192,69003,1,8,0:0:0:0:
320,192,69147,1,4,2:0:0:0:
64,192,69147,1,0,0:0:0:0:
448,192,69436,1,0,0:0:0:0:
192,192,69580,1,8,0:0:0:0:
64,192,69868,1,0,0:0:0:0:
320,192,70013,1,0,0:0:0:0:
192,192,70157,1,8,0:0:0:0:
64,192,70301,1,0,0:0:0:0:
448,192,70301,1,4,2:0:0:0:
320,192,70589,1,0,0:0:0:0:
64,192,70734,1,8,0:0:0:0:
448,192,70878,1,0,0:0:0:0:
320,192,71022,1,8,0:0:0:0:
64,192,71166,128,8,71455:0:0:0:0:
448,192,71455,1,4,2:0:0:0:
320,192,71455,1,0,0:0:0:0:
192,192,71743,1,0,0:0:0:0:
320,192,71888,1,8,0:0:0:0:
64,192,72176,1,0,0:0:0:0:
448,192,72320,1,0,0:0:0:0:
320,192,72464,1,8,0:0:0:0:
192,192,72609,1,4,2:0:0:0:
64,192,72609,1,0,0:0:0:0:
448,192,72897,1,0,0:0:0:0:
320,192,73041,1,8,0:0:0:0:
64,192,73330,1,0,0:0:0:0:
320,192,73474,1,0,0:0:0:0:
448,192,73618,1,8,0:0:0:0:
64,192,73763,1,0,0:0:0:0:
192,192,73763,1,4,2:0:0:0:
448,192,74051,1,0,0:0:0:0:
192,192,74195,1,8,0:0:0:0:
64,192,74484,1,0,0:0:0:0:
320,192,74628,1,0,0:0:0:0:
448,192,74772,1,8,0:0:0:0:
320,192,74916,1,0,0:0:0:0:
192,192,74916,1,4,2:0:0:0:
64,192,75205,1,0,0:0:0:0:
320,192,75349,1,8,0:0:0:0:
448,192,75493,1,8,0:0:0:0:
192,192,75638,1,0,0:0:0:0:
448,192,75782,1,0,0:0:0:0:
64,192,75926,1,8,0:0:0:0:
192,192,76070,1,0,0:0:0:0:
320,192,76070,1,4,2:0:0:0:
448,192,76359,1,0,0:0:0:0:
64,192,76503,1,8,0:0:0:0:
320,192,76791,1,0,0:0:0:0:
192,192,76936,1,0,0:0:0:0:
448,192,77080,1,8,0:0:0:0:
64,192,77224,1,0,0:0:0:0:
320,192,77224,1,4,2:0:0:0:
192,192,77513,1,0,0:0:0:0:
320,192,77657,1,8,0:0:0:0:
448,192,77945,1,0,0:0:0:0:
64,192,78089,1,0,0:0:0:0:
320,192,78234,1,8,0:0:0:0:
192,192,78378,1,4,2:0:0:0:
448,192,78378,1,0,0:0:0:0:
64,192,78666,1,0,0:0:0:0:
448,192,78811,1,8,0:0:0:0:
320,192,79099,1,0,0:0:0:0:
192,192,79243,1,0,0:0:0:0:
320,192,79388,1,8,0:0:0:0:
64,192,79532,1,4,2:0:0:0:
448,192,79532,1,0,0:0:0:0:
192,192,79820,1,0,0:0:0:0:
448,192,79964,1,8,0:0:0:0:
64,192,80109,1,0,0:0:0:0:
192,192,80253,1,8,0:0:0:0:
320,192,80397,128,8,80686:0:0:0:0:
64,192,80686,1,4,2:0:0:0:
192,192,80686,1,0,0:0:0:0:
448,182,80974,1,0,0:0:0:0:
192,182,81118,1,8,0:0:0:0:
320,182,81407,1,0,0:0:0:0:
448,182,81551,1,0,0:0:0:0:
192,182,81695,1,8,0:0:0:0:
64,182,81839,1,0,0:0:0:0:
448,182,81839,1,4,0:0:0:0:
320,182,82128,1,0,0:0:0:0:
64,182,82272,1,8,0:0:0:0:
192,182,82561,1,0,0:0:0:0:
448,182,82705,1,0,0:0:0:0:
64,182,82849,1,8,0:0:0:0:
448,182,82993,1,0,0:0:0:0:
192,182,82993,1,4,0:0:0:0:
320,182,83282,1,0,0:0:0:0:
192,182,83426,1,8,0:0:0:0:
320,182,83714,1,0,0:0:0:0:
64,182,83859,1,0,0:0:0:0:
448,192,84003,1,8,0:0:0:0:
64,182,84147,1,0,0:0:0:0:
320,182,84147,1,4,0:0:0:0:
192,182,84436,1,0,0:0:0:0:
448,192,84580,1,8,0:0:0:0:
320,182,84724,1,8,0:0:0:0:
64,182,84868,1,0,0:0:0:0:
448,182,85013,1,0,0:0:0:0:
64,192,85157,1,8,0:0:0:0:
192,187,85301,1,4,0:0:0:0:
448,187,85301,1,0,0:0:0:0:
64,187,85589,1,0,0:0:0:0:
448,187,85734,1,8,0:0:0:0:
320,187,86022,1,0,0:0:0:0:
192,187,86166,1,0,0:0:0:0:
64,192,86311,1,8,0:0:0:0:
448,187,86455,1,0,0:0:0:0:
320,187,86455,1,4,0:0:0:0:
192,187,86743,1,0,0:0:0:0:
64,187,86888,1,8,0:0:0:0:
448,187,87176,1,0,0:0:0:0:
192,187,87320,1,0,0:0:0:0:
320,187,87464,1,8,0:0:0:0:
448,187,87609,1,0,0:0:0:0:
64,187,87609,1,4,0:0:0:0:
320,187,87897,1,0,0:0:0:0:
192,187,88041,1,8,0:0:0:0:
64,187,88330,1,0,0:0:0:0:
320,187,88474,1,0,0:0:0:0:
448,192,88618,1,8,0:0:0:0:
192,187,88763,1,4,0:0:0:0:
64,187,88763,1,0,0:0:0:0:
448,187,89051,1,0,0:0:0:0:
320,192,89195,1,8,0:0:0:0:
64,187,89339,1,0,0:0:0:0:
448,187,89484,1,8,0:0:0:0:
192,192,89628,128,8,89916:0:0:0:0:
64,192,89916,1,0,0:0:0:0:
448,183,89916,1,4,0:0:0:0:
192,192,90205,1,0,0:0:0:0:
320,192,90349,1,8,0:0:0:0:
448,192,90349,1,0,0:0:0:0:
64,192,90638,1,0,0:0:0:0:
192,192,90782,1,0,0:0:0:0:
448,192,90926,1,8,0:0:0:0:
64,192,90926,1,0,0:0:0:0:
320,192,91214,1,0,0:0:0:0:
64,192,91503,1,8,0:0:0:0:
448,192,91503,1,0,0:0:0:0:
320,192,91791,1,0,0:0:0:0:
448,192,91936,1,0,0:0:0:0:
192,192,92080,1,8,0:0:0:0:
320,192,92080,1,0,0:0:0:0:
64,192,92368,1,0,0:0:0:0:
448,192,92657,1,8,0:0:0:0:
320,192,92657,1,0,0:0:0:0:
192,192,92945,1,0,0:0:0:0:
64,192,93089,1,0,0:0:0:0:
320,192,93234,1,8,0:0:0:0:
448,192,93234,1,0,0:0:0:0:
448,192,93522,1,4,0:0:0:0:
64,192,93522,1,8,0:0:0:0:
192,192,93666,1,0,0:0:0:0:
448,192,93811,1,8,0:0:0:0:
320,192,93955,1,0,0:0:0:0:
64,192,94099,1,8,0:0:0:0:
192,192,94243,1,8,0:0:0:0:
320,192,94315,1,8,0:0:0:0:
448,192,94388,1,8,0:0:0:0:
64,192,94532,1,8,0:0:0:0:
448,192,94676,1,4,0:0:0:0:
320,192,94964,1,0,0:0:0:0:
64,192,95253,1,0,0:0:0:0:
448,192,95541,1,0,0:0:0:0:
64,192,95830,1,0,0:0:0:0:
192,192,96118,1,0,0:0:0:0:
320,192,96407,1,0,0:0:0:0:
64,192,96695,1,0,0:0:0:0:
448,192,96984,1,0,0:0:0:0:
192,192,97272,1,0,0:0:0:0:
320,192,97561,1,0,0:0:0:0:
64,192,97849,1,0,0:0:0:0:
192,192,98138,1,0,0:0:0:0:
448,192,98426,1,0,0:0:0:0:
64,192,98714,1,0,0:0:0:0:
320,192,99003,1,0,0:0:0:0:
192,192,99291,1,0,0:0:0:0:
448,192,99580,1,0,0:0:0:0:
64,192,99868,1,0,0:0:0:0:
192,192,100157,1,0,0:0:0:0:
320,192,100445,1,0,0:0:0:0:
64,192,100734,1,0,0:0:0:0:
192,192,101022,1,0,0:0:0:0:
64,192,101166,1,8,0:0:0:0:
448,192,101239,1,8,0:0:0:0:
192,192,101311,1,8,0:0:0:0:
320,192,101455,1,8,0:0:0:0:
64,192,101599,1,0,0:0:0:0:
448,192,101599,1,4,2:0:0:0:
320,192,101888,1,8,0:0:0:0:
64,192,102176,1,0,0:0:0:0:
320,192,102320,1,0,0:0:0:0:
192,192,102464,1,8,0:0:0:0:
64,192,102609,1,0,0:0:0:0:
448,192,102609,1,4,2:0:0:0:
192,192,102897,1,0,0:0:0:0:
448,192,103041,1,8,0:0:0:0:
192,192,103186,1,0,0:0:0:0:
64,192,103186,1,4,2:0:0:0:
448,192,103474,1,0,0:0:0:0:
320,192,103618,1,4,2:0:0:0:
64,192,103618,1,8,0:0:0:0:
448,192,103907,1,4,0:0:0:0:
192,192,104195,1,0,0:0:0:0:
320,192,104484,1,0,0:0:0:0:
64,192,104772,1,0,0:0:0:0:
448,192,105061,1,0,0:0:0:0:
192,192,105349,1,0,0:0:0:0:
320,192,105638,1,0,0:0:0:0:
64,192,105926,1,0,0:0:0:0:
448,192,106214,1,0,0:0:0:0:
192,192,106503,1,0,0:0:0:0:
320,192,106791,1,0,0:0:0:0:
64,192,107080,1,0,0:0:0:0:
448,192,107368,1,0,0:0:0:0:
320,192,107657,1,0,0:0:0:0:
64,192,107945,1,0,0:0:0:0:
320,192,108234,1,0,0:0:0:0:
192,192,108522,1,0,0:0:0:0:
448,192,108811,1,0,0:0:0:0:
64,192,109099,1,0,0:0:0:0:
192,192,109388,1,0,0:0:0:0:
320,192,109676,1,0,0:0:0:0:
64,192,109964,1,0,0:0:0:0:
448,192,110253,1,0,0:0:0:0:
64,192,110397,1,8,0:0:0:0:
448,192,110469,1,8,0:0:0:0:
192,192,110541,1,8,0:0:0:0:
320,192,110686,1,8,0:0:0:0:
448,192,110830,1,0,0:0:0:0:
64,192,110830,1,4,2:0:0:0:
320,192,111118,1,8,0:0:0:0:
64,192,111407,1,0,0:0:0:0:
448,192,111551,1,0,0:0:0:0:
64,192,111695,1,8,0:0:0:0:
448,192,111839,1,0,0:0:0:0:
320,192,111839,1,4,2:0:0:0:
192,192,112128,1,0,0:0:0:0:
320,192,112272,1,8,0:0:0:0:
192,192,112416,1,0,0:0:0:0:
448,192,112416,1,4,2:0:0:0:
64,192,112705,1,0,0:0:0:0:
320,192,112849,1,8,0:0:0:0:
448,192,112849,1,4,2:0:0:0:
448,192,113138,1,4,0:0:0:0:
192,192,113426,1,0,0:0:0:0:
320,192,113714,1,0,0:0:0:0:
64,192,114003,1,0,0:0:0:0:
192,192,114291,1,0,0:0:0:0:
320,192,114580,1,0,0:0:0:0:
448,192,114868,1,0,0:0:0:0:
64,192,115157,1,0,0:0:0:0:
192,192,115445,1,0,0:0:0:0:
448,192,115734,1,0,0:0:0:0:
64,192,116022,1,0,0:0:0:0:
320,192,116311,1,0,0:0:0:0:
192,192,116599,1,0,0:0:0:0:
448,192,116888,1,0,0:0:0:0:
64,192,117176,1,0,0:0:0:0:
320,192,117464,1,8,0:0:0:0:
64,192,117609,1,0,0:0:0:0:
448,192,117609,128,4,117897:2:0:0:0:
192,192,117897,1,0,0:0:0:0:
320,192,118041,1,8,0:0:0:0:
64,192,118186,1,8,0:0:0:0:
448,192,118330,1,0,0:0:0:0:
192,192,118474,1,0,0:0:0:0:
320,192,118618,1,8,0:0:0:0:
64,192,118763,1,0,0:0:0:0:
448,192,118763,128,4,119051:2:0:0:0:
192,192,119051,1,0,0:0:0:0:
320,192,119195,1,8,0:0:0:0:
64,192,119339,1,8,0:0:0:0:
448,192,119484,1,0,0:0:0:0:
192,192,119628,1,0,0:0:0:0:
320,192,119772,1,8,0:0:0:0:
448,192,119916,1,0,0:0:0:0:
64,192,119916,128,4,120205:2:0:0:0:
192,192,120205,1,0,0:0:0:0:
320,192,120349,1,8,0:0:0:0:
64,192,120493,1,8,0:0:0:0:
192,192,120638,1,0,0:0:0:0:
448,192,120782,1,0,0:0:0:0:
320,192,120926,1,8,0:0:0:0:
192,192,121070,1,0,0:0:0:0:
64,192,121070,128,4,121359:2:0:0:0:
448,192,121359,1,0,0:0:0:0:
192,192,121503,1,8,0:0:0:0:
320,192,121647,1,8,0:0:0:0:
64,192,121791,1,0,0:0:0:0:
448,192,121936,1,8,0:0:0:0:
320,192,122008,1,8,0:0:0:0:
192,192,122080,1,8,0:0:0:0:
320,192,122224,1,8,0:0:0:0:
64,192,122368,1,4,0:0:0:0:
192,192,122657,1,0,0:0:0:0:
320,192,122945,1,0,0:0:0:0:
64,192,123234,1,0,0:0:0:0:
448,192,123522,1,0,0:0:0:0:
192,192,123811,1,0,0:0:0:0:
320,192,124099,1,0,0:0:0:0:
64,192,124388,1,0,0:0:0:0:
192,192,124676,1,0,0:0:0:0:
448,192,124964,1,0,0:0:0:0:
64,192,125253,1,0,0:0:0:0:
320,192,125541,1,0,0:0:0:0:
192,192,125830,1,0,0:0:0:0:
448,192,126118,1,0,0:0:0:0:
64,192,126407,1,0,0:0:0:0:
320,192,126695,1,8,0:0:0:0:
448,192,126839,1,0,0:0:0:0:
64,192,126839,1,4,2:0:0:0:
192,192,127128,1,0,0:0:0:0:
320,192,127272,1,8,0:0:0:0:
64,192,127416,1,8,0:0:0:0:
448,192,127561,1,0,0:0:0:0:
64,192,127705,1,0,0:0:0:0:
320,192,127849,1,8,0:0:0:0:
192,192,127993,1,4,2:0:0:0:
448,192,127993,1,0,0:0:0:0:
448,192,128282,1,0,0:0:0:0:
64,192,128426,1,8,0:0:0:0:
320,192,128570,1,8,0:0:0:0:
192,192,128714,1,0,0:0:0:0:
448,192,128859,1,0,0:0:0:0:
64,192,129003,1,8,0:0:0:0:
320,192,129147,1,0,0:0:0:0:
192,192,129147,1,4,2:0:0:0:
448,192,129436,1,0,0:0:0:0:
192,192,129580,1,8,0:0:0:0:
320,192,129724,1,8,0:0:0:0:
64,192,129868,1,0,0:0:0:0:
448,192,130013,1,0,0:0:0:0:
192,192,130157,1,8,0:0:0:0:
64,192,130301,1,4,2:0:0:0:
320,192,130301,1,0,0:0:0:0:
448,192,130589,1,0,0:0:0:0:
64,192,130734,1,8,0:0:0:0:
320,192,130806,1,8,0:0:0:0:
192,192,131022,1,8,0:0:0:0:
448,192,131166,1,8,0:0:0:0:
320,192,131239,1,8,0:0:0:0:
192,192,131311,1,8,0:0:0:0:
64,192,131383,1,8,0:0:0:0:
320,192,131455,1,4,0:0:0:0:
448,192,131455,1,0,0:0:0:0:
64,192,131743,1,0,0:0:0:0:
320,192,131888,1,8,0:0:0:0:
192,192,132176,1,0,0:0:0:0:
448,192,132320,1,0,0:0:0:0:
64,192,132464,1,8,0:0:0:0:
320,192,132609,1,0,0:0:0:0:
192,192,132609,1,4,2:0:0:0:
448,192,132897,1,0,0:0:0:0:
192,192,133041,1,8,0:0:0:0:
64,192,133330,1,0,0:0:0:0:
448,192,133474,1,0,0:0:0:0:
192,192,133618,1,8,0:0:0:0:
64,192,133763,1,0,0:0:0:0:
448,192,133763,1,4,2:0:0:0:
320,192,134051,1,0,0:0:0:0:
192,192,134195,1,8,0:0:0:0:
64,192,134484,1,0,0:0:0:0:
192,192,134628,1,0,0:0:0:0:
320,192,134772,1,8,0:0:0:0:
448,192,134916,1,4,2:0:0:0:
64,192,134916,1,0,0:0:0:0:
320,192,135205,1,0,0:0:0:0:
64,192,135349,1,8,0:0:0:0:
448,192,135493,1,8,0:0:0:0:
192,192,135638,1,0,0:0:0:0:
448,192,135782,1,0,0:0:0:0:
64,192,135926,1,8,0:0:0:0:
192,192,136070,1,0,0:0:0:0:
320,192,136070,1,4,2:0:0:0:
448,192,136359,1,0,0:0:0:0:
192,192,136503,1,8,0:0:0:0:
320,192,136791,1,0,0:0:0:0:
192,192,136936,1,0,0:0:0:0:
448,192,137080,1,8,0:0:0:0:
320,192,137224,1,4,2:0:0:0:
64,192,137224,1,0,0:0:0:0:
192,192,137513,1,0,0:0:0:0:
320,192,137657,1,8,0:0:0:0:
448,192,137945,1,0,0:0:0:0:
64,192,138089,1,0,0:0:0:0:
320,192,138234,1,8,0:0:0:0:
448,192,138378,1,0,0:0:0:0:
192,192,138378,1,4,2:0:0:0:
64,192,138666,1,0,0:0:0:0:
320,192,138811,1,8,0:0:0:0:
448,192,139099,1,0,0:0:0:0:
192,192,139243,1,0,0:0:0:0:
320,192,139388,1,8,0:0:0:0:
64,192,139532,1,4,2:0:0:0:
448,192,139532,1,0,0:0:0:0:
192,192,139820,1,0,0:0:0:0:
448,192,139964,1,8,0:0:0:0:
64,192,140109,1,0,0:0:0:0:
192,192,140253,1,8,0:0:0:0:
448,192,140397,128,8,140686:0:0:0:0:
64,192,140686,1,4,2:0:0:0:
192,192,140686,1,0,0:0:0:0:
320,192,140974,1,0,0:0:0:0:
192,192,141118,1,8,0:0:0:0:
448,192,141407,1,0,0:0:0:0:
64,192,141551,1,0,0:0:0:0:
192,192,141695,1,8,0:0:0:0:
320,192,141839,1,4,2:0:0:0:
448,192,141839,1,0,0:0:0:0:
64,192,142128,1,0,0:0:0:0:
192,192,142272,1,8,0:0:0:0:
448,192,142561,1,0,0:0:0:0:
192,192,142705,1,0,0:0:0:0:
64,192,142849,1,8,0:0:0:0:
320,192,142993,1,4,2:0:0:0:
448,192,142993,1,0,0:0:0:0:
64,192,143282,1,0,0:0:0:0:
320,192,143426,1,8,0:0:0:0:
448,192,143714,1,0,0:0:0:0:
192,192,143859,1,0,0:0:0:0:
64,192,144003,1,8,0:0:0:0:
320,192,144147,1,4,2:0:0:0:
192,192,144147,1,0,0:0:0:0:
448,192,144436,1,0,0:0:0:0:
192,192,144580,1,8,0:0:0:0:
64,192,144724,1,8,0:0:0:0:
320,192,144868,1,0,0:0:0:0:
64,192,145013,1,0,0:0:0:0:
448,192,145157,1,8,0:0:0:0:
192,192,145301,1,4,2:0:0:0:
320,192,145301,1,0,0:0:0:0:
64,192,145589,1,0,0:0:0:0:
448,192,145734,1,8,0:0:0:0:
192,192,146022,1,0,0:0:0:0:
320,192,146166,1,0,0:0:0:0:
64,192,146311,1,8,0:0:0:0:
192,192,146455,1,4,2:0:0:0:
448,192,146455,1,0,0:0:0:0:
320,192,146743,1,0,0:0:0:0:
192,192,146888,1,8,0:0:0:0:
64,192,147176,1,0,0:0:0:0:
448,192,147320,1,0,0:0:0:0:
192,192,147464,1,8,0:0:0:0:
64,192,147609,1,0,0:0:0:0:
320,192,147609,1,4,2:0:0:0:
448,192,147897,1,0,0:0:0:0:
64,192,148041,1,8,0:0:0:0:
192,192,148330,1,0,0:0:0:0:
320,192,148474,1,0,0:0:0:0:
192,192,148618,1,8,0:0:0:0:
64,192,148763,1,0,0:0:0:0:
448,192,148763,1,4,2:0:0:0:
320,192,149051,1,0,0:0:0:0:
64,192,149195,1,8,0:0:0:0:
448,192,149339,1,0,0:0:0:0:
320,192,149484,1,8,0:0:0:0:
192,192,149628,128,8,149916:0:0:0:0:
448,192,149916,1,0,0:0:0:0:
64,192,149916,128,4,150205:2:0:0:0:
320,192,150205,1,0,0:0:0:0:
448,192,150349,1,8,0:0:0:0:
192,192,150493,1,0,0:0:0:0:
64,192,150638,128,0,150926:0:0:0:0:
448,192,150926,1,8,0:0:0:0:
192,192,151070,128,4,151359:2:0:0:0:
320,192,151359,1,0,0:0:0:0:
64,192,151503,1,8,0:0:0:0:
448,192,151647,1,0,0:0:0:0:
320,192,151791,128,0,152080:0:0:0:0:
448,192,152080,1,8,0:0:0:0:
64,192,152224,128,4,152513:2:0:0:0:
448,192,152513,1,0,0:0:0:0:
320,192,152657,1,8,0:0:0:0:
192,192,152801,1,0,0:0:0:0:
448,192,152945,128,0,153234:0:0:0:0:
64,192,153234,1,8,0:0:0:0:
192,192,153378,128,4,153666:2:0:0:0:
320,192,153666,1,0,0:0:0:0:
448,192,153811,1,8,0:0:0:0:
64,192,153955,1,8,0:0:0:0:
320,192,154099,1,0,0:0:0:0:
192,192,154243,1,0,0:0:0:0:
448,192,154388,1,8,0:0:0:0:
64,192,154532,128,4,154820:2:0:0:0:
192,192,154820,1,0,0:0:0:0:
448,192,154964,1,8,0:0:0:0:
64,192,155109,1,0,0:0:0:0:
448,192,155253,128,0,155541:0:0:0:0:
192,192,155541,1,8,0:0:0:0:
320,192,155686,128,4,155974:2:0:0:0:
192,192,155974,1,0,0:0:0:0:
448,192,156118,1,8,0:0:0:0:
64,192,156263,1,0,0:0:0:0:
192,192,156407,128,0,156695:0:0:0:0:
64,192,156695,1,8,0:0:0:0:
448,192,156839,128,4,157128:2:0:0:0:
64,192,157128,1,0,0:0:0:0:
320,192,157272,1,8,0:0:0:0:
192,192,157416,1,0,0:0:0:0:
64,192,157561,128,0,157849:0:0:0:0:
448,192,157849,1,8,0:0:0:0:
320,192,157993,128,4,158282:2:0:0:0:
192,192,158282,1,0,0:0:0:0:
64,192,158426,1,8,0:0:0:0:
448,192,158570,1,0,0:0:0:0:
192,192,158714,1,0,0:0:0:0:
64,192,158714,128,8,159147:0:0:0:0:
320,192,159147,1,0,0:0:0:0:
448,192,159147,128,4,159436:2:0:0:0:
192,192,159436,1,0,0:0:0:0:
64,192,159580,1,8,0:0:0:0:
320,192,159724,1,0,0:0:0:0:
192,192,159868,1,0,0:0:0:0:
448,192,160013,1,0,0:0:0:0:
320,192,160157,1,8,0:0:0:0:
192,192,160301,1,4,2:0:0:0:
64,192,160445,1,0,0:0:0:0:
320,192,160589,1,0,0:0:0:0:
192,192,160734,1,8,0:0:0:0:
448,192,160878,1,0,0:0:0:0:
320,192,161022,1,0,0:0:0:0:
64,192,161166,1,0,0:0:0:0:
192,192,161311,1,8,0:0:0:0:
320,192,161455,1,0,0:0:0:0:
448,192,161455,128,4,161743:2:0:0:0:
64,192,161743,1,0,0:0:0:0:
320,192,161888,1,8,0:0:0:0:
192,192,162032,1,0,0:0:0:0:
448,192,162176,1,0,0:0:0:0:
192,192,162320,1,0,0:0:0:0:
320,192,162464,1,8,0:0:0:0:
64,192,162609,128,4,162897:2:0:0:0:
192,192,162609,1,0,0:0:0:0:
448,192,162897,1,0,0:0:0:0:
320,192,163041,1,8,0:0:0:0:
192,192,163186,1,8,0:0:0:0:
64,192,163186,128,4,163618:2:0:0:0:
320,192,163618,1,8,0:0:0:0:
448,192,163763,128,4,164051:2:0:0:0:
64,192,164051,1,0,0:0:0:0:
320,192,164195,1,8,0:0:0:0:
192,192,164339,1,0,0:0:0:0:
64,192,164484,128,0,164772:0:0:0:0:
320,192,164772,1,8,0:0:0:0:
448,192,164916,128,4,165205:2:0:0:0:
64,192,165205,1,0,0:0:0:0:
192,192,165349,1,8,0:0:0:0:
448,192,165493,1,0,0:0:0:0:
64,192,165638,128,0,165926:0:0:0:0:
192,192,165926,1,8,0:0:0:0:
448,192,166070,128,4,166359:2:0:0:0:
192,192,166359,1,0,0:0:0:0:
64,192,166503,1,8,0:0:0:0:
448,192,166647,1,0,0:0:0:0:
192,192,166791,128,0,167080:0:0:0:0:
320,192,167080,1,8,0:0:0:0:
64,192,167224,128,4,167513:2:0:0:0:
448,192,167513,1,0,0:0:0:0:
192,192,167657,1,8,0:0:0:0:
64,192,167801,1,0,0:0:0:0:
320,192,167945,128,8,168378:0:0:0:0:
448,192,168378,1,4,0:0:0:0:
64,192,168378,1,4,2:0:0:0:
192,192,168666,1,0,0:0:0:0:
448,192,168811,1,8,0:0:0:0:
320,192,168811,1,0,0:0:0:0:
64,192,169099,1,0,0:0:0:0:
192,192,169243,1,0,0:0:0:0:
320,192,169388,1,8,0:0:0:0:
64,192,169388,1,0,0:0:0:0:
448,192,169676,1,0,0:0:0:0:
192,192,169964,1,8,0:0:0:0:
320,192,169964,1,0,0:0:0:0:
64,192,170253,1,0,0:0:0:0:
448,192,170397,1,0,0:0:0:0:
192,192,170541,1,8,0:0:0:0:
320,192,170541,1,0,0:0:0:0:
64,192,170830,1,0,0:0:0:0:
320,192,171118,1,8,0:0:0:0:
448,192,171118,1,0,0:0:0:0:
192,192,171407,1,0,0:0:0:0:
64,192,171551,1,0,0:0:0:0:
448,192,171695,1,8,0:0:0:0:
320,192,171695,1,0,0:0:0:0:
64,192,171984,1,8,0:0:0:0:
448,192,171984,1,4,0:0:0:0:
192,192,172128,1,0,0:0:0:0:
320,192,172272,1,8,0:0:0:0:
192,192,172416,1,0,0:0:0:0:
64,192,172561,1,8,0:0:0:0:
192,192,172705,1,0,0:0:0:0:
320,192,172777,1,0,0:0:0:0:
448,192,172849,1,0,0:0:0:0:
192,192,172993,1,8,0:0:0:0:
448,192,173138,1,4,0:0:0:0:
192,192,173426,1,0,0:0:0:0:
320,192,173714,1,0,0:0:0:0:
64,192,174003,1,0,0:0:0:0:
192,192,174291,1,0,0:0:0:0:
320,192,174580,1,0,0:0:0:0:
448,192,174868,1,0,0:0:0:0:
64,192,175157,1,0,0:0:0:0:
192,192,175445,1,0,0:0:0:0:
448,192,175734,1,0,0:0:0:0:
64,192,176022,1,0,0:0:0:0:
320,192,176311,1,0,0:0:0:0:
192,192,176599,1,0,0:0:0:0:
448,192,176888,1,0,0:0:0:0:
64,192,177176,1,0,0:0:0:0:
320,192,177464,1,8,0:0:0:0:
64,192,177609,1,0,0:0:0:0:
448,192,177609,128,4,177897:2:0:0:0:
192,192,177897,1,0,0:0:0:0:
320,192,178041,1,8,0:0:0:0:
64,192,178186,1,8,0:0:0:0:
448,192,178330,1,0,0:0:0:0:
192,192,178474,1,0,0:0:0:0:
320,192,178618,1,8,0:0:0:0:
64,192,178763,1,0,0:0:0:0:
448,192,178763,128,4,179051:2:0:0:0:
192,192,179051,1,0,0:0:0:0:
320,192,179195,1,8,0:0:0:0:
64,192,179339,1,8,0:0:0:0:
448,192,179484,1,0,0:0:0:0:
192,192,179628,1,0,0:0:0:0:
320,192,179772,1,8,0:0:0:0:
64,192,179916,128,4,180205:2:0:0:0:
448,192,179916,1,0,0:0:0:0:
192,192,180205,1,0,0:0:0:0:
320,192,180349,1,8,0:0:0:0:
64,192,180493,1,8,0:0:0:0:
192,192,180638,1,0,0:0:0:0:
448,192,180782,1,0,0:0:0:0:
320,192,180926,1,8,0:0:0:0:
192,192,181070,1,0,0:0:0:0:
64,192,181070,128,4,181359:2:0:0:0:
448,192,181359,1,0,0:0:0:0:
192,192,181503,1,8,0:0:0:0:
320,192,181647,1,8,0:0:0:0:
64,192,181791,1,0,0:0:0:0:
448,192,181936,1,8,0:0:0:0:
320,192,182008,1,8,0:0:0:0:
192,192,182080,1,8,0:0:0:0:
448,192,182224,1,8,0:0:0:0:
64,192,182368,1,4,0:0:0:0:
192,192,182657,1,0,0:0:0:0:
320,192,182945,1,0,0:0:0:0:
64,192,183234,1,0,0:0:0:0:
448,192,183522,1,0,0:0:0:0:
192,192,183811,1,0,0:0:0:0:
320,192,184099,1,0,0:0:0:0:
64,192,184388,1,0,0:0:0:0:
192,192,184676,1,0,0:0:0:0:
448,192,184964,1,0,0:0:0:0:
64,192,185253,1,0,0:0:0:0:
320,192,185541,1,0,0:0:0:0:
192,192,185830,1,0,0:0:0:0:
448,192,186118,1,0,0:0:0:0:
64,192,186407,1,0,0:0:0:0:
320,192,186695,1,8,0:0:0:0:
64,192,186839,1,4,2:0:0:0:
448,192,186839,1,0,0:0:0:0:
192,192,187128,1,0,0:0:0:0:
320,192,187272,1,8,0:0:0:0:
64,192,187416,1,8,0:0:0:0:
448,192,187561,1,0,0:0:0:0:
64,192,187705,1,0,0:0:0:0:
320,192,187849,1,8,0:0:0:0:
192,192,187993,1,4,2:0:0:0:
448,192,187993,1,0,0:0:0:0:
448,192,188282,1,0,0:0:0:0:
64,192,188426,1,8,0:0:0:0:
320,192,188570,1,8,0:0:0:0:
192,192,188714,1,0,0:0:0:0:
448,192,188859,1,0,0:0:0:0:
64,192,189003,1,8,0:0:0:0:
320,192,189147,1,0,0:0:0:0:
192,192,189147,1,4,2:0:0:0:
448,192,189436,1,0,0:0:0:0:
192,192,189580,1,8,0:0:0:0:
320,192,189724,1,8,0:0:0:0:
64,192,189868,1,0,0:0:0:0:
448,192,190013,1,0,0:0:0:0:
192,192,190157,1,8,0:0:0:0:
320,192,190301,1,0,0:0:0:0:
64,192,190301,1,4,2:0:0:0:
448,192,190734,1,8,0:0:0:0:
64,192,190806,1,8,0:0:0:0:
192,192,191022,1,8,0:0:0:0:
448,192,191166,128,8,191599:0:0:0:0:
64,192,191599,1,4,0:0:0:0:
192,192,191599,1,0,0:0:0:0:
320,192,192032,1,8,0:0:0:0:
64,192,192320,128,8,192609:0:0:0:0:
448,192,192609,1,4,0:0:0:0:
192,192,193041,1,2,0:0:0:0:
320,192,193330,1,2,0:0:0:0:
64,192,193763,1,2,0:0:0:0:
448,192,194195,1,2,0:0:0:0:
320,192,194484,1,2,0:0:0:0:
64,192,194916,1,2,0:0:0:0:
448,192,195349,1,2,0:0:0:0:
192,192,195638,1,2,0:0:0:0:
448,192,196070,1,2,0:0:0:0:
320,192,196503,1,2,0:0:0:0:
64,192,197224,1,2,0:0:0:0:
320,192,197657,1,2,0:0:0:0:
192,192,197945,1,2,0:0:0:0:
448,192,198378,1,2,0:0:0:0:
64,192,198811,1,2,0:0:0:0:
192,192,199099,1,2,0:0:0:0:
448,192,199532,1,2,0:0:0:0:
64,192,199964,1,2,0:0:0:0:
320,192,200253,1,2,0:0:0:0:
64,192,200686,1,2,0:0:0:0:
320,192,201118,1,2,0:0:0:0:
64,192,201407,1,8,1:0:0:0:
448,192,201407,1,4,3:0:0:0:
192,192,201551,1,8,1:0:0:0:
320,192,201551,1,4,3:0:0:0:
448,192,201839,1,4,2:0:0:0:
64,192,201839,1,0,0:0:0:0:
320,192,202128,1,0,0:0:0:0:
192,192,202272,1,8,0:0:0:0:
448,192,202561,1,0,0:0:0:0:
64,192,202705,1,0,0:0:0:0:
320,192,202849,1,8,0:0:0:0:
192,192,202993,1,0,0:0:0:0:
448,192,202993,1,4,2:0:0:0:
64,192,203282,1,0,0:0:0:0:
320,192,203426,1,8,0:0:0:0:
192,192,203714,1,0,0:0:0:0:
64,192,203859,1,0,0:0:0:0:
448,192,204003,1,8,0:0:0:0:
320,192,204147,1,0,0:0:0:0:
192,192,204147,1,4,2:0:0:0:
64,192,204436,1,0,0:0:0:0:
320,192,204580,1,8,0:0:0:0:
448,192,204868,1,0,0:0:0:0:
64,192,205013,1,0,0:0:0:0:
192,192,205157,1,8,0:0:0:0:
64,192,205301,1,4,2:0:0:0:
320,192,205301,1,0,0:0:0:0:
448,192,205589,1,0,0:0:0:0:
320,192,205734,1,8,0:0:0:0:
64,192,205878,1,8,0:0:0:0:
320,192,206022,1,0,0:0:0:0:
192,192,206166,1,0,0:0:0:0:
448,192,206311,1,8,0:0:0:0:
64,192,206455,1,0,0:0:0:0:
192,192,206455,1,4,2:0:0:0:
448,192,206743,1,0,0:0:0:0:
320,192,206888,1,8,0:0:0:0:
192,192,207176,1,0,0:0:0:0:
320,192,207320,1,0,0:0:0:0:
64,192,207464,1,8,0:0:0:0:
448,192,207609,1,0,0:0:0:0:
192,192,207609,1,4,2:0:0:0:
64,192,207897,1,0,0:0:0:0:
192,192,208041,1,8,0:0:0:0:
320,192,208330,1,0,0:0:0:0:
448,192,208474,1,0,0:0:0:0:
192,192,208618,1,8,0:0:0:0:
64,192,208763,1,0,0:0:0:0:
448,192,208763,1,4,2:0:0:0:
320,192,209051,1,0,0:0:0:0:
192,192,209195,1,8,0:0:0:0:
64,192,209484,1,0,0:0:0:0:
448,192,209628,1,0,0:0:0:0:
192,192,209772,1,8,0:0:0:0:
448,192,209916,1,4,2:0:0:0:
64,192,209916,1,0,0:0:0:0:
320,192,210205,1,0,0:0:0:0:
64,192,210349,1,8,0:0:0:0:
192,192,210421,1,8,0:0:0:0:
320,192,210493,1,0,0:0:0:0:
448,192,210638,1,8,0:0:0:0:
64,192,210782,128,8,211070:0:0:0:0:
448,192,211070,1,4,2:0:0:0:
192,192,211359,1,0,0:0:0:0:
320,192,211503,1,8,0:0:0:0:
64,192,211791,1,0,0:0:0:0:
448,192,211936,1,0,0:0:0:0:
320,192,212080,1,8,0:0:0:0:
64,192,212224,1,0,0:0:0:0:
192,192,212224,1,4,2:0:0:0:
448,192,212513,1,0,0:0:0:0:
320,192,212657,1,8,0:0:0:0:
64,192,212945,1,0,0:0:0:0:
320,192,213089,1,0,0:0:0:0:
448,192,213234,1,8,0:0:0:0:
192,192,213378,1,4,2:0:0:0:
64,192,213378,1,0,0:0:0:0:
448,192,213666,1,0,0:0:0:0:
192,192,213811,1,8,0:0:0:0:
64,192,214099,1,0,0:0:0:0:
320,192,214243,1,0,0:0:0:0:
448,192,214388,1,8,0:0:0:0:
192,192,214532,1,4,2:0:0:0:
320,192,214532,1,0,0:0:0:0:
64,192,214820,1,0,0:0:0:0:
320,192,214964,1,8,0:0:0:0:
448,192,215109,1,8,0:0:0:0:
192,192,215253,1,0,0:0:0:0:
320,192,215397,1,0,0:0:0:0:
64,192,215541,1,8,0:0:0:0:
192,192,215686,1,0,0:0:0:0:
448,192,215686,1,4,2:0:0:0:
320,192,215974,1,0,0:0:0:0:
64,192,216118,1,8,0:0:0:0:
320,192,216407,1,0,0:0:0:0:
192,192,216551,1,0,0:0:0:0:
448,192,216695,1,8,0:0:0:0:
320,192,216839,1,4,2:0:0:0:
64,192,216839,1,0,0:0:0:0:
192,192,217128,1,0,0:0:0:0:
320,192,217272,1,8,0:0:0:0:
448,192,217561,1,0,0:0:0:0:
64,192,217705,1,0,0:0:0:0:
320,192,217849,1,8,0:0:0:0:
192,192,217993,1,4,2:0:0:0:
448,192,217993,1,0,0:0:0:0:
64,192,218282,1,0,0:0:0:0:
448,192,218426,1,8,0:0:0:0:
320,192,218714,1,0,0:0:0:0:
192,192,218859,1,0,0:0:0:0:
320,192,219003,1,8,0:0:0:0:
64,192,219147,1,4,2:0:0:0:
448,192,219147,1,0,0:0:0:0:
192,192,219436,1,0,0:0:0:0:
320,192,219580,1,8,0:0:0:0:
64,192,219724,1,0,0:0:0:0:
448,192,219868,1,8,0:0:0:0:
320,192,220013,128,8,220301:0:0:0:0:
64,192,220301,1,0,0:0:0:0:
192,192,220734,1,4,2:0:0:0:
448,192,220734,1,8,0:0:0:0:
320,192,221022,1,8,0:0:0:0:
64,192,221022,1,4,2:0:0:0:
192,192,221311,1,4,2:0:0:0:
320,192,221311,1,8,0:0:0:0:
64,192,221455,1,4,0:0:0:0:
448,192,221455,1,0,0:0:0:0:
192,192,221888,1,4,2:0:0:0:
320,192,221888,1,8,0:0:0:0:
448,192,222176,1,8,0:0:0:0:
64,192,222176,1,4,2:0:0:0:
192,192,222464,1,4,2:0:0:0:
320,192,222464,1,8,0:0:0:0:
64,192,222609,1,4,0:0:0:0:
448,192,222609,1,0,0:0:0:0:
64,192,223041,1,8,0:0:0:0:
192,192,223041,1,4,2:0:0:0:
192,192,223330,1,4,2:0:0:0:
320,192,223330,1,8,0:0:0:0:
320,192,223618,1,8,0:0:0:0:
448,192,223618,1,4,2:0:0:0:
192,192,223907,1,4,2:0:0:0:
320,192,223907,1,8,0:0:0:0:
192,192,224195,1,8,0:0:0:0:
64,192,224195,1,4,2:0:0:0:
448,192,224484,1,4,2:0:0:0:
320,192,224484,1,8,0:0:0:0:
320,192,224772,1,8,0:0:0:0:
192,192,224772,1,4,2:0:0:0:
448,192,224916,1,0,0:0:0:0:
64,192,224916,1,4,0:0:0:0:
192,192,225349,1,4,2:0:0:0:
448,192,225349,1,8,0:0:0:0:
64,192,225638,1,4,2:0:0:0:
320,192,225638,1,8,0:0:0:0:
192,192,225926,1,4,2:0:0:0:
448,192,225926,1,8,0:0:0:0:
64,192,226070,1,4,0:0:0:0:
320,192,226070,1,0,0:0:0:0:
320,192,226503,1,8,0:0:0:0:
64,192,226503,1,4,2:0:0:0:
448,192,226791,1,8,0:0:0:0:
64,192,226791,1,4,2:0:0:0:
320,192,227080,1,8,0:0:0:0:
192,192,227080,1,4,2:0:0:0:
448,192,227224,1,0,0:0:0:0:
64,192,227224,1,4,0:0:0:0:
448,192,227513,1,8,0:0:0:0:
320,192,227585,1,8,0:0:0:0:
192,192,227657,1,8,0:0:0:0:
64,192,227729,1,8,0:0:0:0:
448,192,227945,1,8,0:0:0:0:
320,192,228017,1,8,0:0:0:0:
64,192,228089,1,8,0:0:0:0:
192,192,228162,1,8,0:0:0:0:
320,192,228234,1,4,2:0:0:0:
64,192,228378,1,0,0:0:0:0:
448,192,228378,1,4,0:0:0:0:
192,192,228666,1,8,0:0:0:0:
320,192,228739,1,8,0:0:0:0:
64,192,229099,128,0,229532:0:0:0:0:
448,192,229532,1,4,2:0:0:0:
192,192,229820,1,8,0:0:0:0:
320,192,229820,1,0,0:0:0:0:
64,192,229964,128,4,230686:0:0:0:0:
448,192,229964,128,8,230686:0:0:0:0:
