osu file format v14

[General]
AudioFilename: Kagamine Rin - Abstract Nonsense.mp3
AudioLeadIn: 0
PreviewTime: 61936
Countdown: 0
SampleSet: Normal
StackLeniency: 0.7
Mode: 3
LetterboxInBreaks: 0
SpecialStyle: 0
WidescreenStoryboard: 0

[Editor]
DistanceSpacing: 1
BeatDivisor: 4
GridSize: 4
TimelineZoom: 1.1

[Metadata]
Title:Abstract Nonsense
TitleUnicode:アブストラクト・ナンセンス
Artist:Neru feat.Kagamine Rin
ArtistUnicode:Neru feat.鏡音リン
Creator:puxtu
Version:EZ
Source:
Tags:押入れP Oshiire-P Vocaloid EXIT TUNES PRESENTS Vocalodream Unhappy Suicide pxt
BeatmapID:706187
BeatmapSetID:315193

[Difficulty]
HPDrainRate:7
CircleSize:4
OverallDifficulty:7
ApproachRate:9
SliderMultiplier:2.39999990463257
SliderTickRate:2

[Events]
//Background and Video events
0,0,"Rin_abstract_nonsense.jpg",0,0
//Break Periods
//Storyboard Layer 0 (Background)
//Storyboard Layer 1 (Fail)
//Storyboard Layer 2 (Pass)
//Storyboard Layer 3 (Foreground)
//Storyboard Sound Samples

[TimingPoints]
1215,288.461538461538,4,1,1,50,1,0
62224,-100,4,1,1,50,0,1
80686,-100,4,1,1,50,0,0
131455,-100,4,1,1,50,0,1
149916,-100,4,1,1,50,0,0
193763,-100,4,2,1,25,0,0
201839,-100,4,1,1,50,0,1
220301,-100,4,1,1,50,0,0

[Colours]
Combo1 : 111,111,111
Combo2 : 250,50,50
Combo3 : 222,222,222
Combo4 : 80,70,140

[HitObjects]
320,187,1215,5,4,2:0:0:0:
192,187,1503,1,4,2:0:0:0:
320,187,1791,1,4,2:0:0:0:
64,184,1936,1,8,0:0:0:0:
448,182,2224,128,4,2513:0:0:0:0:
192,182,2224,1,0,0:0:0:0:
64,182,3378,128,4,3666:0:0:0:0:
192,182,3378,1,0,0:0:0:0:
320,182,4532,1,0,0:0:0:0:
448,182,4532,128,4,4820:0:0:0:0:
64,182,5686,128,4,5974:0:0:0:0:
192,182,5686,1,0,0:0:0:0:
448,182,6263,1,8,0:0:0:0:
320,182,6407,1,8,0:0:0:0:
64,182,6551,1,0,0:0:0:0:
192,182,6695,1,0,0:0:0:0:
448,187,6839,128,4,7128:0:0:0:0:
64,187,7272,1,0,2:0:0:0:
320,187,7561,1,0,2:0:0:0:
192,187,7849,1,0,2:0:0:0:
320,187,8138,1,0,2:0:0:0:
448,187,8426,1,0,2:0:0:0:
64,187,8714,1,0,2:0:0:0:
192,187,9003,1,0,2:0:0:0:
448,187,9147,128,4,9436:0:0:0:0:
64,187,9436,1,8,0:0:0:0:
192,192,9580,1,8,0:0:0:0:
320,187,9724,1,8,0:0:0:0:
64,192,9868,1,8,0:0:0:0:
448,187,10013,1,8,0:0:0:0:
320,187,10157,1,8,0:0:0:0:
64,187,10301,128,4,10589:0:0:0:0:
64,182,11455,1,0,0:0:0:0:
448,182,11455,1,4,0:0:0:0:
448,182,11888,1,8,0:0:0:0:
192,182,12176,1,0,0:0:0:0:
320,182,12464,1,8,0:0:0:0:
64,192,12609,1,4,2:0:0:0:
448,182,13041,1,8,0:0:0:0:
320,182,13330,1,0,0:0:0:0:
448,182,13618,1,8,0:0:0:0:
64,192,13763,1,4,2:0:0:0:
320,182,14195,1,8,0:0:0:0:
192,182,14484,1,0,0:0:0:0:
64,192,14772,1,8,0:0:0:0:
448,192,14916,1,4,2:0:0:0:
64,192,15349,1,8,0:0:0:0:
192,182,15493,1,8,0:0:0:0:
448,182,15638,1,0,0:0:0:0:
320,192,15926,1,8,0:0:0:0:
192,192,16070,1,4,2:0:0:0:
64,187,16503,1,8,0:0:0:0:
192,187,16791,1,0,0:0:0:0:
448,192,17080,1,8,0:0:0:0:
64,192,17224,1,4,2:0:0:0:
448,187,17657,1,8,0:0:0:0:
64,187,17945,1,0,0:0:0:0:
192,187,18234,1,8,0:0:0:0:
448,192,18378,1,4,2:0:0:0:
320,187,18811,1,8,0:0:0:0:
448,187,19099,1,0,0:0:0:0:
64,192,19388,1,8,0:0:0:0:
320,192,19532,1,4,2:0:0:0:
192,192,19964,1,8,0:0:0:0:
64,187,20253,1,8,0:0:0:0:
320,192,20397,128,8,20686:0:0:0:0:
64,192,20686,1,4,2:0:0:0:
448,192,21118,1,8,0:0:0:0:
64,192,21695,1,8,0:0:0:0:
320,192,22272,1,8,0:0:0:0:
192,192,22849,1,8,0:0:0:0:
448,192,23426,1,8,0:0:0:0:
192,192,24003,1,8,0:0:0:0:
448,192,24291,1,8,0:0:0:0:
64,192,24291,128,4,25445:0:0:0:0:
448,192,25445,128,4,25734:0:0:0:0:
192,192,25878,1,0,0:0:0:0:
448,192,26166,1,0,0:0:0:0:
64,192,26311,1,0,0:0:0:0:
320,192,26599,128,0,26888:0:0:0:0:
64,192,27032,1,0,0:0:0:0:
448,192,27320,1,0,0:0:0:0:
192,192,27464,1,0,0:0:0:0:
64,192,27753,128,0,28041:0:0:0:0:
320,192,28186,1,0,0:0:0:0:
192,192,28474,1,0,0:0:0:0:
448,192,28618,1,0,0:0:0:0:
192,192,28907,128,0,29195:0:0:0:0:
64,192,29339,1,0,0:0:0:0:
448,192,29628,1,0,0:0:0:0:
192,192,29772,1,0,0:0:0:0:
64,192,30061,128,0,30349:0:0:0:0:
448,192,30493,1,0,0:0:0:0:
64,192,30782,1,0,0:0:0:0:
320,192,30926,1,0,0:0:0:0:
192,192,31214,128,0,31503:0:0:0:0:
448,192,31647,1,0,0:0:0:0:
64,192,31936,1,8,0:0:0:0:
192,192,32080,1,8,0:0:0:0:
320,192,32224,1,8,0:0:0:0:
64,192,32368,128,4,33234:2:0:0:0:
448,192,32368,1,0,0:0:0:0:
448,192,33378,128,4,33811:2:0:0:0:
192,192,33955,128,4,34243:2:0:0:0:
320,192,34388,128,4,34676:2:0:0:0:
64,192,34676,128,4,34964:0:0:0:0:
320,192,35109,1,0,0:0:0:0:
64,192,35397,1,0,0:0:0:0:
448,192,35541,1,0,0:0:0:0:
192,192,35830,128,0,36118:0:0:0:0:
448,192,36263,1,0,0:0:0:0:
64,192,36551,1,0,0:0:0:0:
320,192,36695,1,0,0:0:0:0:
448,192,36984,128,0,37272:0:0:0:0:
192,192,37416,1,0,0:0:0:0:
320,192,37705,1,0,0:0:0:0:
64,192,37849,1,0,0:0:0:0:
320,192,38138,128,0,38426:0:0:0:0:
448,192,38570,1,0,0:0:0:0:
64,192,38859,1,0,0:0:0:0:
320,192,39003,1,0,0:0:0:0:
448,192,39291,128,0,39580:0:0:0:0:
64,192,39724,1,0,0:0:0:0:
448,192,40013,1,0,0:0:0:0:
192,192,40157,1,0,0:0:0:0:
320,192,40445,128,0,40734:0:0:0:0:
64,192,40878,1,0,0:0:0:0:
448,192,41166,1,8,0:0:0:0:
320,192,41311,1,8,0:0:0:0:
192,192,41455,1,8,0:0:0:0:
448,192,41599,1,0,0:0:0:0:
64,192,41599,128,4,42464:2:0:0:0:
192,192,42609,128,4,43041:2:0:0:0:
320,192,43186,128,4,43474:2:0:0:0:
64,192,43618,128,4,43907:2:0:0:0:
448,192,43907,128,0,44772:0:0:0:0:
448,192,45061,128,0,45493:0:0:0:0:
64,192,45493,128,0,45926:0:0:0:0:
192,192,45926,128,0,46214:0:0:0:0:
448,192,46214,128,0,46791:0:0:0:0:
320,192,46791,128,0,47368:0:0:0:0:
192,192,47368,128,0,47945:0:0:0:0:
64,192,47945,128,0,48234:0:0:0:0:
448,192,48234,1,8,0:0:0:0:
320,192,48378,1,4,2:0:0:0:
64,192,48811,1,8,0:0:0:0:
320,192,49099,1,4,2:0:0:0:
192,192,49388,1,8,0:0:0:0:
448,192,49532,1,4,2:0:0:0:
64,192,49964,1,8,0:0:0:0:
320,192,50253,1,4,2:0:0:0:
192,192,50541,1,8,0:0:0:0:
448,192,50686,1,4,2:0:0:0:
320,192,51118,1,8,0:0:0:0:
64,192,51407,1,4,2:0:0:0:
448,192,51695,1,8,0:0:0:0:
192,192,51839,1,4,2:0:0:0:
320,192,52272,1,8,0:0:0:0:
64,192,52561,1,4,2:0:0:0:
448,192,52849,1,8,0:0:0:0:
192,192,52993,1,8,0:0:0:0:
320,192,53138,128,0,54003:0:0:0:0:
64,192,54291,128,0,54724:0:0:0:0:
192,192,54724,128,0,55157:0:0:0:0:
320,192,55157,128,0,55445:0:0:0:0:
448,192,55445,128,0,56022:0:0:0:0:
192,192,56022,128,0,56599:0:0:0:0:
320,192,56599,128,0,57176:0:0:0:0:
64,192,57176,128,0,57464:0:0:0:0:
192,192,57464,1,8,0:0:0:0:
448,192,57609,1,4,2:0:0:0:
192,192,58041,1,8,0:0:0:0:
448,192,58330,1,4,2:0:0:0:
64,192,58618,1,8,0:0:0:0:
320,192,58763,1,4,2:0:0:0:
448,192,59195,1,8,0:0:0:0:
192,192,59484,1,4,2:0:0:0:
320,192,59772,1,8,0:0:0:0:
64,192,59916,1,4,2:0:0:0:
192,192,60349,1,8,0:0:0:0:
448,192,60638,1,4,2:0:0:0:
64,192,60926,1,8,0:0:0:0:
320,192,61070,1,4,2:0:0:0:
192,192,61503,1,8,0:0:0:0:
448,192,61791,1,8,0:0:0:0:
64,192,61936,128,8,62224:0:0:0:0:
320,192,62224,1,4,2:0:0:0:
448,192,62657,1,8,0:0:0:0:
64,192,62945,1,0,0:0:0:0:
320,192,63234,1,8,0:0:0:0:
192,192,63378,1,4,2:0:0:0:
64,192,63811,1,8,0:0:0:0:
448,192,64099,1,0,0:0:0:0:
192,192,64388,1,8,0:0:0:0:
320,192,64532,1,4,2:0:0:0:
64,192,64964,1,8,0:0:0:0:
192,192,65253,1,0,0:0:0:0:
448,192,65541,1,8,0:0:0:0:
64,192,65686,1,4,2:0:0:0:
320,192,66118,1,8,0:0:0:0:
448,192,66263,1,8,0:0:0:0:
192,192,66407,1,0,0:0:0:0:
448,192,66695,1,8,0:0:0:0:
64,192,66839,1,4,2:0:0:0:
192,192,67272,1,8,0:0:0:0:
448,192,67561,1,0,0:0:0:0:
64,192,67849,1,8,0:0:0:0:
320,192,67993,1,4,2:0:0:0:
448,192,68426,1,8,0:0:0:0:
64,192,68714,1,0,0:0:0:0:
448,192,69003,1,8,0:0:0:0:
192,192,69147,1,4,2:0:0:0:
64,192,69580,1,8,0:0:0:0:
320,192,69868,1,0,0:0:0:0:
64,192,70157,1,8,0:0:0:0:
448,192,70301,1,4,2:0:0:0:
320,192,70734,1,8,0:0:0:0:
64,192,70878,1,8,0:0:0:0:
320,192,71022,1,0,0:0:0:0:
192,192,71166,128,8,71455:0:0:0:0:
448,192,71455,1,4,2:0:0:0:
64,192,71888,1,8,0:0:0:0:
448,192,72176,1,0,0:0:0:0:
320,192,72464,1,8,0:0:0:0:
64,192,72609,1,4,2:0:0:0:
448,192,73041,1,8,0:0:0:0:
64,192,73330,1,0,0:0:0:0:
448,192,73618,1,8,0:0:0:0:
192,192,73763,1,4,2:0:0:0:
320,192,74195,1,8,0:0:0:0:
192,192,74484,1,0,0:0:0:0:
64,192,74772,1,8,0:0:0:0:
320,192,74916,1,4,2:0:0:0:
448,192,75349,1,8,0:0:0:0:
64,192,75493,1,8,0:0:0:0:
320,192,75638,1,0,0:0:0:0:
64,192,75926,1,8,0:0:0:0:
448,192,76070,1,4,2:0:0:0:
320,192,76503,1,8,0:0:0:0:
64,192,76791,1,0,0:0:0:0:
448,192,77080,1,8,0:0:0:0:
192,192,77224,1,4,2:0:0:0:
64,192,77657,1,8,0:0:0:0:
448,192,77945,1,0,0:0:0:0:
64,192,78234,1,8,0:0:0:0:
320,192,78378,1,4,2:0:0:0:
448,192,78811,1,8,0:0:0:0:
192,192,79099,1,0,0:0:0:0:
448,192,79388,1,8,0:0:0:0:
64,192,79532,1,4,2:0:0:0:
192,192,79964,1,8,0:0:0:0:
448,192,80109,1,8,0:0:0:0:
192,192,80253,1,0,0:0:0:0:
320,192,80397,128,8,80686:0:0:0:0:
64,192,80686,1,4,2:0:0:0:
448,182,81118,1,8,0:0:0:0:
320,182,81407,1,0,0:0:0:0:
448,182,81695,1,8,0:0:0:0:
192,192,81839,1,4,2:0:0:0:
64,182,82272,1,8,0:0:0:0:
192,182,82561,1,0,0:0:0:0:
64,182,82849,1,8,0:0:0:0:
448,192,82993,1,4,2:0:0:0:
192,182,83426,1,8,0:0:0:0:
320,182,83714,1,0,0:0:0:0:
448,192,84003,1,8,0:0:0:0:
64,192,84147,1,4,2:0:0:0:
448,192,84580,1,8,0:0:0:0:
320,182,84724,1,8,0:0:0:0:
64,182,84868,1,0,0:0:0:0:
192,192,85157,1,8,0:0:0:0:
320,192,85301,1,4,2:0:0:0:
448,187,85734,1,8,0:0:0:0:
320,187,86022,1,0,0:0:0:0:
64,192,86311,1,8,0:0:0:0:
448,192,86455,1,4,2:0:0:0:
64,187,86888,1,8,0:0:0:0:
448,187,87176,1,0,0:0:0:0:
320,187,87464,1,8,0:0:0:0:
64,192,87609,1,4,2:0:0:0:
192,187,88041,1,8,0:0:0:0:
64,187,88330,1,0,0:0:0:0:
448,192,88618,1,8,0:0:0:0:
192,192,88763,1,4,2:0:0:0:
320,192,89195,1,8,0:0:0:0:
448,187,89484,1,8,0:0:0:0:
192,192,89628,128,8,89916:0:0:0:0:
448,192,89916,1,4,2:0:0:0:
64,192,90349,1,8,0:0:0:0:
448,192,90926,1,8,0:0:0:0:
192,192,91503,1,8,0:0:0:0:
320,192,92080,1,8,0:0:0:0:
64,192,92657,1,8,0:0:0:0:
320,192,93234,1,8,0:0:0:0:
64,192,93522,1,8,0:0:0:0:
448,192,93522,128,4,94676:0:0:0:0:
64,192,94676,128,4,94964:0:0:0:0:
320,192,95109,1,0,0:0:0:0:
64,192,95397,1,0,0:0:0:0:
448,192,95541,1,0,0:0:0:0:
192,192,95830,128,0,96118:0:0:0:0:
448,192,96263,1,0,0:0:0:0:
64,192,96551,1,0,0:0:0:0:
320,192,96695,1,0,0:0:0:0:
448,192,96984,128,0,97272:0:0:0:0:
192,192,97416,1,0,0:0:0:0:
320,192,97705,1,0,0:0:0:0:
64,192,97849,1,0,0:0:0:0:
320,192,98138,128,0,98426:0:0:0:0:
448,192,98570,1,0,0:0:0:0:
64,192,98859,1,0,0:0:0:0:
320,192,99003,1,0,0:0:0:0:
448,192,99291,128,0,99580:0:0:0:0:
64,192,99724,1,0,0:0:0:0:
448,192,100013,1,0,0:0:0:0:
192,192,100157,1,0,0:0:0:0:
320,192,100445,128,0,100734:0:0:0:0:
64,192,100878,1,0,0:0:0:0:
448,192,101166,1,8,0:0:0:0:
320,192,101311,1,8,0:0:0:0:
192,192,101455,1,8,0:0:0:0:
64,192,101599,1,0,0:0:0:0:
448,192,101599,128,4,102464:2:0:0:0:
64,192,102609,128,4,103041:2:0:0:0:
448,192,103186,128,4,103474:2:0:0:0:
192,192,103618,128,4,103907:2:0:0:0:
448,192,103907,128,4,104195:0:0:0:0:
192,192,104339,1,0,0:0:0:0:
448,192,104628,1,0,0:0:0:0:
64,192,104772,1,0,0:0:0:0:
320,192,105061,128,0,105349:0:0:0:0:
64,192,105493,1,0,0:0:0:0:
448,192,105782,1,0,0:0:0:0:
192,192,105926,1,0,0:0:0:0:
64,192,106214,128,0,106503:0:0:0:0:
320,192,106647,1,0,0:0:0:0:
192,192,106936,1,0,0:0:0:0:
448,192,107080,1,0,0:0:0:0:
192,192,107368,128,0,107657:0:0:0:0:
64,192,107801,1,0,0:0:0:0:
448,192,108089,1,0,0:0:0:0:
192,192,108234,1,0,0:0:0:0:
64,192,108522,128,0,108811:0:0:0:0:
448,192,108955,1,0,0:0:0:0:
64,192,109243,1,0,0:0:0:0:
320,192,109388,1,0,0:0:0:0:
192,192,109676,128,0,109964:0:0:0:0:
448,192,110109,1,0,0:0:0:0:
64,192,110397,1,8,0:0:0:0:
192,192,110541,1,8,0:0:0:0:
320,192,110686,1,8,0:0:0:0:
64,192,110830,128,4,111695:2:0:0:0:
448,192,110830,1,0,0:0:0:0:
320,192,111839,128,4,112272:2:0:0:0:
192,192,112416,128,4,112705:2:0:0:0:
448,192,112849,128,4,113138:2:0:0:0:
64,192,113138,128,0,114003:0:0:0:0:
64,192,114291,128,0,114724:0:0:0:0:
192,192,114724,128,0,115157:0:0:0:0:
320,192,115157,128,0,115445:0:0:0:0:
448,192,115445,128,0,116022:0:0:0:0:
320,192,116022,128,0,116599:0:0:0:0:
192,192,116599,128,0,117176:0:0:0:0:
64,192,117176,128,0,117464:0:0:0:0:
448,192,117464,1,8,0:0:0:0:
192,192,117609,1,4,2:0:0:0:
448,192,118041,1,8,0:0:0:0:
192,192,118330,1,4,2:0:0:0:
320,192,118618,1,8,0:0:0:0:
64,192,118763,1,4,2:0:0:0:
448,192,119195,1,8,0:0:0:0:
192,192,119484,1,4,2:0:0:0:
320,192,119772,1,8,0:0:0:0:
64,192,119916,1,4,2:0:0:0:
192,192,120349,1,8,0:0:0:0:
448,192,120638,1,4,2:0:0:0:
64,192,120926,1,8,0:0:0:0:
320,192,121070,1,4,2:0:0:0:
192,192,121503,1,8,0:0:0:0:
320,192,121791,1,4,2:0:0:0:
64,192,122080,1,8,0:0:0:0:
448,192,122224,1,8,0:0:0:0:
192,192,122368,128,0,123234:0:0:0:0:
64,192,123522,128,0,123955:0:0:0:0:
192,192,123955,128,0,124388:0:0:0:0:
320,192,124388,128,0,124676:0:0:0:0:
448,192,124676,128,0,125253:0:0:0:0:
192,192,125253,128,0,125830:0:0:0:0:
320,192,125830,128,0,126407:0:0:0:0:
64,192,126407,128,0,126695:0:0:0:0:
448,192,126695,1,8,0:0:0:0:
192,192,126839,1,4,2:0:0:0:
64,192,127272,1,8,0:0:0:0:
320,192,127561,1,4,2:0:0:0:
192,192,127849,1,8,0:0:0:0:
448,192,127993,1,4,2:0:0:0:
64,192,128426,1,8,0:0:0:0:
320,192,128714,1,4,2:0:0:0:
192,192,129003,1,8,0:0:0:0:
448,192,129147,1,4,2:0:0:0:
320,192,129580,1,8,0:0:0:0:
64,192,129868,1,4,2:0:0:0:
448,192,130157,1,8,0:0:0:0:
192,192,130301,1,4,2:0:0:0:
320,192,130734,1,8,0:0:0:0:
64,192,131022,1,8,0:0:0:0:
448,192,131166,128,8,131455:0:0:0:0:
192,192,131455,1,4,2:0:0:0:
64,192,131888,1,8,0:0:0:0:
448,192,132176,1,0,0:0:0:0:
192,192,132464,1,8,0:0:0:0:
320,192,132609,1,4,2:0:0:0:
448,192,133041,1,8,0:0:0:0:
64,192,133330,1,0,0:0:0:0:
320,192,133618,1,8,0:0:0:0:
192,192,133763,1,4,2:0:0:0:
448,192,134195,1,8,0:0:0:0:
320,192,134484,1,0,0:0:0:0:
64,192,134772,1,8,0:0:0:0:
448,192,134916,1,4,2:0:0:0:
192,192,135349,1,8,0:0:0:0:
64,192,135493,1,8,0:0:0:0:
320,192,135638,1,0,0:0:0:0:
64,192,135926,1,8,0:0:0:0:
448,192,136070,1,4,2:0:0:0:
320,192,136503,1,8,0:0:0:0:
64,192,136791,1,0,0:0:0:0:
448,192,137080,1,8,0:0:0:0:
192,192,137224,1,4,2:0:0:0:
64,192,137657,1,8,0:0:0:0:
448,192,137945,1,0,0:0:0:0:
64,192,138234,1,8,0:0:0:0:
320,192,138378,1,4,2:0:0:0:
448,192,138811,1,8,0:0:0:0:
192,192,139099,1,0,0:0:0:0:
448,192,139388,1,8,0:0:0:0:
64,192,139532,1,4,2:0:0:0:
192,192,139964,1,8,0:0:0:0:
448,192,140109,1,8,0:0:0:0:
192,192,140253,1,0,0:0:0:0:
320,192,140397,128,8,140686:0:0:0:0:
64,192,140686,1,4,2:0:0:0:
448,192,141118,1,8,0:0:0:0:
64,192,141407,1,0,0:0:0:0:
192,192,141695,1,8,0:0:0:0:
448,192,141839,1,4,2:0:0:0:
64,192,142272,1,8,0:0:0:0:
448,192,142561,1,0,0:0:0:0:
64,192,142849,1,8,0:0:0:0:
320,192,142993,1,4,2:0:0:0:
192,192,143426,1,8,0:0:0:0:
320,192,143714,1,0,0:0:0:0:
448,192,144003,1,8,0:0:0:0:
192,192,144147,1,4,2:0:0:0:
64,192,144580,1,8,0:0:0:0:
448,192,144724,1,8,0:0:0:0:
192,192,144868,1,0,0:0:0:0:
448,192,145157,1,8,0:0:0:0:
64,192,145301,1,4,2:0:0:0:
192,192,145734,1,8,0:0:0:0:
448,192,146022,1,0,0:0:0:0:
64,192,146311,1,8,0:0:0:0:
320,192,146455,1,4,2:0:0:0:
448,192,146888,1,8,0:0:0:0:
64,192,147176,1,0,0:0:0:0:
448,192,147464,1,8,0:0:0:0:
192,192,147609,1,4,2:0:0:0:
64,192,148041,1,8,0:0:0:0:
320,192,148330,1,0,0:0:0:0:
64,192,148618,1,8,0:0:0:0:
448,192,148763,1,4,2:0:0:0:
320,192,149195,1,8,0:0:0:0:
64,192,149339,1,8,0:0:0:0:
448,192,149484,1,0,0:0:0:0:
64,192,149628,128,8,149916:0:0:0:0:
320,192,149916,1,4,2:0:0:0:
192,192,150205,1,0,0:0:0:0:
320,192,150349,1,8,0:0:0:0:
64,192,150493,1,0,0:0:0:0:
448,192,150638,128,0,151070:0:0:0:0:
192,192,151070,1,4,2:0:0:0:
64,192,151359,1,0,0:0:0:0:
448,192,151503,1,8,0:0:0:0:
192,192,151647,1,0,0:0:0:0:
64,192,151791,128,0,152224:0:0:0:0:
448,192,152224,1,4,2:0:0:0:
192,192,152513,1,0,0:0:0:0:
320,192,152657,1,8,0:0:0:0:
64,192,152801,1,0,0:0:0:0:
448,192,152945,128,0,153378:0:0:0:0:
192,192,153378,1,4,2:0:0:0:
64,192,153811,1,8,0:0:0:0:
192,192,153955,1,0,0:0:0:0:
448,192,154099,1,0,0:0:0:0:
320,192,154243,1,0,0:0:0:0:
192,192,154532,1,4,2:0:0:0:
448,192,154820,1,0,0:0:0:0:
64,192,154964,1,8,0:0:0:0:
320,192,155109,1,0,0:0:0:0:
64,192,155253,128,0,155686:0:0:0:0:
448,192,155686,1,4,2:0:0:0:
192,192,155974,1,0,0:0:0:0:
320,192,156118,1,8,0:0:0:0:
64,192,156263,1,0,0:0:0:0:
448,192,156407,128,0,156839:0:0:0:0:
320,192,156839,1,4,2:0:0:0:
192,192,157128,1,0,0:0:0:0:
320,192,157272,1,8,0:0:0:0:
64,192,157416,1,0,0:0:0:0:
448,192,157561,128,0,157993:0:0:0:0:
192,192,157993,1,4,2:0:0:0:
320,192,158282,1,0,0:0:0:0:
64,192,158426,1,8,0:0:0:0:
192,192,158570,1,0,0:0:0:0:
320,192,158714,128,0,159147:0:0:0:0:
192,192,159147,1,4,2:0:0:0:
448,192,159436,128,0,159868:0:0:0:0:
320,192,159868,128,0,160301:0:0:0:0:
192,192,160301,128,0,160734:0:0:0:0:
64,192,160734,128,0,161022:0:0:0:0:
320,192,161022,128,0,161311:0:0:0:0:
448,192,161455,128,4,161743:2:0:0:0:
192,192,161743,128,0,162464:0:0:0:0:
64,192,162464,1,0,0:0:0:0:
320,192,162609,128,0,162897:0:0:0:0:
448,192,162897,1,0,0:0:0:0:
64,192,163041,1,8,0:0:0:0:
192,192,163186,128,8,163618:0:0:0:0:
320,192,163763,1,0,0:0:0:0:
448,192,163763,128,4,164051:2:0:0:0:
192,192,164195,1,0,0:0:0:0:
64,192,164484,128,0,164772:0:0:0:0:
320,192,164916,128,4,165205:2:0:0:0:
192,192,164916,1,0,0:0:0:0:
448,192,165349,1,0,0:0:0:0:
64,192,165638,128,0,165926:0:0:0:0:
448,192,166070,128,4,166359:2:0:0:0:
192,192,166070,1,0,0:0:0:0:
320,192,166503,1,0,0:0:0:0:
64,192,166791,128,0,167080:0:0:0:0:
448,192,167224,128,4,167513:2:0:0:0:
320,192,167224,1,0,0:0:0:0:
64,192,167657,1,0,0:0:0:0:
448,192,167945,128,8,168378:0:0:0:0:
64,192,168378,1,4,2:0:0:0:
192,192,168811,1,8,0:0:0:0:
64,192,169388,1,8,0:0:0:0:
448,192,169964,1,8,0:0:0:0:
192,192,170541,1,8,0:0:0:0:
448,192,171118,1,8,0:0:0:0:
192,192,171695,1,8,0:0:0:0:
448,192,171984,1,8,0:0:0:0:
64,192,171984,128,4,173138:0:0:0:0:
448,192,173138,128,4,174003:0:0:0:0:
448,192,174291,128,0,174724:0:0:0:0:
192,192,174724,128,0,175157:0:0:0:0:
320,192,175157,128,0,175445:0:0:0:0:
64,192,175445,128,0,176022:0:0:0:0:
448,192,176022,128,0,176599:0:0:0:0:
192,192,176599,128,0,177176:0:0:0:0:
320,192,177176,128,0,177464:0:0:0:0:
64,192,177464,1,8,0:0:0:0:
448,192,177609,1,4,2:0:0:0:
64,192,178041,1,8,0:0:0:0:
320,192,178330,1,4,2:0:0:0:
192,192,178618,1,8,0:0:0:0:
448,192,178763,1,4,2:0:0:0:
64,192,179195,1,8,0:0:0:0:
320,192,179484,1,4,2:0:0:0:
192,192,179772,1,8,0:0:0:0:
448,192,179916,1,4,2:0:0:0:
320,192,180349,1,8,0:0:0:0:
64,192,180638,1,4,2:0:0:0:
448,192,180926,1,8,0:0:0:0:
192,192,181070,1,4,2:0:0:0:
320,192,181503,1,8,0:0:0:0:
64,192,181791,1,4,2:0:0:0:
448,192,182080,1,8,0:0:0:0:
192,192,182224,1,8,0:0:0:0:
320,192,182368,128,0,183234:0:0:0:0:
64,192,183522,128,0,183955:0:0:0:0:
192,192,183955,128,0,184388:0:0:0:0:
320,192,184388,128,0,184676:0:0:0:0:
448,192,184676,128,0,185253:0:0:0:0:
192,192,185253,128,0,185830:0:0:0:0:
320,192,185830,128,0,186407:0:0:0:0:
64,192,186407,128,0,186695:0:0:0:0:
448,192,186695,1,8,0:0:0:0:
192,192,186839,1,4,2:0:0:0:
448,192,187272,1,8,0:0:0:0:
192,192,187561,1,4,2:0:0:0:
320,192,187849,1,8,0:0:0:0:
64,192,187993,1,4,2:0:0:0:
448,192,188426,1,8,0:0:0:0:
192,192,188714,1,4,2:0:0:0:
320,192,189003,1,8,0:0:0:0:
64,192,189147,1,4,2:0:0:0:
192,192,189580,1,8,0:0:0:0:
448,192,189868,1,4,2:0:0:0:
64,192,190157,1,8,0:0:0:0:
320,192,190301,1,4,2:0:0:0:
192,192,190734,1,8,0:0:0:0:
320,192,191022,1,8,0:0:0:0:
64,192,191166,128,8,191599:0:0:0:0:
448,192,191599,128,0,192320:0:0:0:0:
320,192,191599,1,4,2:0:0:0:
192,192,192032,1,8,0:0:0:0:
64,192,192320,128,0,192609:0:0:0:0:
320,192,192609,1,4,0:0:0:0:
448,192,193763,1,2,0:0:0:0:
320,192,194484,1,2,0:0:0:0:
192,192,194916,1,2,0:0:0:0:
448,192,195638,1,2,0:0:0:0:
64,192,196070,1,2,0:0:0:0:
320,192,197224,1,2,0:0:0:0:
192,192,198378,1,2,0:0:0:0:
448,192,199099,1,2,0:0:0:0:
64,192,199532,1,2,0:0:0:0:
320,192,200253,1,2,0:0:0:0:
192,192,200686,1,2,0:0:0:0:
320,192,201407,1,8,1:0:0:0:
448,192,201407,1,4,3:0:0:0:
192,192,201551,1,8,1:0:0:0:
64,192,201551,1,4,3:0:0:0:
448,192,201839,1,4,2:0:0:0:
64,192,201839,1,0,0:0:0:0:
320,192,202272,1,8,0:0:0:0:
64,192,202561,1,0,0:0:0:0:
320,192,202849,1,8,0:0:0:0:
192,192,202993,1,4,2:0:0:0:
64,192,203426,1,8,0:0:0:0:
448,192,203714,1,0,0:0:0:0:
192,192,204003,1,8,0:0:0:0:
320,192,204147,1,4,2:0:0:0:
64,192,204580,1,8,0:0:0:0:
192,192,204868,1,0,0:0:0:0:
448,192,205157,1,8,0:0:0:0:
64,192,205301,1,4,2:0:0:0:
320,192,205734,1,8,0:0:0:0:
448,192,205878,1,8,0:0:0:0:
192,192,206022,1,0,0:0:0:0:
448,192,206311,1,8,0:0:0:0:
64,192,206455,1,4,2:0:0:0:
192,192,206888,1,8,0:0:0:0:
448,192,207176,1,0,0:0:0:0:
64,192,207464,1,8,0:0:0:0:
320,192,207609,1,4,2:0:0:0:
448,192,208041,1,8,0:0:0:0:
64,192,208330,1,0,0:0:0:0:
448,192,208618,1,8,0:0:0:0:
192,192,208763,1,4,2:0:0:0:
64,192,209195,1,8,0:0:0:0:
320,192,209484,1,0,0:0:0:0:
64,192,209772,1,8,0:0:0:0:
448,192,209916,1,4,2:0:0:0:
320,192,210349,1,8,0:0:0:0:
64,192,210493,1,8,0:0:0:0:
320,192,210638,1,0,0:0:0:0:
192,192,210782,128,8,211070:0:0:0:0:
448,192,211070,1,4,2:0:0:0:
64,192,211503,1,8,0:0:0:0:
448,192,211791,1,0,0:0:0:0:
320,192,212080,1,8,0:0:0:0:
64,192,212224,1,4,2:0:0:0:
448,192,212657,1,8,0:0:0:0:
64,192,212945,1,0,0:0:0:0:
448,192,213234,1,8,0:0:0:0:
192,192,213378,1,4,2:0:0:0:
320,192,213811,1,8,0:0:0:0:
192,192,214099,1,0,0:0:0:0:
64,192,214388,1,8,0:0:0:0:
320,192,214532,1,4,2:0:0:0:
448,192,214964,1,8,0:0:0:0:
64,192,215109,1,8,0:0:0:0:
320,192,215253,1,0,0:0:0:0:
64,192,215541,1,8,0:0:0:0:
448,192,215686,1,4,2:0:0:0:
320,192,216118,1,8,0:0:0:0:
64,192,216407,1,0,0:0:0:0:
448,192,216695,1,8,0:0:0:0:
192,192,216839,1,4,2:0:0:0:
64,192,217272,1,8,0:0:0:0:
448,192,217561,1,0,0:0:0:0:
64,192,217849,1,8,0:0:0:0:
320,192,217993,1,4,2:0:0:0:
448,192,218426,1,8,0:0:0:0:
192,192,218714,1,0,0:0:0:0:
448,192,219003,1,8,0:0:0:0:
64,192,219147,1,4,2:0:0:0:
192,192,219580,1,8,0:0:0:0:
448,192,219724,1,8,0:0:0:0:
192,192,219868,1,0,0:0:0:0:
320,192,220013,128,8,220301:0:0:0:0:
64,192,220301,1,4,2:0:0:0:
448,192,220734,1,4,2:0:0:0:
320,192,221022,1,4,2:0:0:0:
192,192,221311,1,4,2:0:0:0:
448,192,221455,1,4,0:0:0:0:
320,192,221455,1,0,0:0:0:0:
64,192,221888,1,4,2:0:0:0:
192,192,222176,1,4,2:0:0:0:
320,192,222464,1,4,2:0:0:0:
64,192,222609,1,4,0:0:0:0:
448,192,222609,1,0,0:0:0:0:
192,192,223041,1,4,2:0:0:0:
448,192,223330,1,4,2:0:0:0:
64,192,223618,1,4,2:0:0:0:
448,192,223907,1,4,2:0:0:0:
320,192,224195,1,4,2:0:0:0:
192,192,224484,1,4,2:0:0:0:
448,192,224772,1,4,2:0:0:0:
64,192,224916,1,4,0:0:0:0:
320,192,224916,1,0,0:0:0:0:
448,192,225349,1,4,2:0:0:0:
192,192,225638,1,4,2:0:0:0:
320,192,225926,1,4,2:0:0:0:
64,192,226070,1,4,0:0:0:0:
192,192,226070,1,0,0:0:0:0:
448,192,226503,1,4,2:0:0:0:
320,192,226791,1,4,2:0:0:0:
192,192,227080,1,4,2:0:0:0:
448,192,227224,1,4,0:0:0:0:
320,192,227224,1,0,0:0:0:0:
64,192,227513,128,4,227801:2:0:0:0:
448,192,227945,128,4,228234:2:0:0:0:
192,192,228234,1,4,2:0:0:0:
320,192,228378,1,4,2:0:0:0:
64,192,228666,1,8,0:0:0:0:
320,192,229099,1,4,2:0:0:0:
64,192,229388,1,4,2:0:0:0:
448,192,229532,1,4,0:0:0:0:
192,192,229820,1,8,0:0:0:0:
320,192,229964,128,8,230686:0:0:0:0:
