osu file format v13

[General]
AudioFilename: Neru - Terror.mp3
AudioLeadIn: 0
PreviewTime: 63771
Countdown: 0
SampleSet: Soft
StackLeniency: 0.7
Mode: 0
LetterboxInBreaks: 1
WidescreenStoryboard: 0

[Editor]
DistanceSpacing: 1
BeatDivisor: 3
GridSize: 4
TimelineZoom: 2

[Metadata]
Title:Terror
TitleUnicode:テロル
Artist:Neru
ArtistUnicode:Neru
Creator:Reimoe
Version:Terrorism
Source:EXISTENCE
Tags:Neru Terror Vocaloid Kagamine Rin
BeatmapID:571445
BeatmapSetID:248461

[Difficulty]
HPDrainRate:6.5
CircleSize:4.5
OverallDifficulty:8.5
ApproachRate:9.5
SliderMultiplier:2.3
SliderTickRate:1

[Events]
//Background and Video events
0,0,"eb8ca10e7bec54e7ddca9df3b8389b504ec26a69.jpg",0,0
//Break Periods
2,155655,161772
//Storyboard Layer 0 (Background)
//Storyboard Layer 1 (Fail)
//Storyboard Layer 2 (Pass)
//Storyboard Layer 3 (Foreground)
//Storyboard Sound Samples

[TimingPoints]
87,315.789473684211,4,2,1,25,1,0
19981,-100,4,2,1,50,0,0
63771,-50,4,2,1,75,0,1
69139,-100,4,2,1,75,0,1
72087,-50,4,2,1,75,0,1
87244,-100,4,2,1,50,0,0
131771,-50,4,2,1,80,0,1
137350,-100,4,2,1,80,0,1
140297,-50,4,2,1,80,0,1
142718,-100,4,2,1,80,0,1
146297,-50,4,2,1,80,0,1
147455,-100,4,2,1,80,0,1
155455,-100,4,2,1,20,0,0
162297,-133.333333333333,4,2,1,20,0,0
170613,-50,4,2,1,100,0,1
187981,-100,4,2,1,90,0,1
190823,-50,4,2,1,90,0,1
193350,-100,4,2,1,90,0,0

[Colours]
Combo1 : 117,114,243
Combo2 : 237,225,120
Combo3 : 138,193,215
Combo4 : 173,166,187

[HitObjects]
48,56,1034,6,0,L|216:56,1,153.333333333333
288,120,1350,1,0,0:0:0:0:
112,160,1560,2,0,L|192:160,1,76.6666666666667
264,264,1876,2,0,L|184:264,1,76.6666666666667
351,371,2192,2,0,L|384:302,1,76.6666666666667
512,280,2508,6,0,L|478:348,1,76.6666666666667
462,105,2823,2,0,L|429:174,1,76.6666666666667
302,196,3139,2,0,L|336:128,1,76.6666666666667
192,212,3455,2,0,L|158:280,1,76.6666666666667
32,304,3771,2,0,L|65:235,1,76.6666666666667
80,80,4087,2,0,L|46:148,1,76.6666666666667
192,216,4402,2,0,L|158:284,1,76.6666666666667
256,152,5139,5,0,0:0:0:0:
312,88,5771,1,0,0:0:0:0:
464,56,6087,6,0,L|310:56,1,153.333333333333
224,120,6403,1,0,0:0:0:0:
400,160,6613,2,0,L|323:160,1,76.6666666666667
248,264,6929,2,0,L|324:264,1,76.6666666666667
161,371,7245,2,0,L|128:302,1,76.6666666666667
0,280,7561,2,0,L|34:348,1,76.6666666666667
50,105,7876,6,0,L|83:174,1,76.6666666666667
210,196,8192,2,0,L|176:128,1,76.6666666666667
320,212,8508,2,0,L|354:280,1,76.6666666666667
482,308,8824,2,0,L|449:239,1,76.6666666666667
432,80,9140,2,0,L|466:148,1,76.6666666666667
482,308,9455,2,0,L|448:240,1,76.6666666666667
232,144,10192,5,0,0:0:0:0:
152,64,10823,1,0,0:0:0:0:
152,320,11139,6,0,P|232:288|264:224,1,153.333333333333
232,144,11455,1,8,0:0:0:0:
328,112,11665,2,0,P|280:53|207:38,1,153.333333333333
135,95,11981,1,0,0:0:0:0:
144,200,12087,2,0,P|208:161|233:90,1,153.333333333333,8|0,0:0|0:0,0:0:0:0:
368,183,12402,2,0,P|303:222|278:293,1,153.333333333333
368,272,12718,1,8,0:0:0:0:
408,184,13350,1,0,0:0:0:0:
352,80,13560,5,0,0:0:0:0:
296,128,13665,1,0,0:0:0:0:
144,184,13876,1,0,0:0:0:0:
216,208,13981,1,8,0:0:0:0:
184,336,14192,2,0,L|112:304,1,76.6666666666667,0|0,0:0|0:0,0:0:0:0:
72,176,14507,1,0,0:0:0:0:
144,184,14613,2,0,P|208:222|233:293,1,153.333333333333,8|0,0:0|0:0,0:0:0:0:
368,200,14928,2,0,P|303:161|278:90,1,153.333333333333
368,112,15244,1,8,0:0:0:0:
336,88,15876,5,0,0:0:0:0:
112,64,16192,6,0,P|64:122|65:197,1,153.333333333333
65,197,16508,1,8,0:0:0:0:
229,110,16718,2,0,P|191:114|160:136,1,76.6666666666667
280,272,17665,6,0,P|317:268|349:246,1,76.6666666666667,0|8,0:0|0:0,0:0:0:0:
400,128,17981,2,0,P|368:149|330:153,1,76.6666666666667
184,208,18297,2,0,P|221:204|253:182,1,76.6666666666667,0|8,0:0|0:0,0:0:0:0:
304,64,18613,2,0,P|272:85|234:89,1,76.6666666666667
184,208,18929,2,0,P|221:204|253:182,1,76.6666666666667,0|8,0:0|0:0,0:0:0:0:
208,8,19244,2,0,P|176:29|138:33,1,76.6666666666667
83,119,19560,2,0,P|104:150|108:188,1,76.6666666666667,0|4,0:0|0:0,0:0:0:0:
464,192,20192,5,0,0:0:0:0:
440,136,20297,1,0,0:0:0:0:
376,184,20508,5,0,0:0:0:0:
320,160,20613,1,0,0:0:0:0:
304,240,20823,1,2,0:0:0:0:
248,232,20929,1,2,0:0:0:0:
192,224,21034,1,2,0:0:0:0:
136,216,21139,1,2,0:0:0:0:
80,208,21244,1,2,0:0:0:0:
80,96,21455,5,0,0:0:0:0:
80,40,21560,2,0,B|160:48|160:48|216:112,1,153.333333333333,4|0,0:0|0:0,0:0:0:0:
159,177,21876,2,0,B|208:232|208:232|288:240,1,153.333333333333
288,184,22191,1,0,0:0:0:0:
368,64,22402,5,0,0:0:0:0:
296,72,22508,1,0,0:0:0:0:
344,128,22718,5,0,0:0:0:0:
256,160,22824,1,0,0:0:0:0:
320,192,23034,5,0,0:0:0:0:
216,240,23140,1,0,0:0:0:0:
296,256,23350,5,0,0:0:0:0:
176,320,23456,1,8,0:0:0:0:
176,320,23771,5,0,0:0:0:0:
84,238,23981,5,0,0:0:0:0:
216,240,24087,1,0,0:0:0:0:
82,196,24297,5,0,0:0:0:0:
200,136,24403,1,0,0:0:0:0:
79,154,24613,5,0,0:0:0:0:
168,56,24719,1,8,0:0:0:0:
342,326,25244,2,0,L|288:272,1,76.6666666666667
401,257,25560,2,0,L|326:241,1,76.6666666666667
456,192,25876,1,2,0:0:0:0:
392,168,25981,1,2,0:0:0:0:
376,104,26086,1,2,0:0:0:0:
312,80,26192,1,2,0:0:0:0:
248,56,26297,1,2,0:0:0:0:
8,208,26508,5,0,0:0:0:0:
56,256,26613,2,0,B|96:288|96:288|216:288,1,153.333333333333
192,240,26929,2,0,B|98:198|98:198|75:152,1,153.333333333333
168,64,27244,2,0,B|162:114|162:114|218:200,1,153.333333333333,8|0,0:0|0:0,0:0:0:0:
376,176,27560,1,0,0:0:0:0:
264,184,27771,5,0,0:0:0:0:
376,176,27876,1,0,0:0:0:0:
272,56,28087,5,0,0:0:0:0:
376,72,28192,1,0,0:0:0:0:
320,216,28402,5,0,0:0:0:0:
216,200,28507,1,8,0:0:0:0:
240,288,28718,5,0,0:0:0:0:
160,344,28823,1,0,0:0:0:0:
64,256,29034,5,0,0:0:0:0:
163,223,29139,1,0,0:0:0:0:
148,69,29350,5,0,0:0:0:0:
102,155,29455,1,0,0:0:0:0:
326,42,29665,5,0,0:0:0:0:
280,128,29770,1,8,0:0:0:0:
448,288,30297,6,0,L|384:232,1,76.6666666666667
432,152,30613,2,0,L|351:179,1,76.6666666666667
392,72,30929,1,2,0:0:0:0:
328,112,31034,1,2,0:0:0:0:
304,184,31139,1,2,0:0:0:0:
320,256,31244,1,2,0:0:0:0:
376,304,31350,1,2,0:0:0:0:
192,184,31560,5,0,0:0:0:0:
203,257,31665,2,0,P|242:322|312:352,1,153.333333333333
376,304,31981,1,0,0:0:0:0:
304,184,32192,1,0,0:0:0:0:
328,112,32297,1,8,0:0:0:0:
192,184,32508,1,0,0:0:0:0:
192,184,32613,2,0,L|248:32,1,153.333333333333
176,40,32929,1,0,0:0:0:0:
192,184,33139,2,0,L|108:155,1,76.6666666666667
192,184,33455,2,0,L|116:229,1,76.6666666666667,0|8,0:0|0:0,0:0:0:0:
120,128,33771,5,0,0:0:0:0:
107,216,33876,2,0,B|130:262|130:262|224:304,1,153.333333333333
224,304,34192,1,0,0:0:0:0:
288,80,34508,2,0,B|382:122|382:122|404:167,1,153.333333333333
404,167,34823,1,8,0:0:0:0:
328,312,35034,5,0,0:0:0:0:
400,256,35139,1,0,0:0:0:0:
272,272,35350,5,0,0:0:0:0:
384,240,35455,1,0,0:0:0:0:
216,232,35665,5,0,0:0:0:0:
360,216,35771,1,0,0:0:0:0:
248,176,35981,5,0,0:0:0:0:
344,200,36087,1,8,0:0:0:0:
264,64,36297,6,0,L|176:80,1,76.6666666666667
60,191,36613,2,0,L|104:128,1,76.6666666666667,0|4,0:0|0:2,0:0:0:0:
315,152,36929,2,0,L|227:168,1,76.6666666666667
112,280,37245,2,0,L|155:216,1,76.6666666666667,0|8,0:0|0:0,0:0:0:0:
155,216,37560,1,0,0:0:0:0:
256,352,37876,5,0,0:0:0:0:
400,280,38192,6,0,L|356:216,1,76.6666666666667,0|0,0:0|0:0,0:0:0:0:
197,152,38508,2,0,L|285:168,1,76.6666666666667,0|8,0:0|0:0,0:0:0:0:
451,191,38823,2,0,L|408:128,1,76.6666666666667
248,64,39139,2,0,L|323:77,1,76.6666666666667,0|4,0:0|0:2,0:0:0:0:
120,40,39560,1,0,0:0:0:0:
72,128,39771,2,0,L|147:141,1,76.6666666666667,0|8,0:0|0:0,0:0:0:0:
272,160,40087,1,0,0:0:0:0:
272,160,40402,5,0,0:0:0:0:
272,160,40718,5,2,0:0:0:0:
336,136,40823,1,2,0:0:0:0:
404,136,40929,1,2,0:0:0:0:
386,171,41034,5,2,0:0:0:0:
324,200,41140,1,2,0:0:0:0:
277,250,41245,1,2,0:0:0:0:
253,311,41350,5,2,0:0:0:0:
318,288,41455,1,2,0:0:0:0:
386,288,41561,1,2,0:0:0:0:
450,307,41665,1,2,0:0:0:0:
490,244,41771,6,0,P|489:178|458:86,1,153.333333333333,4|0,0:2|0:0,0:0:0:0:
404,64,42087,1,0,0:0:0:0:
320,128,42297,2,0,P|272:96|240:88,1,76.6666666666667,0|8,0:0|0:0,0:0:0:0:
176,160,42613,2,0,P|213:153|251:158,1,76.6666666666667
216,224,42929,2,0,P|178:228|142:242,1,76.6666666666667
134,344,43244,2,0,P|159:316|192:296,1,76.6666666666667
320,296,43560,2,0,P|352:316|377:344,1,76.6666666666667,0|8,0:0|0:0,0:0:0:0:
135,40,43981,5,0,0:0:0:0:
135,344,44192,1,0,0:0:0:0:
135,344,44297,1,0,0:0:0:0:
377,40,44613,1,0,0:0:0:0:
64,192,44823,1,0,0:0:0:0:
64,192,44929,1,8,0:0:0:0:
448,192,45244,1,0,0:0:0:0:
448,192,45455,6,0,P|384:200|344:232,1,76.6666666666667
376,80,45771,2,0,L|336:152,1,76.6666666666667
264,272,46087,2,0,P|200:280|160:312,1,76.6666666666667,0|8,0:0|0:0,0:0:0:0:
200,152,46402,2,0,L|160:224,1,76.6666666666667
352,192,46718,5,0,0:0:0:0:
344,168,46823,1,0,0:0:0:0:
136,296,47034,1,0,0:0:0:0:
128,272,47139,1,0,0:0:0:0:
336,144,47350,5,0,0:0:0:0:
344,168,47455,1,8,0:0:0:0:
88,328,47665,1,0,0:0:0:0:
96,360,47771,1,0,0:0:0:0:
320,88,47981,5,0,0:0:0:0:
328,120,48087,1,0,0:0:0:0:
240,312,48297,1,0,0:0:0:0:
248,344,48402,1,0,0:0:0:0:
64,144,48613,5,0,0:0:0:0:
96,104,48718,2,0,B|160:16|160:16|296:0,1,230,8|0,0:0|0:0,0:0:0:0:
272,120,49244,5,0,0:0:0:0:
240,160,49350,2,0,B|165:239|165:239|28:238,1,230
128,144,49876,1,0,0:0:0:0:
176,90,49981,1,8,0:0:0:0:
384,240,50192,1,0,0:0:0:0:
336,296,50297,1,4,0:0:0:0:
128,240,50508,1,0,0:0:0:0:
176,296,50613,1,0,0:0:0:0:
176,296,50823,5,2,0:0:0:0:
128,288,50929,1,2,0:0:0:0:
80,280,51034,1,2,0:0:0:0:
112,240,51139,5,2,0:0:0:0:
72,208,51244,1,2,0:0:0:0:
32,176,51350,1,2,0:0:0:0:
80,160,51455,5,2,0:0:0:0:
64,112,51560,1,2,0:0:0:0:
48,64,51665,1,2,0:0:0:0:
96,72,51771,1,2,0:0:0:0:
144,80,51876,2,0,B|238:103|238:103|254:223,1,153.333333333333,4|0,0:2|0:0,0:0:0:0:
292,98,52192,2,0,L|214:200,1,76.6666666666667
332,180,52402,2,0,L|379:120,1,76.6666666666667,0|8,0:0|0:0,0:0:0:0:
113,272,52823,6,0,B|144:225|144:225|87:147,1,153.333333333333
398,111,53350,2,0,B|367:158|367:158|425:237,1,153.333333333333
349,274,53665,2,0,L|307:210,1,76.6666666666667,0|8,0:0|0:0,0:0:0:0:
114,272,54087,2,0,B|171:349|171:349|288:317,1,153.333333333333
196,275,54402,1,0,0:0:0:0:
144,162,54613,2,0,L|99:73,1,76.6666666666667
263,96,54929,2,0,L|355:121,1,76.6666666666667,0|8,0:0|0:0,0:0:0:0:
368,222,55244,2,0,L|413:311,1,76.6666666666667
249,288,55560,6,0,L|157:263,1,76.6666666666667
109,91,55876,1,0,0:0:0:0:
156,47,55981,1,8,0:0:0:0:
304,96,56192,1,0,0:0:0:0:
240,104,56297,1,8,0:0:0:0:
320,208,56508,1,0,0:0:0:0:
384,232,56613,1,8,0:0:0:0:
296,312,56823,6,0,L|368:376,1,76.6666666666667
216,72,57139,2,0,L|144:8,1,76.6666666666667,0|8,0:0|0:0,0:0:0:0:
216,312,57455,2,0,L|144:376,1,76.6666666666667
296,72,57771,2,0,L|368:8,1,76.6666666666667,0|8,0:0|0:0,0:0:0:0:
158,362,58087,5,0,0:0:0:0:
104,312,58192,1,0,0:0:0:0:
104,72,58402,1,0,0:0:0:0:
158,21,58507,1,8,0:0:0:0:
353,21,58718,5,0,0:0:0:0:
408,72,58823,1,0,0:0:0:0:
404,315,59035,1,0,0:0:0:0:
353,363,59140,1,8,0:0:0:0:
292,331,59245,1,0,0:0:0:0:
303,263,59350,1,0,0:0:0:0:
372,254,59455,1,4,0:0:0:0:
409,121,59665,5,0,0:0:0:0:
344,102,59771,1,0,0:0:0:0:
103,121,59981,5,0,0:0:0:0:
168,102,60087,1,0,0:0:0:0:
104,264,60297,5,0,0:0:0:0:
168,280,60402,1,0,0:0:0:0:
304,320,60613,1,4,0:0:0:0:
344,104,60929,2,0,P|344:144|304:192,1,76.6666666666667
224,72,61244,5,0,0:0:0:0:
168,80,61350,1,0,0:0:0:0:
120,112,61455,1,0,0:0:0:0:
88,160,61560,1,0,0:0:0:0:
80,216,61665,1,0,0:0:0:0:
96,272,61771,1,0,0:0:0:0:
136,312,61876,1,0,0:0:0:0:
192,336,61981,2,0,B|200:368|200:368|200:336|200:336|208:368|208:368|208:336|208:336|216:368|216:368|216:336|216:336|224:368|224:368|224:336|224:336|232:368|232:368|232:336|232:336|240:368|240:368|240:336|240:336|248:368|248:368|248:336|248:336|256:368|256:368|256:336|256:336|264:368|264:368|264:336|264:336|272:368|272:368|272:336|272:336|280:368|280:368|280:336|280:336|480:336,1,843.333333333333,0|0,0:0|0:0,0:0:0:0:
448,168,63771,6,0,B|400:96|400:96|328:64,1,153.333333333333,0|0,0:0|0:0,0:0:0:0:
180,370,64087,2,0,B|267:364|267:364|328:320,1,153.333333333333
139,37,64402,2,0,B|100:115|100:115|104:192,1,153.333333333333
256,96,64718,1,0,0:0:0:0:
312,192,64823,1,0,0:0:0:0:
376,160,65034,1,0,0:0:0:0:
472,232,65139,1,8,0:0:0:0:
96,272,65455,6,0,B|192:336|192:336|432:336,1,306.666666666667
416,336,65771,1,0,0:0:0:0:
296,256,65981,1,0,0:0:0:0:
416,256,66087,1,0,0:0:0:0:
240,192,66297,5,0,0:0:0:0:
400,192,66402,1,8,0:0:0:0:
264,128,66613,5,0,0:0:0:0:
384,128,66718,1,0,0:0:0:0:
221,31,66929,6,0,B|296:64|296:64|368:64,1,153.333333333333
384,304,67244,2,0,B|384:232|384:232|432:120,1,153.333333333333
144,320,67560,2,0,B|216:320|216:320|328:368,1,153.333333333333,0|4,0:0|0:2,0:0:0:0:
128,80,67876,2,0,B|128:152|128:152|80:264,1,153.333333333333
368,64,68192,2,0,B|296:64|296:64|184:16,2,153.333333333333,0|0|0,0:0|0:0|0:0,0:0:0:0:
440,112,68508,1,0,0:0:0:0:
400,188,68613,2,0,B|328:188|328:188|216:140,2,153.333333333333,0|0|0,0:0|0:0|0:0,0:0:0:0:
436,188,68929,1,4,0:0:0:0:
160,328,69139,6,0,L|92:256,1,76.6666666666667
104,136,69455,2,0,L|172:208,1,76.6666666666667,0|4,0:0|0:0,0:0:0:0:
395,73,69876,1,0,0:0:0:0:
304,264,70087,1,0,0:0:0:0:
256,344,70192,1,8,0:0:0:0:
160,136,70402,5,0,0:0:0:0:
116,73,70508,1,0,0:0:0:0:
352,136,70718,5,0,0:0:0:0:
395,73,70823,1,0,0:0:0:0:
352,248,71034,5,0,0:0:0:0:
395,310,71139,1,0,0:0:0:0:
160,248,71350,1,0,0:0:0:0:
116,310,71455,1,8,0:0:0:0:
352,136,71665,1,0,0:0:0:0:
395,73,71771,1,0,0:0:0:0:
120,312,72087,6,0,B|88:272|88:272|88:152,2,153.333333333333,0|0|0,0:0|0:0|0:0,0:0:0:0:
120,312,72402,6,0,B|112:261|112:261|172:157,2,153.333333333333,0|0|0,0:0|0:0|0:0,0:0:0:0:
120,312,72718,6,0,B|138:264|138:264|242:204,1,153.333333333333,8|0,0:0|0:0,0:0:0:0:
288,176,72929,1,0,0:0:0:0:
352,136,73034,1,4,0:0:0:0:
393,72,73139,1,4,0:0:0:0:
402,62,73244,1,4,0:0:0:0:
409,54,73350,1,4,0:0:0:0:
373,347,73876,6,0,B|412:269|412:269|408:192,1,153.333333333333
103,202,74192,2,0,B|100:269|100:269|139:347,1,153.333333333333
77,101,74508,1,0,0:0:0:0:
139,37,74613,1,4,0:0:0:0:
80,144,74823,5,0,0:0:0:0:
176,48,74929,1,0,0:0:0:0:
80,184,75139,5,0,0:0:0:0:
216,64,75244,1,8,0:0:0:0:
58,305,75560,2,0,B|127:363|127:363|343:363,1,306.666666666667
368,364,75876,1,0,0:0:0:0:
160,240,76087,2,0,B|217:280|217:280|305:279,1,153.333333333333
364,183,76402,2,0,B|281:184|281:184|224:144,1,153.333333333333,0|4,0:0|0:0,0:0:0:0:
283,48,76718,2,0,B|341:88|341:88|424:88,1,153.333333333333
240,120,77034,5,0,0:0:0:0:
272,264,77139,1,4,0:0:0:0:
256,120,77350,5,0,0:0:0:0:
256,264,77455,1,0,0:0:0:0:
272,120,77665,5,0,0:0:0:0:
240,264,77771,1,8,0:0:0:0:
220,264,78087,1,4,0:0:0:0:
200,264,78613,1,0,0:0:0:0:
364,176,78718,2,0,B|255:41|255:41|117:11,1,306.666666666667
48,32,79034,6,0,L|144:152,1,153.333333333333,8|0,0:2|0:0,0:0:0:0:
188,216,79244,1,2,0:0:0:0:
142,278,79350,1,2,0:0:0:0:
70,254,79454,1,2,0:0:0:0:
70,177,79560,1,2,0:0:0:0:
143,154,79665,1,2,0:0:0:0:
328,296,79981,1,0,0:0:0:0:
436,212,80192,1,0,0:0:0:0:
416,236,80297,6,0,B|353:292|353:292|282:300,1,153.333333333333,8|0,0:0|0:0,0:0:0:0:
184,312,80508,1,0,0:0:0:0:
228,232,80614,1,0,0:0:0:0:
326,59,80823,2,0,B|127:101|127:101|70:187,1,306.666666666667,0|0,0:0|0:0,0:0:0:0:
64,200,81139,1,0,0:0:0:0:
56,216,81244,1,0,0:0:0:0:
305,257,81455,2,0,B|240:272|240:272|192:344,1,153.333333333333,0|8,0:0|0:0,0:0:0:0:
152,100,81876,1,4,0:0:0:0:
397,306,82087,1,0,0:0:0:0:
397,306,82192,5,0,0:0:0:0:
115,78,82508,1,0,0:0:0:0:
424,184,82718,1,0,0:0:0:0:
424,184,82823,1,4,0:0:0:0:
88,184,83139,1,0,0:0:0:0:
424,264,83350,5,0,0:0:0:0:
424,184,83455,1,0,0:0:0:0:
320,232,83665,5,0,0:0:0:0:
320,320,83771,1,0,0:0:0:0:
192,320,83981,5,0,0:0:0:0:
192,232,84087,1,8,0:0:0:0:
88,184,84297,5,0,0:0:0:0:
88,264,84402,1,0,0:0:0:0:
256,80,84613,5,0,0:0:0:0:
256,80,84718,1,4,0:0:0:0:
256,192,84929,12,0,87244,0:0:0:0:
104,88,89455,6,0,B|200:88|200:88|288:120,1,153.333333333333
312,160,89771,1,4,0:0:0:0:
456,104,89981,2,0,L|448:192,1,76.6666666666667
400,32,90297,2,0,L|329:84,1,76.6666666666667,0|8,0:0|0:0,0:0:0:0:
368,232,90613,2,0,L|360:320,1,76.6666666666667
312,160,90929,6,0,L|241:212,1,76.6666666666667
120,288,91244,1,0,0:0:0:0:
120,288,91350,1,0,0:0:0:0:
264,336,91560,1,0,0:0:0:0:
264,336,91665,1,8,0:0:0:0:
232,184,91876,1,0,0:0:0:0:
232,184,91981,1,0,0:0:0:0:
376,240,92192,1,0,0:0:0:0:
376,240,92297,1,0,0:0:0:0:
192,96,92613,6,0,B|288:96|288:96|376:128,1,153.333333333333
380,128,92929,1,8,0:0:0:0:
440,336,93455,2,0,L|360:288,1,76.6666666666667
432,240,93771,2,0,L|352:192,1,76.6666666666667
429,182,94087,1,2,0:0:0:0:
368,200,94192,1,2,0:0:0:0:
304,219,94297,1,2,0:0:0:0:
241,238,94402,1,2,0:0:0:0:
180,260,94508,1,2,0:0:0:0:
96,68,94718,6,0,L|184:84,1,76.6666666666667
308,152,95034,1,0,0:0:0:0:
368,200,95139,1,0,0:0:0:0:
96,104,95350,6,0,L|184:120,1,76.6666666666667,0|8,0:0|0:0,0:0:0:0:
344,192,95666,1,0,0:0:0:0:
404,240,95771,1,0,0:0:0:0:
96,140,95981,6,0,L|184:156,1,76.6666666666667
376,224,96297,1,0,0:0:0:0:
436,272,96402,1,0,0:0:0:0:
96,176,96613,6,0,L|184:192,1,76.6666666666667,0|8,0:0|0:0,0:0:0:0:
344,264,96929,1,0,0:0:0:0:
404,312,97034,1,0,0:0:0:0:
96,216,97244,1,0,0:0:0:0:
96,256,97350,2,0,B|164:312|164:312|288:336,1,153.333333333333
283,324,97665,2,0,B|348:312|348:312|416:256,1,153.333333333333,0|0,0:0|0:0,0:0:0:0:
444,228,97981,1,8,0:0:0:0:
468,76,98508,6,0,L|364:36,1,76.6666666666667
400,124,98823,2,0,L|296:84,1,76.6666666666667
468,76,99139,1,2,0:0:0:0:
400,124,99244,1,2,0:0:0:0:
328,96,99350,1,2,0:0:0:0:
260,144,99455,1,2,0:0:0:0:
192,192,99560,1,2,0:0:0:0:
224,40,99876,6,0,B|148:96|148:96|92:180,1,153.333333333333,4|0,0:0|0:0,0:0:0:0:
191,193,100192,2,0,B|224:144|224:144|300:88,1,153.333333333333
372,136,100508,1,8,0:0:0:0:
220,272,100823,1,0,0:0:0:0:
444,236,101034,5,0,0:0:0:0:
392,336,101139,1,0,0:0:0:0:
388,216,101350,1,0,0:0:0:0:
336,316,101455,1,0,0:0:0:0:
332,196,101665,1,0,0:0:0:0:
280,296,101770,1,8,0:0:0:0:
68,72,101981,6,0,L|96:168,1,76.6666666666667
132,292,102297,1,0,0:0:0:0:
140,252,102402,1,0,0:0:0:0:
240,120,102613,1,0,0:0:0:0:
232,160,102718,1,0,0:0:0:0:
328,272,102929,1,0,0:0:0:0:
360,252,103034,2,0,B|432:204|432:204|376:160,1,153.333333333333,8|0,0:0|0:0,0:0:0:0:
416,104,103350,2,0,B|348:56|348:56|216:72,1,153.333333333333
212,72,103665,5,0,0:0:0:0:
236,168,103876,1,0,0:0:0:0:
168,176,103982,1,0,0:0:0:0:
196,272,104192,1,0,0:0:0:0:
128,280,104298,1,8,0:0:0:0:
236,352,104508,2,0,L|356:332,1,76.6666666666667
356,252,104823,2,0,L|476:232,1,76.6666666666667
380,104,105139,1,0,0:0:0:0:
380,104,105244,1,0,0:0:0:0:
100,64,105876,6,0,B|116:144|116:144|188:204,1,153.333333333333
196,204,106192,1,0,0:0:0:0:
88,316,106402,1,0,0:0:0:0:
120,308,106508,1,0,0:0:0:0:
232,300,106718,1,2,0:0:0:0:
264,292,106824,1,6,0:0:0:0:
312,296,106929,5,2,0:0:0:0:
352,288,107034,1,2,0:0:0:0:
392,280,107140,1,2,0:0:0:0:
464,112,107455,5,4,0:0:0:0:
464,112,107771,1,0,0:0:0:0:
272,88,107981,2,0,L|344:113,1,76.6666666666667,0|8,0:0|0:2,0:0:0:0:
192,36,108297,1,0,0:0:0:0:
76,288,108613,6,0,B|156:316|156:316|304:292,1,230
256,228,109034,1,2,0:0:0:0:
281,225,109139,1,2,0:0:0:0:
302,222,109244,1,2,0:0:0:0:
317,158,109350,1,2,0:0:0:0:
342,159,109455,1,2,0:0:0:0:
363,160,109560,1,2,0:0:0:0:
416,100,109665,6,0,B|339:52|339:52|227:33,1,153.333333333333,8|0,0:2|0:0,0:0:0:0:
235,42,109981,2,0,B|172:52|172:52|96:100,1,153.333333333333,4|0,0:0|0:0,0:0:0:0:
52,132,110297,1,0,0:0:0:0:
96,312,110508,2,0,L|192:292,1,76.6666666666667,0|8,0:0|0:0,0:0:0:0:
416,100,110929,2,0,B|408:224|408:224|332:328,2,230,0|0|0,0:0|0:0|0:0,0:0:0:0:
96,100,111771,1,0,0:0:0:0:
96,100,111876,1,8,0:0:0:0:
166,309,112192,1,0,0:0:0:0:
300,45,112402,5,0,0:0:0:0:
300,45,112508,1,0,0:0:0:0:
69,249,112823,1,0,0:0:0:0:
283,301,113034,1,0,0:0:0:0:
283,301,113139,1,8,0:0:0:0:
300,45,113455,1,0,0:0:0:0:
444,168,113665,6,0,L|400:236,1,76.6666666666667
344,168,113981,2,0,L|302:232,1,76.6666666666667
244,168,114297,2,0,L|202:232,1,76.6666666666667,0|8,0:0|0:0,0:0:0:0:
144,168,114613,2,0,L|102:232,1,76.6666666666667
192,96,114929,5,0,0:0:0:0:
212,64,115034,1,0,0:0:0:0:
352,128,115244,1,0,0:0:0:0:
384,148,115349,1,0,0:0:0:0:
320,288,115560,1,0,0:0:0:0:
300,320,115665,1,8,0:0:0:0:
160,256,115876,5,0,0:0:0:0:
112,232,115981,2,0,B|132:104|132:104|244:176,1,230,0|0,0:0|0:0,0:0:0:0:
400,152,116613,2,0,B|380:280|380:280|268:208,1,230,0|8,0:0|0:0,0:0:0:0:
256,76,117244,1,0,0:0:0:0:
428,128,117560,5,0,0:0:0:0:
476,280,117876,2,0,B|416:328|416:328|339:328,1,153.333333333333
112,280,118402,2,0,L|172:328,1,76.6666666666667,0|4,0:0|0:0,0:0:0:0:
92,160,118823,5,2,0:0:0:0:
108,176,118929,1,2,0:0:0:0:
124,192,119034,1,2,0:0:0:0:
172,184,119139,2,0,L|300:280,1,153.333333333333
336,252,119455,1,10,0:0:0:0:
368,268,119560,1,2,0:0:0:0:
400,284,119665,1,2,0:0:0:0:
432,300,119771,1,2,0:0:0:0:
432,152,119981,6,0,L|328:100,1,76.6666666666667,0|4,0:0|0:0,0:0:0:0:
80,232,120402,1,0,0:0:0:0:
432,152,120613,1,0,0:0:0:0:
432,152,120718,1,4,0:0:0:0:
196,124,121034,5,0,0:0:0:0:
432,232,121245,1,0,0:0:0:0:
176,304,121560,2,0,L|228:236,1,76.6666666666667
272,56,121876,1,0,0:0:0:0:
272,56,121981,1,8,0:0:0:0:
106,260,122297,6,0,B|84:188|84:188|100:112,1,153.333333333333
108,80,122613,1,0,0:0:0:0:
336,80,122823,2,0,L|392:172,1,76.6666666666667
312,317,123139,2,0,L|205:319,1,76.6666666666667,0|8,0:0|0:0,0:0:0:0:
119,178,123455,2,0,L|170:84,1,76.6666666666667
392,205,123771,6,0,L|341:299,1,76.6666666666667
176,304,124087,2,0,L|119:212,1,76.6666666666667
199,66,124403,2,0,L|306:64,1,76.6666666666667,0|8,0:0|0:0,0:0:0:0:
392,204,124823,2,0,B|348:280|348:280|192:304,1,230,0|4,0:0|0:0,0:0:0:0:
96,212,125350,5,0,0:0:0:0:
184,200,125455,1,8,0:0:0:0:
318,43,125665,1,0,0:0:0:0:
285,125,125770,1,0,0:0:0:0:
353,320,125981,1,0,0:0:0:0:
298,250,126086,1,8,0:0:0:0:
158,63,126297,6,0,L|212:132,1,76.6666666666667
353,63,126613,2,0,L|300:132,1,76.6666666666667,0|8,0:0|0:0,0:0:0:0:
353,320,126929,2,0,L|300:252,1,76.6666666666667
158,320,127244,2,0,L|212:252,1,76.6666666666667,0|8,0:0|0:0,0:0:0:0:
384,272,127560,5,0,0:0:0:0:
392,188,127665,1,0,0:0:0:0:
128,272,127876,1,4,0:0:0:0:
120,188,127981,1,8,0:0:0:0:
432,96,128192,2,0,L|344:24,1,76.6666666666667
80,96,128508,2,0,L|168:24,1,76.6666666666667
128,272,128823,1,4,0:0:0:0:
128,272,129139,6,0,P|164:304|224:316,1,76.6666666666667
296,336,129455,1,2,0:0:0:0:
371,327,129560,1,2,0:0:0:0:
433,283,129665,1,2,0:0:0:0:
464,214,129770,1,2,0:0:0:0:
457,138,129876,1,2,0:0:0:0:
417,73,129981,1,2,0:0:0:0:
336,24,130087,2,0,B|328:56|328:56|328:24|328:24|320:56|320:56|320:24|320:24|312:56|312:56|312:24|312:24|304:56|304:56|304:24|304:24|296:56|296:56|296:24|296:24|288:56|288:56|288:24|288:24|280:56|280:56|280:24|280:24|272:56|272:56|272:24|272:24|264:56|264:56|264:24|264:24|256:56|256:56|256:24|256:24|248:56|248:56|248:24|248:24|32:24,1,920,0|0,0:0|0:0,0:0:0:0:
116,320,131981,6,0,B|192:344|192:344|296:320,1,153.333333333333
436,249,132297,2,0,B|419:171|419:171|346:93,1,153.333333333333
215,6,132613,2,0,B|156:60|156:60|125:162,1,153.333333333333
324,288,132929,2,0,B|255:328|255:328|148:328,1,153.333333333333
188,96,133244,2,0,B|256:55|256:55|363:55,1,153.333333333333,0|8,0:0|0:0,0:0:0:0:
260,328,133665,6,0,B|365:258|365:258|433:91,1,306.666666666667,0|0,0:0|0:0,0:0:0:0:
208,140,133981,1,0,0:0:0:0:
336,52,134192,5,0,0:0:0:0:
208,140,134297,1,0,0:0:0:0:
384,72,134508,5,0,0:0:0:0:
208,140,134613,1,8,0:0:0:0:
440,96,134823,5,0,0:0:0:0:
208,140,134929,1,0,0:0:0:0:
436,128,135139,5,0,0:0:0:0:
444,240,135244,1,0,0:0:0:0:
464,133,135455,5,0,0:0:0:0:
415,234,135560,1,0,0:0:0:0:
486,152,135771,5,0,0:0:0:0:
393,215,135876,1,4,0:0:0:0:
496,179,136087,5,0,0:0:0:0:
384,187,136192,1,0,0:0:0:0:
140,148,136402,5,0,0:0:0:0:
252,140,136507,1,0,0:0:0:0:
64,316,136718,2,2,B|144:332|144:332|316:304,1,153.333333333333
220,232,136929,1,2,0:0:0:0:
224,136,137034,2,0,B|294:147|294:147|374:131,1,153.333333333333,2|4,0:0|0:0,0:0:0:0:
132,24,137350,6,0,B|116:104|116:104|120:164,1,76.6666666666667
268,64,137665,6,0,B|252:144|252:144|256:204,1,76.6666666666667,0|4,0:0|0:0,0:0:0:0:
128,308,138087,1,0,0:0:0:0:
352,88,138297,2,0,L|276:156,1,76.6666666666667
84,168,138718,1,0,0:0:0:0:
396,240,138929,2,0,L|288:208,1,76.6666666666667
408,76,139244,5,0,0:0:0:0:
268,180,139350,1,0,0:0:0:0:
408,128,139560,5,0,0:0:0:0:
276,232,139666,1,8,0:0:0:0:
408,176,139876,5,0,0:0:0:0:
284,284,139981,1,0,0:0:0:0:
127,90,140192,5,0,0:0:0:0:
127,90,140297,2,0,B|32:188|32:188|100:344,1,306.666666666667,4|0,0:0|0:0,0:0:0:0:
230,353,140613,2,0,B|364:387|364:387|465:251,1,306.666666666667,4|0,0:0|0:0,0:0:0:0:
408,132,140929,2,0,B|371:0|371:0|202:0,1,306.666666666667,4|0,0:0|0:0,0:0:0:0:
152,60,141244,1,0,0:0:0:0:
152,60,141455,1,0,0:0:0:0:
112,132,141560,1,8,0:0:0:0:
193,348,141771,1,0,0:0:0:0:
276,346,141876,1,0,0:0:0:0:
418,164,142087,5,2,0:0:0:0:
380,96,142192,1,2,0:0:0:0:
307,112,142297,1,2,0:0:0:0:
297,187,142402,1,2,0:0:0:0:
365,220,142508,1,2,0:0:0:0:
188,136,142718,2,0,L|296:48,1,76.6666666666667,0|4,0:0|0:0,0:0:0:0:
148,248,143034,1,0,0:0:0:0:
248,88,143139,1,0,0:0:0:0:
160,352,143350,5,0,0:0:0:0:
248,88,143455,1,8,0:0:0:0:
160,352,143771,1,0,0:0:0:0:
428,208,143981,1,0,0:0:0:0:
456,68,144087,1,0,0:0:0:0:
360,232,144297,5,0,0:0:0:0:
456,68,144402,1,0,0:0:0:0:
276,256,144613,5,0,0:0:0:0:
456,68,144718,1,8,0:0:0:0:
256,172,144929,5,0,0:0:0:0:
456,68,145034,1,0,0:0:0:0:
184,208,145244,5,0,0:0:0:0:
384,104,145349,1,4,0:0:0:0:
120,244,145560,5,0,0:0:0:0:
320,140,145665,1,0,0:0:0:0:
56,276,145876,5,0,0:0:0:0:
256,172,145981,1,8,0:0:0:0:
44,320,146192,1,0,0:0:0:0:
56,276,146297,2,0,B|96:160|96:160|256:36,1,306.666666666667,4|0,0:0|0:0,0:0:0:0:
456,108,146613,6,0,B|416:224|416:224|256:348,1,306.666666666667,0|0,0:0|0:0,0:0:0:0:
152,279,146929,1,0,0:0:0:0:
116,160,147034,1,0,0:0:0:0:
164,68,147139,1,0,0:0:0:0:
283,31,147244,1,8,0:0:0:0:
408,304,147455,6,0,L|460:192,1,76.6666666666667
312,216,147771,2,0,L|337:95,1,76.6666666666667,0|4,0:0|0:2,0:0:0:0:
336,128,147981,1,2,0:0:0:0:
344,116,148087,1,2,0:0:0:0:
352,104,148192,1,2,0:0:0:0:
72,204,148508,2,0,B|72:132|72:132|136:32,1,153.333333333333
160,288,148823,1,0,0:0:0:0:
232,82,149034,1,0,0:0:0:0:
160,288,149139,1,0,0:0:0:0:
279,114,149350,5,0,0:0:0:0:
113,256,149455,1,0,0:0:0:0:
292,140,149665,5,0,0:0:0:0:
380,340,149770,1,8,0:0:0:0:
347,131,149981,5,0,0:0:0:0:
324,348,150086,1,0,0:0:0:0:
404,154,150297,5,0,0:0:0:0:
266,324,150402,1,0,0:0:0:0:
76,60,150718,1,0,0:0:0:0:
368,56,150929,2,0,L|341:141,1,76.6666666666667,0|4,0:0|0:2,0:0:0:0:
266,324,151350,5,0,0:0:0:0:
136,32,151560,2,0,L|168:112,1,76.6666666666667,0|0,0:0|0:2,0:0:0:0:
204,192,151876,1,0,0:0:0:0:
264,324,151981,1,0,0:0:0:0:
248,60,152192,5,0,0:0:0:0:
308,192,152297,1,2,0:0:0:0:
248,60,152508,5,0,0:0:0:0:
264,324,152613,1,0,0:0:0:0:
248,60,152823,5,0,0:0:0:0:
248,60,152929,1,4,0:0:0:0:
256,192,153244,12,0,155455,0:0:0:0:
88,292,162297,6,0,L|180:328,1,57.500002193451
108,216,162613,2,0,L|200:252,1,57.500002193451
128,140,162929,1,0,0:0:0:0:
140,92,163034,2,0,B|204:60|204:60|348:60,1,172.500006580353
404,96,163560,2,0,L|348:140,1,57.500002193451,0|8,0:0|0:0,0:0:0:0:
436,268,163981,6,0,B|384:308|384:308|304:316,1,115.000004386902
328,156,164508,2,0,L|344:248,1,57.500002193451
236,200,164823,2,0,L|226:143,1,57.500002193451,0|8,0:0|0:0,0:0:0:0:
148,212,165139,2,0,L|164:304,1,57.500002193451
56,256,165454,6,0,L|46:199,1,57.500002193451
88,104,165771,1,0,0:0:0:0:
88,104,165876,1,0,0:0:0:0:
188,72,166087,2,0,L|241:91,1,57.500002193451,0|8,0:0|0:0,0:0:0:0:
303,175,166402,1,0,0:0:0:0:
348,196,166508,2,0,B|354:261|354:261|318:333,1,115.000004386902
416,172,167034,2,0,L|464:264,1,57.500002193451
388,312,167350,2,0,L|312:288,1,57.500002193451,0|8,0:0|0:0,0:0:0:0:
268,216,167665,6,0,L|220:124,1,57.500002193451
296,76,167981,2,0,L|372:100,1,57.500002193451,0|0,0:0|0:0,0:0:0:0:
276,232,168402,1,0,0:0:0:0:
172,280,168613,2,0,L|128:208,1,57.500002193451,0|8,0:0|0:0,0:0:0:0:
80,88,169034,1,0,0:0:0:0:
164,148,169244,2,0,L|260:128,1,57.500002193451,0|0,0:0|0:0,0:0:0:0:
312,88,169560,1,0,0:0:0:0:
312,88,169665,1,0,0:0:0:0:
452,156,169981,2,0,B|436:256|436:256|352:344,1,172.500006580353,8|0,0:0|0:0,0:0:0:0:
116,304,170613,5,6,0:0:0:0:
144,240,170718,1,2,0:0:0:0:
188,204,170823,5,2,0:0:0:0:
216,140,170928,1,2,0:0:0:0:
444,72,171139,5,2,0:0:0:0:
408,136,171244,1,6,0:0:0:0:
436,176,171350,5,2,0:0:0:0:
400,240,171455,1,2,0:0:0:0:
360,304,171560,1,2,0:0:0:0:
180,64,171771,2,0,L|332:44,1,153.333333333333
104,192,172087,2,0,L|256:172,1,153.333333333333
104,192,172402,5,2,0:0:0:0:
138,137,172508,1,2,0:0:0:0:
171,82,172613,1,2,0:0:0:0:
220,108,172718,5,2,0:0:0:0:
284,96,172823,1,2,0:0:0:0:
348,84,172929,1,2,0:0:0:0:
416,72,173034,1,2,0:0:0:0:
484,156,173139,6,0,B|400:288|400:288|245:355,1,306.666666666667,4|0,0:0|0:0,0:0:0:0:
216,360,173455,1,0,0:0:0:0:
328,196,173665,1,0,0:0:0:0:
328,196,173770,1,8,0:0:0:0:
276,24,173981,5,0,0:0:0:0:
248,35,174087,2,0,B|111:95|111:95|28:228,1,306.666666666667
212,152,174402,1,0,0:0:0:0:
52,228,174613,5,0,0:0:0:0:
296,128,174718,1,0,0:0:0:0:
80,228,174929,5,0,0:0:0:0:
380,104,175034,1,4,0:0:0:0:
249,347,175350,6,0,B|111:288|111:288|28:156,1,306.666666666667
248,256,175665,1,0,0:0:0:0:
100,128,175876,5,0,0:0:0:0:
296,280,175981,1,0,0:0:0:0:
168,128,176192,5,0,0:0:0:0:
344,304,176297,1,8,0:0:0:0:
486,207,176508,1,0,0:0:0:0:
476,188,176613,6,0,B|379:65|379:65|218:14,1,306.666666666667
296,312,176929,1,0,0:0:0:0:
220,40,177139,5,0,0:0:0:0:
248,256,177245,1,0,0:0:0:0:
204,64,177455,5,0,0:0:0:0:
200,200,177560,1,8,0:0:0:0:
184,92,177771,5,0,0:0:0:0:
160,288,177876,1,0,0:0:0:0:
164,120,178087,5,0,0:0:0:0:
112,236,178192,1,4,0:0:0:0:
460,340,178508,5,0,0:0:0:0:
424,40,178718,2,0,B|448:124|448:124|424:232,1,153.333333333333,0|8,0:0|0:0,0:0:0:0:
272,360,179034,1,0,0:0:0:0:
251,349,179139,2,0,B|124:280|124:280|60:132,1,306.666666666667
228,232,179455,1,0,0:0:0:0:
184,56,179665,1,0,0:0:0:0:
240,160,179771,1,0,0:0:0:0:
180,88,179981,5,0,0:0:0:0:
280,236,180087,1,8,0:0:0:0:
172,140,180297,5,0,0:0:0:0:
332,328,180403,1,0,0:0:0:0:
112,80,180718,5,0,0:0:0:0:
420,52,181034,2,0,B|464:185|464:185|374:342,1,306.666666666667
368,352,181350,1,12,0:0:0:0:
92,52,181665,2,0,B|47:185|47:185|137:342,1,306.666666666667,0|4,0:0|0:0,0:0:0:0:
192,68,182192,5,2,0:0:0:0:
180,128,182297,1,2,0:0:0:0:
168,184,182402,1,2,0:0:0:0:
252,152,182508,5,2,0:0:0:0:
264,96,182613,1,10,0:0:0:0:
276,36,182718,1,2,0:0:0:0:
364,12,182823,5,2,0:0:0:0:
352,72,182928,1,2,0:0:0:0:
340,128,183033,1,2,0:0:0:0:
336,148,183139,1,2,0:0:0:0:
332,164,183244,1,6,0:0:0:0:
68,280,183455,6,0,B|120:320|120:320|240:332,1,153.333333333333
260,128,183771,1,0,0:0:0:0:
208,328,183876,1,8,0:0:0:0:
272,92,184087,5,0,0:0:0:0:
128,228,184192,1,0,0:0:0:0:
328,96,184402,5,0,0:0:0:0:
176,200,184508,1,0,0:0:0:0:
384,100,184718,5,0,0:0:0:0:
172,252,184823,1,0,0:0:0:0:
230,46,185034,5,0,0:0:0:0:
330,254,185139,1,8,0:0:0:0:
192,72,185350,5,0,0:0:0:0:
264,336,185455,1,0,0:0:0:0:
144,100,185665,5,2,0:0:0:0:
108,156,185771,1,2,0:0:0:0:
88,184,185876,1,2,0:0:0:0:
72,208,185981,1,2,0:0:0:0:
52,236,186087,1,4,0:0:0:0:
426,326,186297,5,2,0:0:0:0:
403,300,186403,1,2,0:0:0:0:
384,280,186508,1,2,0:0:0:0:
361,254,186613,1,2,0:0:0:0:
316,204,186718,1,6,0:0:0:0:
232,100,186929,1,0,0:0:0:0:
256,352,187244,2,0,B|168:344|168:344|84:280,1,153.333333333333
288,28,187665,5,0,0:0:0:0:
256,48,187771,1,0,0:0:0:0:
228,68,187876,1,0,0:0:0:0:
168,44,187981,2,0,B|130:119|130:119|134:235,1,153.333333333333,0|0,0:0|0:0,0:0:0:0:
171,342,188297,2,0,B|256:336|256:336|354:275,1,153.333333333333,4|0,0:0|0:0,0:0:0:0:
428,189,188613,2,0,B|381:119|381:119|278:65,1,153.333333333333
83,194,188929,6,0,B|130:264|130:264|233:318,1,153.333333333333,8|0,0:0|0:0,0:0:0:0:
344,340,189245,2,0,B|381:264|381:264|377:148,1,153.333333333333
340,41,189561,2,0,B|255:47|255:47|157:108,1,153.333333333333
171,342,189876,2,0,B|256:336|256:336|354:275,1,153.333333333333
428,189,190192,6,0,B|381:119|381:119|278:65,1,153.333333333333,8|0,0:0|0:0,0:0:0:0:
168,44,190508,2,0,B|130:119|130:119|134:235,1,153.333333333333
136,224,190823,1,4,0:0:0:0:
168,44,191034,1,0,0:0:0:0:
172,344,191139,1,0,0:0:0:0:
344,44,191350,1,0,0:0:0:0:
340,344,191455,1,4,0:0:0:0:
172,344,191771,5,0,0:0:0:0:
344,44,191981,1,0,0:0:0:0:
168,44,192087,1,4,0:0:0:0:
340,344,192297,1,2,0:0:0:0:
250,295,192402,1,2,0:0:0:0:
172,344,192508,1,2,0:0:0:0:
169,252,192613,1,2,0:0:0:0:
250,205,192718,5,6,0:0:0:0:
247,113,192824,1,2,0:0:0:0:
328,156,192929,1,2,0:0:0:0:
328,60,193034,1,6,0:0:0:0:
328,60,193350,5,0,0:0:0:0:
