osu file format v10

[General]
AudioFilename: Re-Education.mp3
AudioLeadIn: 1500
PreviewTime: 72671
Countdown: 0
SampleSet: Soft
StackLeniency: 0.5
Mode: 0
LetterboxInBreaks: 0

[Editor]
DistanceSpacing: 1.4
BeatDivisor: 4
GridSize: 4

[Metadata]
Title:Re-Education
TitleUnicode:Re-Education
Artist:Neru
ArtistUnicode:Neru
Creator:tutuhaha
Version:Normal
Source:Vocaloid
Tags:Kagamine Rin Len saikyouiku Oshiire-P
BeatmapID:180452
BeatmapSetID:58773

[Difficulty]
HPDrainRate:4
CircleSize:3
OverallDifficulty:3
ApproachRate:5
SliderMultiplier:1.2
SliderTickRate:1

[Events]
//Background and Video events
Video,0,"Re-Education.flv"
0,0,"BG.jpg"
//Break Periods
2,12779,31992
2,99450,108188
//Storyboard Layer 0 (Background)
//Storyboard Layer 1 (Fail)
//Storyboard Layer 2 (Pass)
//Storyboard Layer 3 (Foreground)
//Storyboard Sound Samples
//Background Colour Transformations
3,100,163,162,255

[TimingPoints]
800,368.098159509202,4,2,1,80,1,0
800,-133.333333333333,4,2,1,60,0,0
5585,-133.333333333333,4,2,1,40,0,0
6689,-133.333333333333,4,2,1,80,0,0
6781,-133.333333333333,4,2,1,60,0,0
10738,-100,4,1,1,60,0,0
12579,-100,4,1,1,70,0,0
33192,-100,4,1,1,10,0,0
36137,-133.333333333333,4,2,1,60,0,0
40922,-133.333333333333,4,2,1,40,0,0
42026,-133.333333333333,4,2,1,80,0,0
42119,-133.333333333333,4,2,1,60,0,0
46076,-100,4,1,1,50,0,0
59695,-100,4,2,1,60,0,0
64112,-100,4,1,1,50,0,0
72947,-100,4,1,1,60,0,1
99450,-100,4,1,1,50,0,0
123008,-100,4,2,1,60,0,0
127425,-100,4,1,1,50,0,0
136260,-100,4,1,1,60,0,1
162763,-100,4,1,1,60,0,0
186873,-100,4,1,1,60,0,1
212824,-100,4,2,1,80,0,0

[Colours]
Combo1 : 128,0,0
Combo2 : 128,128,128
Combo3 : 192,192,192
Combo4 : 0,64,128
Combo5 : 255,128,0

[HitObjects]
112,88,800,1,4,0:0:0
112,88,1168,1,0,0:0:0
112,88,1536,2,0,B|84:184|136:272,1,180.000006866455
244,312,2640,1,0,0:0:0
244,312,3008,2,0,B|272:216|220:128,1,180.000006866455
300,36,4112,5,0,0:0:0
300,36,4480,2,0,B|352:44|376:88,1,90.0000034332277
384,208,5217,1,0,0:0:0
384,208,5585,6,0,B|368:192|328:184,1,45.0000017166138,2|0,0:0|0:0,0:0:0
272,224,5953,2,0,B|244:224|220:212,1,45.0000017166138,2|0,0:0|0:0,0:0:0
232,136,6321,2,0,B|216:116|180:116,1,45.0000017166138,2|0,0:0|0:0,0:0:0
112,116,6689,38,0,B|88:68|24:60,1,90.0000034332277,4|0,0:0|0:0,0:0:0
64,188,7425,2,0,B|80:280|180:324,1,180.000006866455
256,224,8530,1,0,0:0:0
256,224,8898,2,0,B|240:132|140:88,1,180.000006866455
260,36,10002,5,0,0:0:0
260,36,10370,1,0,0:0:0
260,36,10738,1,8,0:0:0
312,100,10922,6,0,B|376:120|440:88,1,120,4|0,0:0|0:0,0:0:0
476,164,11474,2,0,B|420:276,2,120,8|0|8,0:0|0:0|0:0,0:0:0
476,164,12579,1,4,0:0:0
256,192,33192,12,0,35401,0:0:0
256,188,36137,38,0,B|256:136|212:104,1,90.0000034332277,4|0,0:0|0:0,0:0:0
96,80,36873,2,0,B|80:128|112:176,1,90.0000034332277
68,216,37425,2,0,B|140:232|176:308,1,135.000005149841
292,332,38346,2,0,B|268:236,1,90.0000034332277
216,216,38898,6,0,B|288:188|316:108,1,135.000005149841
200,64,39818,2,0,B|104:64,1,90.0000034332277
60,104,40370,1,0,0:0:0
68,228,40738,6,0,B|88:280,1,45.0000017166138,0|2,0:0|0:0,0:0:0
148,268,41106,2,0,B|168:320,2,45.0000017166138,0|2|0,0:0|0:0|0:0,0:0:0
200,232,41658,1,2,0:0:0
220,108,42026,38,0,B|240:60|296:48,1,90.0000034332277,4|0,0:0|0:0,0:0:0
412,68,42763,2,0,B|460:100|464:148,1,90.0000034332277
472,204,43315,2,0,B|396:180|332:224,1,135.000005149841
368,340,44235,2,0,B|296:368|228:328,1,135.000005149841
216,208,45155,5,0,0:0:0
216,208,45339,1,0,0:0:0
256,88,45707,2,0,B|268:56|292:48,2,45.0000017166138,0|0|8,0:0|0:0|0:0,0:0:0
336,60,46260,6,0,B|408:52|452:104,1,120,4|0,0:0|0:0,0:0:0
412,176,46812,2,0,B|412:304,2,120,8|0|8,0:0|0:0|0:0,0:0:0
256,240,47916,5,4,0:0:0
256,240,48284,1,8,0:0:0
256,240,48652,2,0,B|236:176|152:168,1,120,0|8,0:0|0:0,0:0:0
84,160,49204,1,0,0:0:0
232,76,49573,2,0,B|288:52,2,60,0|8|0,0:0|0:0|0:0,0:0:0
364,180,50309,5,0,0:0:0
364,264,50493,1,8,0:0:0
312,332,50677,2,0,B|248:340|200:288,1,120
156,224,51229,1,8,0:0:0
40,104,51597,2,0,B|8:48,2,60,0|0|8,0:0|0:0|0:0,0:0:0
116,136,52149,38,0,B|188:132|232:60,1,120
292,32,52701,1,8,0:0:0
440,116,53069,1,0,0:0:0
468,196,53253,1,0,0:0:0
464,280,53438,1,8,0:0:0
344,164,53806,6,0,B|308:112|212:112,2,120,4|8|0,0:0|0:0|0:0,0:0:0
284,320,54910,1,8,0:0:0
212,276,55094,2,0,B|156:240|80:272,1,120
44,200,55646,2,0,B|40:168|48:132,1,60,8|0,0:0|0:0,0:0:0
180,40,56198,5,0,0:0:0
232,104,56382,1,8,0:0:0
244,188,56566,1,0,0:0:0
356,312,56934,1,0,0:0:0
424,264,57119,2,0,B|468:216|460:144,1,120,8|0,0:0|0:0,0:0:0
420,80,57671,1,0,0:0:0
340,108,57855,2,0,B|312:128|272:124,1,60,8|4,0:0|0:0,0:0:0
132,52,58407,2,0,B|96:44|52:64,2,60
108,132,58959,2,0,B|3:191,1,120,0|8,0:0|0:0,0:0:0
132,300,59695,6,0,B|244:236,1,120,4|0,0:0|0:0,0:0:0
304,84,60431,2,0,B|396:124|424:244,1,180
300,336,61352,2,0,B|268:316|260:280,2,60,0|0|8,0:0|0:0|0:0,0:0:0
256,172,62088,1,0,0:0:0
256,172,62272,1,8,0:0:0
88,180,62640,6,0,B|80:84|168:16,1,180,0|8,0:0|0:0,0:0:0
328,44,63560,2,0,B|368:32|408:56,2,60
352,124,64112,2,0,B|352:248,1,120,0|8,0:0|0:0,0:0:0
188,276,64849,1,0,0:0:0
188,276,65217,1,8,0:0:0
48,184,65585,6,0,B|72:116|152:92,1,120,4|8,0:0|0:0,0:0:0
288,52,66321,1,0,0:0:0
236,212,66689,1,8,0:0:0
236,212,66873,2,0,B|320:256|432:216,1,180,4|8,0:0|0:0,0:0:0
424,72,67793,2,0,B|388:64|352:80,1,60
196,76,68346,5,0,0:0:0
196,76,68530,2,0,B|160:168|36:168,1,180,4|0,0:0|0:0,0:0:0
160,300,69450,1,0,0:0:0
236,332,69634,1,8,0:0:0
320,324,69818,6,0,B|348:268|424:244,1,120,4|0,0:0|0:0,0:0:0
484,208,70370,1,8,0:0:0
368,84,70738,2,0,B|356:48|320:40,2,60,0|0|8,0:0|0:0|0:0,0:0:0
296,124,71290,38,0,B|256:172|172:164,1,120,4|0,0:0|0:0,0:0:0
104,152,71842,2,0,B|68:152|36:176,1,60,8|0,0:0|0:0,0:0:0
24,248,72211,1,0,0:0:0
24,248,72579,1,8,0:0:0
164,340,72947,6,0,B|232:312|240:232,1,120,4|8,0:0|0:0,0:0:0
300,196,73499,2,0,B|260:152|288:72,1,120
352,32,74051,1,8,0:0:0
352,32,74419,6,0,B|396:36|416:64,1,60
476,100,74787,2,0,B|432:124|416:172,1,90,8|0,0:0|0:0,0:0:0
496,264,75339,1,0,0:0:0
496,264,75523,1,8,0:0:0
340,328,75892,38,0,B|232:248,1,120,0|8,0:0|0:0,0:0:0
164,284,76444,2,0,B|208:236|212:168,1,120
152,116,76996,1,8,0:0:0
308,56,77364,6,0,B|308:92|324:120,1,60
376,176,77732,2,0,B|416:192|456:184,1,60,8|0,0:0|0:0,0:0:0
420,104,78100,1,4,0:0:0
336,248,78468,1,4,0:0:0
192,336,78836,5,4,0:0:0
192,336,79204,1,8,0:0:0
116,304,79388,2,0,B|48:288|20:216,1,120,4|0,0:0|0:0,0:0:0
24,148,79941,1,8,0:0:0
88,92,80125,38,0,B|160:108|176:188,1,120,4|0,0:0|0:0,0:0:0
216,240,80677,2,0,B|240:268|288:272,1,60,8|4,0:0|0:0,0:0:0
320,108,81229,1,0,0:0:0
320,108,81413,1,8,0:0:0
412,248,81781,6,0,B|488:196|492:84,2,180,4|0|8,0:0|0:0|0:0,0:0:0
260,320,83253,1,0,0:0:0
192,272,83438,1,4,0:0:0
160,196,83622,1,8,0:0:0
72,52,83990,2,0,B|144:44|188:100,1,120,0|8,0:0|0:0,0:0:0
324,180,84726,6,0,B|396:176|440:108,1,120,4|8,0:0|0:0,0:0:0
484,188,85278,2,0,B|488:256|424:304,1,120
356,308,85830,1,8,0:0:0
356,308,86198,37,0,0:0:0
188,332,86566,2,0,B|176:280|120:260,1,90,8|0,0:0|0:0,0:0:0
48,172,87119,1,0,0:0:0
48,172,87303,1,8,0:0:0
148,40,87671,6,0,B|252:48|288:160,1,180
336,304,88591,2,0,B|360:332|392:348,2,60,0|8|0,0:0|0:0|0:0,0:0:0
316,224,89143,2,0,B|388:212|420:140,1,120,0|8,0:0|0:0,0:0:0
292,40,89879,1,4,0:0:0
292,40,90247,1,4,0:0:0
292,40,90615,6,0,B|260:88|176:88,1,120,4|8,0:0|0:0,0:0:0
104,96,91168,2,0,B|68:152|92:224,1,120,4|0,0:0|0:0,0:0:0
136,280,91720,1,8,0:0:0
216,308,91904,1,4,0:0:0
376,260,92272,37,0,0:0:0
432,196,92456,1,8,0:0:0
456,116,92640,1,4,0:0:0
312,28,93008,2,0,B|280:32|256:60,2,60,0|8|0,0:0|0:0|0:0,0:0:0
324,112,93560,6,0,B|300:176|220:184,1,120,4|8,0:0|0:0,0:0:0
152,188,94112,2,0,B|88:176|60:116,1,120
68,32,94665,1,8,0:0:0
68,32,95033,6,0,B|184:92,1,120,0|8,0:0|0:0,0:0:0
260,244,95769,2,0,B|153:188,1,120,0|8,0:0|0:0,0:0:0
256,56,96505,5,4,0:0:0
256,56,96873,1,0,0:0:0
256,56,97241,1,0,0:0:0
256,56,97609,2,0,B|296:56|328:76,1,60
340,148,97977,22,0,B|396:192|376:272|304:320|232:260,1,240
176,116,99082,1,8,0:0:0
256,192,109388,5,8,0:0:0
256,192,109573,2,0,B|208:248|120:228,1,120,4|0,0:0|0:0,0:0:0
100,164,110125,2,0,B|112:96|180:64,2,120,8|0|8,0:0|0:0|0:0,0:0:0
100,336,111229,6,0,P|24:336,2,60,0|0|8,0:0|0:0|0:0,0:0:0
268,344,111965,2,0,B|272:284|216:236,1,120,0|8,0:0|0:0,0:0:0
156,184,112517,1,0,0:0:0
244,40,112885,38,0,B|272:24|312:32,2,60,0|8|0,0:0|0:0|0:0,0:0:0
384,136,113622,2,0,B|412:156|420:184,1,60,0|8,0:0|0:0,0:0:0
412,268,113990,6,0,B|388:336|312:348,1,120
256,300,114542,1,8,0:0:0
92,264,114910,1,0,0:0:0
96,180,115094,1,0,0:0:0
148,116,115278,1,8,0:0:0
228,96,115462,6,0,B|300:104|344:176,1,120
380,220,116014,2,0,B|444:228|496:176,1,120,8|0,0:0|0:0,0:0:0
388,48,116750,1,8,0:0:0
308,24,116934,1,0,0:0:0
224,28,117119,38,0,B|152:36|116:100,1,120,4|8,0:0|0:0,0:0:0
60,244,117855,1,0,0:0:0
60,244,118223,1,8,0:0:0
124,300,118407,6,0,B|196:308|248:244,1,120
244,176,118959,1,8,0:0:0
200,104,119143,1,0,0:0:0
364,68,119511,2,0,B|392:56|428:64,1,60,0|8,0:0|0:0,0:0:0
404,144,119879,6,0,B|404:216|348:264,1,120
280,280,120431,1,8,0:0:0
116,308,120799,1,0,0:0:0
72,236,120984,1,0,0:0:0
68,152,121168,1,8,0:0:0
96,72,121352,38,0,B|148:32|232:48,1,120,4|0,0:0|0:0,0:0:0
272,100,121904,1,8,0:0:0
216,260,122272,2,0,B|260:264|288:248,1,60
360,252,122640,2,0,B|396:240|412:204,1,60,8|0,0:0|0:0,0:0:0
444,140,123008,38,0,B|432:80|344:48,1,120,4|0,0:0|0:0,0:0:0
280,48,123560,1,8,0:0:0
196,64,123744,1,0,0:0:0
60,164,124112,5,8,0:0:0
60,164,124296,2,0,B|96:252|200:272,1,180
228,348,125033,2,0,B|280:312|344:328,1,120,8|0,0:0|0:0,0:0:0
424,352,125585,1,8,0:0:0
392,188,125953,2,0,B|360:104|244:88,2,180,0|8|8,0:0|0:0|0:0,0:0:0
232,236,127425,6,0,B|200:248|160:240,1,60,0|0,0:0|0:0,0:0:0
112,184,127793,2,0,B|92:148|52:136,1,60,8|0,0:0|0:0,0:0:0
80,60,128161,2,0,B|148:72|212:32,2,120,0|8|4,0:0|0:0|0:0,0:0:0
120,224,129266,6,0,B|144:288,1,60,8|0,0:0|0:0,0:0:0
224,268,129634,2,0,B|248:332,1,60
408,280,130186,6,0,B|464:240|468:160,1,120
424,108,130738,1,8,0:0:0
344,88,130922,2,0,B|312:72|264:80,2,60
288,248,131658,37,0,0:0:0
288,248,131842,2,0,B|184:236|152:124,2,180,4|0|8,0:0|0:0|0:0,0:0:0
348,188,133131,2,0,B|420:172|472:212,1,120
444,288,133683,1,8,0:0:0
292,360,134051,6,0,B|256:360|228:340,2,60,0|0|8,0:0|0:0|0:0,0:0:0
292,276,134603,2,0,B|220:268|188:192,1,120,4|0,0:0|0:0,0:0:0
124,252,135155,2,0,B|96:236|56:240,2,60,8|0|0,0:0|0:0|0:0,0:0:0
184,92,135892,1,8,0:0:0
348,44,136260,6,0,B|280:72|272:152,1,120,4|8,0:0|0:0,0:0:0
212,188,136812,2,0,B|252:232|224:312,1,120
160,352,137364,1,8,0:0:0
160,352,137732,38,0,B|116:348|96:320,1,60
36,284,138100,2,0,B|80:260|96:212,1,90,8|0,0:0|0:0,0:0:0
16,120,138652,1,0,0:0:0
16,120,138836,1,8,0:0:0
172,56,139204,6,0,B|280:136,1,120,0|8,0:0|0:0,0:0:0
348,100,139757,2,0,B|304:148|300:216,1,120
360,268,140309,1,8,0:0:0
204,328,140677,6,0,B|204:292|188:264,1,60
136,208,141045,2,0,B|96:192|56:200,1,60,8|0,0:0|0:0,0:0:0
92,280,141413,1,4,0:0:0
176,136,141781,1,4,0:0:0
320,48,142149,37,4,0:0:0
320,48,142517,1,8,0:0:0
396,80,142701,2,0,B|464:96|492:168,1,120,4|0,0:0|0:0,0:0:0
488,236,143253,1,8,0:0:0
424,292,143438,2,0,B|352:276|336:196,1,120,4|0,0:0|0:0,0:0:0
296,144,143990,2,0,B|272:116|224:112,1,60,8|4,0:0|0:0,0:0:0
192,276,144542,5,0,0:0:0
192,276,144726,1,8,0:0:0
100,136,145094,2,0,B|24:188|20:300,2,180,4|0|8,0:0|0:0|0:0,0:0:0
252,64,146566,5,0,0:0:0
320,112,146750,1,4,0:0:0
352,188,146934,1,8,0:0:0
440,332,147303,2,0,B|368:340|324:284,1,120,0|8,0:0|0:0,0:0:0
188,204,148039,38,0,B|116:208|72:276,1,120,4|8,0:0|0:0,0:0:0
28,196,148591,2,0,B|24:128|88:80,1,120
156,76,149143,1,8,0:0:0
156,76,149511,6,0,B|224:60,1,60
292,96,149879,2,0,B|304:148|360:168,1,90,8|0,0:0|0:0,0:0:0
464,212,150431,1,0,0:0:0
464,212,150615,1,8,0:0:0
364,344,150984,6,0,B|260:336|224:224,1,180
176,80,151904,2,0,B|152:52|120:36,2,60,0|8|0,0:0|0:0|0:0,0:0:0
196,160,152456,38,0,B|124:172|92:244,1,120,0|8,0:0|0:0,0:0:0
220,344,153192,1,4,0:0:0
220,344,153560,1,4,0:0:0
220,344,153928,6,0,B|252:296|336:296,1,120,4|8,0:0|0:0,0:0:0
408,288,154480,2,0,B|444:232|420:160,1,120,4|0,0:0|0:0,0:0:0
376,104,155033,1,8,0:0:0
296,76,155217,1,4,0:0:0
136,124,155585,5,0,0:0:0
80,188,155769,1,8,0:0:0
56,268,155953,1,4,0:0:0
200,356,156321,2,0,B|232:352|256:324,2,60,0|8|0,0:0|0:0|0:0,0:0:0
188,272,156873,38,0,B|212:208|292:200,1,120,4|8,0:0|0:0,0:0:0
360,196,157425,2,0,B|424:208|452:268,1,120
444,352,157977,1,8,0:0:0
444,352,158346,6,0,B|328:292,1,120,0|8,0:0|0:0,0:0:0
252,140,159082,2,0,B|359:196,1,120,0|8,0:0|0:0,0:0:0
256,328,159818,21,4,0:0:0
256,328,160186,1,0,0:0:0
256,328,160554,1,0,0:0:0
88,352,160922,2,0,B|96:316|136:288,1,60,8|0,0:0|0:0,0:0:0
172,236,161290,22,0,B|116:192|136:112|208:64|280:124,1,240
336,268,162395,2,0,B|296:256|280:220,1,60,8|0,0:0|0:0,0:0:0
356,188,162763,6,0,B|360:116|436:80,1,120,4|8,0:0|0:0,0:0:0
260,32,163499,1,2,0:0:0
260,32,163683,1,0,0:0:0
216,196,164051,6,0,B|192:268|108:280,1,120,4|0,0:0|0:0,0:0:0
56,244,164603,2,0,B|36:216|40:180,1,60,8|0,0:0|0:0,0:0:0
124,184,164971,2,0,B|148:60,1,120,0|8,0:0|0:0,0:0:0
316,52,165707,38,0,B|338:120|421:135,1,120,4|8,0:0|0:0,0:0:0
352,292,166444,1,2,0:0:0
352,292,166628,1,0,0:0:0
232,176,166996,6,0,B|190:112|105:122,1,120,4|0,0:0|0:0,0:0:0
65,171,167548,2,0,B|52:203|66:236,1,60,8|0,0:0|0:0,0:0:0
146,211,167916,2,0,B|201:324,1,120,0|8,0:0|0:0,0:0:0
368,332,168652,6,0,B|428:320|464:260,1,120,0|8,0:0|0:0,0:0:0
320,176,169388,1,2,0:0:0
320,176,169573,1,0,0:0:0
152,180,169941,38,0,B|104:132|128:56,1,120,4|0,0:0|0:0,0:0:0
204,48,170493,2,0,B|228:84|264:88,1,60,8|0,0:0|0:0,0:0:0
328,52,170861,2,0,B|440:136,1,120,0|8,0:0|0:0,0:0:0
336,268,171597,5,4,0:0:0
184,340,171965,2,0,B|208:316|216:280,1,60,8|0,0:0|0:0,0:0:0
204,204,172333,2,0,B|192:176|160:160,2,60,2|0|8,0:0|0:0|0:0,0:0:0
128,236,172885,6,0,B|52:224|32:140,1,120,4|0,0:0|0:0,0:0:0
68,84,173438,1,8,0:0:0
148,56,173622,1,0,0:0:0
232,44,173806,2,0,B|340:124,1,120,0|8,0:0|0:0,0:0:0
388,272,174542,37,4,0:0:0
388,272,174910,1,8,0:0:0
232,328,175278,2,0,B|220:296|180:288,1,60
40,212,175830,6,0,B|56:148|124:120,1,120,4|0,0:0|0:0,0:0:0
196,140,176382,1,8,0:0:0
276,168,176566,1,0,0:0:0
356,196,176750,6,0,B|432:196|468:120,2,120,0|8|4,0:0|0:0|0:0,0:0:0
256,60,177855,1,8,0:0:0
88,48,178223,2,0,B|56:64|44:96|40:96,1,60,2|0,0:0|0:0,0:0:0
68,256,178775,38,0,B|112:296|192:284,1,120,4|0,0:0|0:0,0:0:0
252,240,179327,1,8,0:0:0
316,184,179511,1,0,0:0:0
368,120,179695,2,0,B|388:60|464:48,1,120,0|8,0:0|0:0,0:0:0
440,216,180431,6,0,B|392:308|292:312,2,180,4|4|0,0:0|0:0|0:0,0:0:0
360,188,181720,2,0,B|256:192|208:80,1,180,4|8,0:0|0:0,0:0:0
280,40,182456,2,0,B|336:20|404:44,1,120,4|0,0:0|0:0,0:0:0
460,100,183008,1,8,0:0:0
460,100,183376,6,0,B|488:200|404:288,2,180,4|0|8,0:0|0:0|0:0,0:0:0
376,100,184665,2,0,B|336:48|248:60,1,120,4|0,0:0|0:0,0:0:0
188,84,185217,1,8,0:0:0
136,148,185401,1,0,0:0:0
124,232,185585,1,0,0:0:0
124,232,186873,38,0,B|160:304|232:312|228:312,1,120,4|0,0:0|0:0,0:0:0
296,308,187425,1,8,0:0:0
228,156,187793,2,0,B|208:120|164:112,1,60
228,44,188161,2,0,B|280:48|328:16,1,90,8|0,0:0|0:0,0:0:0
424,88,188714,1,0,0:0:0
424,88,188898,1,8,0:0:0
444,256,189266,6,0,B|372:244|340:172,1,120,0|8,0:0|0:0,0:0:0
268,172,189818,2,0,B|200:168|152:220,1,120
96,268,190370,1,8,0:0:0
96,268,190738,6,0,B|52:256|40:224,2,60,0|0|8,0:0|0:0|0:0,0:0:0
168,312,191290,1,0,0:0:0
252,328,191474,2,0,B|328:320|368:252,1,120,4|4,0:0|0:0,0:0:0
208,188,192211,38,0,B|156:152|160:72,1,120,4|8,0:0|0:0,0:0:0
232,40,192763,2,0,B|288:80|364:52,1,120,4|0,0:0|0:0,0:0:0
428,76,193315,1,8,0:0:0
468,148,193499,1,4,0:0:0
400,304,193867,5,0,0:0:0
340,248,194051,1,8,0:0:0
308,172,194235,1,4,0:0:0
172,72,194603,2,0,B|140:72|108:96,1,60,0|8,0:0|0:0,0:0:0
52,248,195155,6,0,B|96:340|212:348,2,180,4|0|8,0:0|0:0|0:0,0:0:0
216,208,196628,1,0,0:0:0
292,172,196812,1,4,0:0:0
344,104,196996,1,8,0:0:0
176,80,197364,2,0,B|128:40|52:52,1,120,0|8,0:0|0:0,0:0:0
84,216,198100,38,0,B|76:284|124:332,1,120,4|8,0:0|0:0,0:0:0
204,320,198652,2,0,B|236:260|312:256,1,120
384,244,199204,1,8,0:0:0
384,244,199573,6,0,B|424:244|448:224,1,60
472,152,199941,2,0,B|472:100|432:72,1,90,8|0,0:0|0:0,0:0:0
308,56,200493,1,0,0:0:0
308,56,200677,1,8,0:0:0
196,180,201045,6,0,B|164:88|40:80,2,180,0|0|8,0:0|0:0|0:0,0:0:0
184,264,202333,2,0,B|216:328|288:332,1,120
356,300,202885,1,8,0:0:0
416,244,203069,1,0,0:0:0
448,168,203253,1,4,0:0:0
332,44,203622,1,4,0:0:0
168,80,203990,38,0,B|200:144|280:152,1,120,4|8,0:0|0:0,0:0:0
252,232,204542,2,0,B|216:288|136:296,1,120,4|0,0:0|0:0,0:0:0
72,280,205094,2,0,B|48:256|40:220,1,60,8|4,0:0|0:0,0:0:0
84,68,205646,5,0,0:0:0
168,80,205830,1,8,0:0:0
240,128,206014,2,0,B|308:152|372:112,1,120,4|0,0:0|0:0,0:0:0
424,68,206566,1,8,0:0:0
376,228,206934,6,0,B|344:308|224:324,2,180,4|0|8,0:0|0:0|0:0,0:0:0
256,112,208407,1,0,0:0:0
256,112,208775,1,8,0:0:0
88,132,209143,1,0,0:0:0
88,132,209511,1,8,0:0:0
72,300,209879,6,0,B|112:352|184:348,2,120
192,180,210984,2,0,B|232:124,1,60
296,84,211352,22,0,B|364:44|432:84|447:161|391:205,1,240
256,304,212456,2,0,B|256:268|272:244,2,60,8|0|4,0:0|0:0|0:0,0:0:0
