osu file format v10

[General]
AudioFilename: Re-Education.mp3
AudioLeadIn: 1500
PreviewTime: 72671
Countdown: 0
SampleSet: Soft
StackLeniency: 0.7
Mode: 0
LetterboxInBreaks: 0

[Editor]
DistanceSpacing: 1.2
BeatDivisor: 4
GridSize: 4

[Metadata]
Title:Re-Education
TitleUnicode:Re-Education
Artist:Neru
ArtistUnicode:Neru
Creator:tutuhaha
Version:Hard
Source:Vocaloid
Tags:Kagamine Rin Len saikyouiku Oshiire-P
BeatmapID:176676
BeatmapSetID:58773

[Difficulty]
HPDrainRate:6
CircleSize:4
OverallDifficulty:6
ApproachRate:8
SliderMultiplier:1.6
SliderTickRate:1

[Events]
//Background and Video events
Video,0,"Re-Education.flv"
0,0,"BG.jpg"
//Break Periods
2,12779,32442
2,99450,108638
//Storyboard Layer 0 (Background)
//Storyboard Layer 1 (Fail)
//Storyboard Layer 2 (Pass)
//Storyboard Layer 3 (Foreground)
//Storyboard Sound Samples
//Background Colour Transformations
3,100,163,162,255

[TimingPoints]
800,368.098159509202,4,2,1,80,1,0
800,-133.333333333333,4,2,1,60,0,0
5585,-133.333333333333,4,2,1,40,0,0
6689,-133.333333333333,4,2,1,80,0,0
6781,-133.333333333333,4,2,1,60,0,0
10738,-100,4,1,1,60,0,0
12579,-100,4,1,1,70,0,0
36137,-133.333333333333,4,2,1,60,0,0
40922,-133.333333333333,4,2,1,40,0,0
42026,-133.333333333333,4,2,1,80,0,0
42119,-133.333333333333,4,2,1,60,0,0
46076,-100,4,1,1,50,0,0
59695,-100,4,2,1,60,0,0
64112,-100,4,1,1,50,0,0
72947,-100,4,1,1,60,0,1
99450,-100,4,1,1,50,0,0
123008,-100,4,2,1,60,0,0
127425,-100,4,1,1,50,0,0
136260,-100,4,1,1,60,0,1
162763,-100,4,1,1,60,0,0
186873,-100,4,1,1,60,0,1
212824,-100,4,2,1,80,0,0

[Colours]
Combo1 : 128,0,0
Combo2 : 128,128,128
Combo3 : 192,192,192
Combo4 : 0,64,128
Combo5 : 255,128,0

[HitObjects]
80,80,800,1,4,0:0:0
80,80,2272,1,0,0:0:0
80,80,3744,1,0,0:0:0
80,80,5217,1,0,0:0:0
172,156,5585,22,0,B|244:156,1,60.0000022888184,2|0,0:0|0:0,0:0:0
340,260,5953,2,0,B|268:260,1,60.0000022888184,2|0,0:0|0:0,0:0:0
176,84,6321,2,0,P|256:84,1,60.0000022888184,2|0,0:0|0:0,0:0:0
432,80,6689,37,4,0:0:0
432,80,8161,1,0,0:0:0
432,80,9634,5,0,0:0:0
432,80,10002,1,0,0:0:0
432,80,10370,1,0,0:0:0
432,80,10738,1,2,0:0:0
428,176,10922,6,0,B|424:236|368:272|292:252,1,160,4|0,0:0|0:0,0:0:0
352,168,11474,2,0,B|392:152|444:184,1,80,8|0,0:0|0:0,0:0:0
468,204,11750,1,0,0:0:0
488,248,11842,2,0,B|496:292|468:332|468:336,1,80,8|0,0:0|0:0,0:0:0
296,332,12211,2,0,B|284:284|320:248,1,80,8|0,0:0|0:0,0:0:0
256,104,12579,5,4,0:0:0
256,192,33192,12,4,35769,0:0:0
256,104,36137,22,0,B|236:84|192:76,1,60.0000022888184,4|0,0:0|0:0,0:0:0
140,132,36505,2,0,B|104:128|76:148,1,60.0000022888184
72,228,36873,2,0,B|44:248|40:288,1,60.0000022888184
108,328,37241,1,0,0:0:0
188,228,37425,6,0,B|232:220|248:188,1,60.0000022888184
312,240,37793,2,0,B|344:224|348:180,1,60.0000022888184
428,200,38161,2,0,B|440:168|424:132,1,60.0000022888184
408,60,38530,1,0,0:0:0
288,24,38714,1,0,0:0:0
328,96,38898,54,0,B|280:132|212:112,1,120.000004577637
144,64,39450,1,0,0:0:0
144,64,39634,1,0,0:0:0
152,188,39818,2,0,B|168:252,1,60.0000022888184
244,216,40186,2,0,B|260:280,1,60.0000022888184
336,240,40554,6,0,B|368:364,1,120.000004577637,0|2,0:0|0:0,0:0:0
436,312,41106,1,0,0:0:0
396,180,41290,6,0,B|376:152|336:144,1,60.0000022888184,2|0,0:0|0:0,0:0:0
164,146,41658,2,0,B|136:152|116:180,1,60.0000022888184,2|0,0:0|0:0,0:0:0
256,308,42026,38,0,B|284:252|256:192,1,120.000004577637,4|0,0:0|0:0,0:0:0
240,108,42579,1,0,0:0:0
236,24,42763,2,0,B|272:24|300:48,2,60.0000022888184
164,144,43315,6,0,B|124:88|160:16,1,120.000004577637
236,24,43867,1,0,0:0:0
240,108,44051,2,0,B|260:132|312:136,2,60.0000022888184
164,144,44603,1,0,0:0:0
268,216,44787,54,0,B|336:224|388:168,1,120.000004577637
396,96,45339,1,0,0:0:0
396,96,45523,1,0,0:0:0
456,204,45707,2,0,B|436:272,2,60.0000022888184,0|0|8,0:0|0:0|0:0,0:0:0
464,60,46260,22,0,B|452:16|384:-4|332:24|324:68,1,160,4|0,0:0|0:0,0:0:0
256,112,46812,1,8,0:0:0
396,96,46996,1,0,0:0:0
396,96,47088,1,0,0:0:0
396,96,47180,2,0,B|392:144|360:176,1,80
145,168,47548,1,8,0:0:0
145,168,47916,6,0,B|204:192|196:280|148:304,1,160,4|8,0:0|0:0,0:0:0
60,184,48468,1,0,0:0:0
60,184,48652,2,0,B|52:132|80:84|144:72|176:92,1,160,0|8,0:0|0:0,0:0:0
224,152,49204,6,0,B|232:204|204:252|140:264|108:244,1,160
60,184,49757,2,0,B|96:156|144:168,1,80,8|0,0:0|0:0,0:0:0
316,160,50125,2,0,B|316:116|352:84,1,80
440,88,50493,1,8,0:0:0
376,216,50677,38,0,B|340:260|272:252|240:216|236:176,1,160
208,108,51229,1,8,0:0:0
124,64,51413,1,0,0:0:0
28,72,51597,2,0,B|8:116|16:160,2,80,0|0|8,0:0|0:0|0:0,0:0:0
140,160,52149,6,0,B|160:196|216:208|268:188|288:148,1,160
336,84,52701,1,8,0:0:0
336,228,52885,1,0,0:0:0
336,228,52977,1,0,0:0:0
336,228,53069,2,0,B|328:272|280:292,1,80
184,192,53438,2,0,B|192:148|240:128,1,80,8|0,0:0|0:0,0:0:0
372,160,53806,6,0,B|408:176|440:228|404:288|372:296,1,160,4|8,0:0|0:0,0:0:0
292,332,54358,1,0,0:0:0
256,244,54542,2,0,B|248:196|280:156,2,80,0|0|8,0:0|0:0|0:0,0:0:0
208,108,55094,38,0,B|236:72|304:72|340:100|356:144,1,160
348,220,55646,1,8,0:0:0
256,244,55830,2,0,B|212:232|200:184,1,80
136,60,56198,1,0,0:0:0
136,60,56290,1,0,0:0:0
136,60,56382,2,0,B|104:92|104:140,1,80,8|0,0:0|0:0,0:0:0
100,324,56934,5,0,0:0:0
196,320,57119,1,8,0:0:0
256,244,57303,1,0,0:0:0
348,220,57487,2,0,B|380:192|380:136,1,80
356,108,57763,1,0,0:0:0
312,92,57855,1,8,0:0:0
256,244,58039,6,0,B|264:296|308:324|372:328|404:296,1,160,4|0,0:0|0:0,0:0:0
436,232,58591,2,0,B|440:184|408:152,1,80,8|0,0:0|0:0,0:0:0
376,124,58867,1,0,0:0:0
328,124,58959,2,0,B|284:136|268:184,1,80
216,44,59327,1,8,0:0:0
180,132,59511,1,0,0:0:0
168,228,59695,5,4,0:0:0
168,228,60063,2,0,B|208:256|208:300,1,80,0|8,0:0|0:0,0:0:0
292,340,60431,1,0,0:0:0
384,320,60615,1,0,0:0:0
440,244,60800,1,8,0:0:0
444,148,60984,1,0,0:0:0
444,148,61352,6,0,B|428:104|384:88,1,80
296,72,61720,1,8,0:0:0
212,116,61904,1,0,0:0:0
188,208,62088,1,0,0:0:0
212,116,62272,1,8,0:0:0
164,300,62640,54,0,B|212:308|252:284,2,80
96,232,63192,2,0,B|104:140|24:88,1,160,8|0,0:0|0:0,0:0:0
108,36,63744,1,8,0:0:0
204,32,63928,1,0,0:0:0
284,88,64112,21,8,0:0:0
284,88,64296,1,0,0:0:0
256,228,64480,1,0,0:0:0
208,144,64665,1,0,0:0:0
333,206,64849,2,0,B|341:246|317:286,1,80,8|0,0:0|0:0,0:0:0
180,280,65217,1,8,0:0:0
208,144,65401,1,0,0:0:0
256,228,65585,1,4,0:0:0
256,228,65953,6,0,B|340:204,1,80,8|0,0:0|0:0,0:0:0
332,112,66321,2,0,B|416:88,2,80,0|0|8,0:0|0:0|0:0,0:0:0
460,180,66873,2,0,B|464:232|436:260|392:284|348:272,1,160
296,200,67425,1,8,0:0:0
332,112,67609,1,0,0:0:0
381,191,67793,2,0,B|473:177,1,80,8|0,0:0|0:0,0:0:0
460,178,68346,5,0,0:0:0
460,132,68438,1,0,0:0:0
440,88,68530,2,0,B|392:24|288:32,1,160,4|8,0:0|0:0,0:0:0
252,168,69082,2,0,B|300:232|404:224,1,160,4|0,0:0|0:0,0:0:0
260,280,69634,37,8,0:0:0
260,280,69818,2,0,B|172:236|152:144,1,160,4|0,0:0|0:0,0:0:0
184,72,70370,1,8,0:0:0
276,40,70554,1,0,0:0:0
276,40,70646,1,0,0:0:0
276,40,70738,1,0,0:0:0
404,104,70922,1,0,0:0:0
312,128,71106,1,8,0:0:0
496,76,71290,6,0,B|504:168|412:216,1,160,4|0,0:0|0:0,0:0:0
364,284,71842,1,8,0:0:0
224,316,72026,1,0,0:0:0
364,284,72211,1,0,0:0:0
203,195,72395,2,0,B|232:224,2,40,0|0|8,0:0|0:0|0:0,0:0:0
120,68,72763,5,0,0:0:0
120,68,72855,1,0,0:0:0
120,68,72947,2,0,B|152:48|204:56,1,80,4|0,0:0|0:0,0:0:0
256,132,73315,1,8,0:0:0
328,196,73499,2,0,B|384:212|436:180|440:116|424:88,1,160
352,52,74051,2,0,B|304:56|288:100,1,80,8|0,0:0|0:0,0:0:0
265,242,74419,38,0,B|304:240|328:196,1,80
208,120,74787,2,0,B|144:104|84:148,2,120,8|0|0,0:0|0:0|0:0,0:0:0
164,204,75523,1,8,0:0:0
228,332,75707,5,0,0:0:0
228,332,75800,1,0,0:0:0
228,332,75892,2,0,B|292:312|312:232,1,120
356,252,76260,2,0,B|344:204|368:156,1,80,8|0,0:0|0:0,0:0:0
324,84,76628,1,0,0:0:0
236,48,76812,1,0,0:0:0
140,60,76996,1,8,0:0:0
72,124,77180,1,0,0:0:0
44,216,77364,6,0,B|84:224|128:200,1,80
160,172,77640,1,0,0:0:0
208,168,77732,2,0,B|252:188|304:164,1,80,8|0,0:0|0:0,0:0:0
312,312,78100,2,0,B|232:348|148:292,1,160,4|12,0:0|0:0,0:0:0
44,216,78652,1,0,0:0:0
108,88,78836,38,0,B|148:40|248:48,1,120,4|0,0:0|0:0,0:0:0
256,76,79204,1,8,0:0:0
264,176,79388,2,0,B|312:192|336:248|320:300|308:320,1,160,4|0,0:0|0:0,0:0:0
200,232,79941,5,8,0:0:0
200,232,80125,2,0,B|168:196|176:140|196:100|252:92,1,160,4|0,0:0|0:0,0:0:0
328,120,80677,1,8,0:0:0
328,120,80861,2,0,B|360:156|352:212|332:252|276:260,1,160,4|0,0:0|0:0,0:0:0
248,244,81321,1,0,0:0:0
200,232,81413,2,0,B|152:220|108:252,1,80,8|0,0:0|0:0,0:0:0
76,240,81689,1,0,0:0:0
40,208,81781,6,0,B|16:132|64:76,1,120,12|0,0:0|0:0,0:0:0
92,64,82149,1,8,0:0:0
180,108,82333,2,0,B|196:168|276:184|328:136,1,160
337,61,82885,2,0,B|300:48|260:68,1,80,8|0,0:0|0:0,0:0:0
260,260,83253,38,0,B|312:268|360:232,1,80,0|4,0:0|0:0,0:0:0
400,172,83622,1,8,0:0:0
468,56,83806,1,0,0:0:0
400,172,83990,6,0,B|360:144,2,40
488,220,84358,2,0,B|512:184,3,40,8|0|0|0,0:0|0:0|0:0|0:0,0:0:0
448,256,84726,6,0,B|432:296|384:312,1,80,4|0,0:0|0:0,0:0:0
300,292,85094,1,8,0:0:0
204,284,85278,2,0,B|208:240|236:188|312:188|352:212,1,160
300,292,85830,2,0,B|296:336|260:364,1,80,8|0,0:0|0:0,0:0:0
168,368,86198,38,0,B|120:344|116:288,1,80
68,172,86566,2,0,B|136:160|168:88,2,120,8|0|0,0:0|0:0|0:0,0:0:0
64,76,87303,1,8,0:0:0
200,28,87487,5,0,0:0:0
200,28,87579,1,0,0:0:0
200,28,87671,2,0,B|276:28|316:100,1,120
308,128,88039,1,8,0:0:0
272,216,88223,2,0,B|340:228|392:180,1,120
404,144,88591,2,0,B|408:88|452:64,2,80,0|8|0,0:0|0:0|0:0,0:0:0
364,280,89143,6,0,B|324:300|268:288,1,80
160,224,89511,2,0,B|136:188|140:140,1,80,8|0,0:0|0:0,0:0:0
148,100,89787,1,0,0:0:0
176,64,89879,1,4,0:0:0
176,320,90247,1,12,0:0:0
332,192,90615,38,0,B|264:168|256:84,1,120,4|0,0:0|0:0,0:0:0
272,60,90984,1,8,0:0:0
404,144,91168,2,0,B|433:178|429:246|383:281|339:273,1,160,4|0,0:0|0:0,0:0:0
316,280,91628,1,0,0:0:0
268,268,91720,1,8,0:0:0
332,192,91904,6,0,B|304:144|320:92|348:64|392:60,1,160,4|0,0:0|0:0,0:0:0
472,80,92456,1,8,0:0:0
492,176,92640,1,4,0:0:0
416,236,92824,1,0,0:0:0
332,192,93008,1,0,0:0:0
240,160,93192,2,0,B|192:152|144:180,1,80,8|0,0:0|0:0,0:0:0
132,208,93468,1,0,0:0:0
108,248,93560,6,0,B|108:184|36:132,1,120,4|0,0:0|0:0,0:0:0
12,120,93928,2,0,B|72:48,1,80,8|0,0:0|0:0,0:0:0
140,112,94296,2,0,B|200:40,1,80
236,32,94573,1,0,0:0:0
284,24,94665,1,8,0:0:0
504,100,95033,37,0,0:0:0
432,316,95401,2,0,B|372:304|344:228,1,120,8|0,0:0|0:0,0:0:0
328,196,95769,2,0,B|288:176|244:204,1,80
144,296,96137,2,0,B|124:340|140:380,1,80,8|0,0:0|0:0,0:0:0
304,280,96505,38,0,B|364:292|404:264|428:216|408:168,2,160,4|0|0,0:0|0:0|0:0,0:0:0
256,96,97609,2,0,B|272:56|320:44,1,80
408,56,97977,21,8,0:0:0
444,144,98161,1,0,0:0:0
344,248,98346,1,8,0:0:0
332,152,98530,1,0,0:0:0
332,152,98622,1,0,0:0:0
332,152,98714,2,0,B|312:200|240:216|192:188|180:148,1,160,0|8,0:0|0:0,0:0:0
256,192,109388,5,8,0:0:0
256,192,109573,2,0,B|216:176|212:116|232:76|272:64,1,160,4|0,0:0|0:0,0:0:0
404,137,110125,2,0,B|364:160|328:140,1,80,8|0,0:0|0:0,0:0:0
364,52,110493,1,8,0:0:0
460,60,110677,1,0,0:0:0
500,148,110861,1,8,0:0:0
444,228,111045,1,0,0:0:0
348,216,111229,5,4,0:0:0
308,128,111413,1,0,0:0:0
276,36,111597,2,0,B|232:24|192:48,1,80,8|0,0:0|0:0,0:0:0
196,188,111965,2,0,B|200:116|128:88|76:112,1,160,0|8,0:0|0:0,0:0:0
108,200,112517,38,0,B|112:256|152:288|212:292|236:272,1,160
276,140,113069,2,0,B|252:100|196:92,1,80,8|0,0:0|0:0,0:0:0
196,188,113438,1,0,0:0:0
280,232,113622,1,0,0:0:0
360,180,113806,1,8,0:0:0
320,40,113990,6,0,B|328:96|380:124|432:120|468:80,1,160,0|0,0:0|0:0,0:0:0
372,272,114542,2,0,B|416:272|440:232,1,80,8|0,0:0|0:0,0:0:0
360,180,114910,1,0,0:0:0
280,232,115094,1,0,0:0:0
296,328,115278,1,8,0:0:0
388,360,115462,6,0,B|440:356|468:312|472:264|452:228,1,160
412,104,116014,2,0,B|376:80|328:92,1,80,8|0,0:0|0:0,0:0:0
360,180,116382,1,0,0:0:0
268,156,116566,1,0,0:0:0
256,60,116750,1,8,0:0:0
132,208,117119,38,0,B|120:148|68:128|24:140|-4:164,2,160,4|8|0,0:0|0:0|0:0,0:0:0
192,284,118039,1,0,0:0:0
192,284,118223,1,8,0:0:0
268,228,118407,6,0,B|268:184|316:152|372:152|404:176,1,160
419,291,118959,2,0,B|376:292|352:256,1,80,8|0,0:0|0:0,0:0:0
280,132,119327,2,0,B|272:88|300:52,2,80,0|0|8,0:0|0:0|0:0,0:0:0
176,232,119879,6,0,B|176:280|220:328|268:328|312:316,1,160
344,210,120431,2,0,B|312:232|268:228,1,80,8|0,0:0|0:0,0:0:0
256,180,120707,1,0,0:0:0
220,148,120799,2,0,B|180:128|136:148,2,80,0|0|8,0:0|0:0|0:0,0:0:0
96,72,121352,38,0,B|172:32|260:68,1,160,4|0,0:0|0:0,0:0:0
332,120,121904,1,8,0:0:0
256,180,122088,1,0,0:0:0
396,216,122272,1,0,0:0:0
260,264,122456,1,0,0:0:0
388,328,122640,1,8,0:0:0
388,328,123008,38,0,B|436:336|472:312,1,80,4|0,0:0|0:0,0:0:0
468,124,123560,1,8,0:0:0
468,124,123744,1,0,0:0:0
296,40,124112,1,8,0:0:0
244,120,124296,6,0,B|204:96|200:48,1,80
168,244,124849,2,0,B|128:224|116:184,1,80,0|8,0:0|0:0,0:0:0
44,124,125217,1,0,0:0:0
36,220,125401,1,0,0:0:0
76,308,125585,1,8,0:0:0
76,308,125769,1,0,0:0:0
164,348,125953,53,0,0:0:0
256,76,126505,1,8,0:0:0
196,260,126873,1,0,0:0:0
260,332,127057,1,8,0:0:0
324,260,127241,1,0,0:0:0
420,276,127425,21,0,0:0:0
420,276,127609,1,0,0:0:0
428,132,127793,2,0,B|472:148|488:196,1,80,8|0,0:0|0:0,0:0:0
340,164,128161,1,8,0:0:0
340,164,128346,1,8,0:0:0
268,40,128530,2,0,B|316:36|348:64,1,80,8|0,0:0|0:0,0:0:0
256,176,128898,5,4,0:0:0
256,176,129266,2,0,B|204:172|172:136,1,80,8|0,0:0|0:0,0:0:0
108,88,129634,1,0,0:0:0
104,184,129818,1,0,0:0:0
168,256,130002,1,8,0:0:0
264,364,130186,6,0,B|240:320|256:264|300:240|348:244,1,160
428,353,130738,2,0,B|384:360|352:336,1,80,8|0,0:0|0:0,0:0:0
256,228,131106,1,0,0:0:0
228,88,131290,1,8,0:0:0
228,88,131658,1,0,0:0:0
272,68,131750,1,0,0:0:0
320,64,131842,38,0,B|380:60|428:112|420:176,1,160,4|8,0:0|0:0,0:0:0
424,260,132395,2,0,B|364:264|316:212|328:144,1,160,4|0,0:0|0:0,0:0:0
492,40,132947,1,8,0:0:0
492,40,133131,2,0,B|511:96|473:156|409:165,1,160,4|0,0:0|0:0,0:0:0
232,140,133683,2,0,B|196:116|140:136,1,80,8|0,0:0|0:0,0:0:0
112,152,133959,1,0,0:0:0
88,192,134051,1,0,0:0:0
116,284,134235,1,0,0:0:0
204,320,134419,1,8,0:0:0
300,204,134603,6,0,B|340:172|340:108|316:68|272:56,1,160,4|0,0:0|0:0,0:0:0
232,140,135155,1,8,0:0:0
88,192,135339,1,0,0:0:0
232,140,135523,1,8,0:0:0
376,192,135707,2,0,B|368:160|344:148,2,40,0|0|8,0:0|0:0|0:0,0:0:0
392,316,136076,5,0,0:0:0
392,316,136168,1,0,0:0:0
392,316,136260,2,0,B|360:336|308:328,1,80,4|0,0:0|0:0,0:0:0
256,252,136628,1,8,0:0:0
184,188,136812,2,0,B|128:172|76:204|72:268|88:296,1,160
160,332,137364,2,0,B|208:328|224:284,1,80,8|0,0:0|0:0,0:0:0
247,142,137732,38,0,B|208:144|184:188,1,80
304,264,138100,2,0,B|368:280|428:236,2,120,8|0|0,0:0|0:0|0:0,0:0:0
348,180,138836,1,8,0:0:0
284,52,139020,5,0,0:0:0
284,52,139112,1,0,0:0:0
284,52,139204,2,0,B|220:72|200:152,1,120
156,132,139573,2,0,B|168:180|144:228,1,80,8|0,0:0|0:0,0:0:0
188,300,139941,1,0,0:0:0
276,336,140125,1,0,0:0:0
372,324,140309,1,8,0:0:0
440,260,140493,1,0,0:0:0
468,168,140677,6,0,B|428:160|384:184,1,80
352,212,140953,1,0,0:0:0
304,216,141045,2,0,B|260:196|208:220,1,80,8|0,0:0|0:0,0:0:0
200,72,141413,2,0,B|280:36|364:92,1,160,4|12,0:0|0:0,0:0:0
468,168,141965,1,0,0:0:0
404,296,142149,38,0,B|364:344|264:336,1,120,4|0,0:0|0:0,0:0:0
256,308,142517,1,8,0:0:0
248,208,142701,2,0,B|200:192|176:136|192:84|204:64,1,160,4|0,0:0|0:0,0:0:0
312,152,143253,5,8,0:0:0
312,152,143438,2,0,B|344:188|336:244|316:284|260:292,1,160,4|0,0:0|0:0,0:0:0
184,264,143990,1,8,0:0:0
184,264,144174,2,0,B|152:228|160:172|180:132|236:124,1,160,4|0,0:0|0:0,0:0:0
264,140,144634,1,0,0:0:0
312,152,144726,2,0,B|360:164|404:132,1,80,8|0,0:0|0:0,0:0:0
436,144,145002,1,0,0:0:0
472,176,145094,6,0,B|496:252|448:308,1,120,12|0,0:0|0:0,0:0:0
420,320,145462,1,8,0:0:0
332,276,145646,2,0,B|316:216|236:200|184:248,1,160
175,323,146198,2,0,B|212:336|252:316,1,80,8|0,0:0|0:0,0:0:0
252,124,146566,38,0,B|200:116|152:152,1,80,0|4,0:0|0:0,0:0:0
112,212,146934,1,8,0:0:0
44,328,147119,1,0,0:0:0
112,212,147303,6,0,B|152:240,2,40
24,164,147671,2,0,B|0:200,3,40,8|0|0|0,0:0|0:0|0:0|0:0,0:0:0
60,128,148039,6,0,B|76:88|124:72,1,80,4|0,0:0|0:0,0:0:0
212,92,148407,1,8,0:0:0
308,100,148591,2,0,B|304:144|276:196|200:196|160:172,1,160
212,92,149143,2,0,B|216:48|252:20,1,80,8|0,0:0|0:0,0:0:0
344,16,149511,38,0,B|392:40|396:96,1,80
444,212,149879,2,0,B|376:224|344:296,2,120,8|0|0,0:0|0:0|0:0,0:0:0
448,308,150615,1,8,0:0:0
312,356,150800,5,0,0:0:0
312,356,150892,1,0,0:0:0
312,356,150984,2,0,B|236:356|196:284,1,120
204,256,151352,1,8,0:0:0
240,168,151536,2,0,B|172:156|120:204,1,120
108,240,151904,2,0,B|104:296|60:320,2,80,0|8|0,0:0|0:0|0:0,0:0:0
148,104,152456,6,0,B|188:84|244:96,1,80
352,160,152824,2,0,B|376:196|372:244,1,80,8|0,0:0|0:0,0:0:0
364,284,153100,1,0,0:0:0
336,320,153192,1,4,0:0:0
336,64,153560,1,12,0:0:0
180,192,153928,38,0,B|248:216|256:300,1,120,4|0,0:0|0:0,0:0:0
240,324,154296,1,8,0:0:0
108,240,154480,2,0,B|79:206|83:138|129:103|173:111,1,160,4|0,0:0|0:0,0:0:0
196,104,154941,1,0,0:0:0
244,116,155033,1,8,0:0:0
180,192,155217,6,0,B|208:240|192:292|164:320|120:324,1,160,4|0,0:0|0:0,0:0:0
84,328,155677,1,0,0:0:0
40,304,155769,1,8,0:0:0
20,208,155953,1,4,0:0:0
96,148,156137,1,0,0:0:0
180,192,156321,1,0,0:0:0
272,224,156505,2,0,B|320:232|368:204,1,80,8|0,0:0|0:0,0:0:0
380,176,156781,1,0,0:0:0
404,136,156873,6,0,B|404:200|476:252,1,120,4|0,0:0|0:0,0:0:0
500,264,157241,2,0,B|440:336,1,80,8|0,0:0|0:0,0:0:0
372,272,157609,2,0,B|312:344,1,80
276,352,157885,1,0,0:0:0
220,360,157977,1,8,0:0:0
8,284,158346,37,0,0:0:0
80,68,158714,2,0,B|140:80|168:156,1,120,8|0,0:0|0:0,0:0:0
184,188,159082,6,0,B|224:208|268:180,1,80
368,88,159450,2,0,B|388:44|372:4,1,80,8|0,0:0|0:0,0:0:0
208,104,159818,22,0,B|148:92|108:120|84:168|104:216,2,160
256,288,160922,2,0,B|240:328|192:340,1,80
104,328,161290,21,0,0:0:0
68,240,161474,1,0,0:0:0
168,136,161658,1,8,0:0:0
180,232,161842,1,0,0:0:0
324,228,162026,5,0,0:0:0
324,228,162119,1,0,0:0:0
324,228,162211,1,0,0:0:0
256,288,162395,1,8,0:0:0
252,168,162579,6,0,B|280:124,2,40,0|0|4,0:0|0:0|0:0,0:0:0
324,228,162947,1,0,0:0:0
420,236,163131,1,8,0:0:0
500,184,163315,2,0,B|512:136,2,40,0|0|2,0:0|0:0|0:0,0:0:0
420,236,163683,1,0,0:0:0
272,44,164051,38,0,B|176:32|128:104,1,160,4|0,0:0|0:0,0:0:0
172,184,164603,2,0,B|216:172|228:120,1,80,8|0,0:0|0:0,0:0:0
352,64,164971,2,0,B|448:68|480:164,1,160,0|8,0:0|0:0,0:0:0
296,308,165707,5,4,0:0:0
200,288,165892,1,0,0:0:0
132,220,166076,1,8,0:0:0
112,128,166260,2,0,B|132:84,2,40,0|0|2,0:0|0:0|0:0,0:0:0
132,220,166628,1,0,0:0:0
296,44,166996,6,0,B|380:60|408:156,1,160,4|0,0:0|0:0,0:0:0
360,232,167548,2,0,B|320:212|308:152,1,80,8|0,0:0|0:0,0:0:0
208,72,167916,2,0,B|116:68|68:152,1,160,0|8,0:0|0:0,0:0:0
196,352,168652,37,4,0:0:0
164,260,168836,1,0,0:0:0
164,260,168928,1,0,0:0:0
164,260,169020,1,8,0:0:0
208,176,169204,1,0,0:0:0
296,140,169388,2,0,B|328:116|328:60,1,80,2|0,0:0|0:0,0:0:0
284,256,169941,6,0,B|372:276|440:208,1,160,4|0,0:0|0:0,0:0:0
384,80,170493,2,0,B|344:60|288:84,1,80,8|0,0:0|0:0,0:0:0
224,124,170861,2,0,B|164:184|176:284,1,160,0|8,0:0|0:0,0:0:0
84,48,171597,5,4,0:0:0
180,40,171781,1,0,0:0:0
180,40,171873,1,0,0:0:0
180,40,171965,1,8,0:0:0
224,124,172149,1,0,0:0:0
312,164,172333,1,2,0:0:0
332,256,172517,1,0,0:0:0
428,256,172701,1,8,0:0:0
356,80,172885,38,0,B|316:48|232:72|223:128,1,160,4|0,0:0|0:0,0:0:0
312,164,173438,2,0,B|356:188|404:168,1,80,8|0,0:0|0:0,0:0:0
428,148,173714,1,0,0:0:0
448,104,173806,1,0,0:0:0
256,232,174174,1,8,0:0:0
64,104,174542,5,4,0:0:0
160,84,174726,1,0,0:0:0
240,136,174910,1,8,0:0:0
256,232,175094,2,0,B|308:216,2,40,0|0|2,0:0|0:0|0:0,0:0:0
240,136,175462,1,0,0:0:0
316,76,175646,1,8,0:0:0
412,80,175830,6,0,B|488:124|472:224,1,160,4|0,0:0|0:0,0:0:0
342,148,176382,2,0,B|308:116|318:60,1,80,8|0,0:0|0:0,0:0:0
280,44,176658,1,0,0:0:0
232,36,176750,2,0,B|176:16|112:84|132:136,1,160,0|8,0:0|0:0,0:0:0
448,280,177487,37,4,0:0:0
352,300,177671,1,0,0:0:0
272,248,177855,1,8,0:0:0
256,152,178039,2,0,B|204:168,2,40,0|0|2,0:0|0:0|0:0,0:0:0
272,248,178407,1,0,0:0:0
196,308,178591,1,8,0:0:0
100,304,178775,6,0,B|24:260|40:160,1,160,4|0,0:0|0:0,0:0:0
170,236,179327,2,0,B|202:264|194:324,1,80,8|0,0:0|0:0,0:0:0
232,340,179603,1,0,0:0:0
280,348,179695,2,0,B|336:368|400:300|380:248,1,160,0|8,0:0|0:0,0:0:0
256,112,180247,1,0,0:0:0
300,196,180431,6,0,B|324:156|380:160,1,80,4|0,0:0|0:0,0:0:0
452,204,180800,1,8,0:0:0
468,300,180984,1,4,0:0:0
204,192,181352,1,4,0:0:0
256,112,181536,1,8,0:0:0
300,196,181720,1,0,0:0:0
64,324,182088,1,0,0:0:0
44,230,182272,1,8,0:0:0
136,260,182456,38,0,B|180:312|254:282|254:282|266:314,1,160,4|0,0:0|0:0,0:0:0
204,192,183008,2,0,B|164:164|160:112,1,80,8|0,0:0|0:0,0:0:0
172,80,183284,1,0,0:0:0
204,44,183376,5,4,0:0:0
300,36,183560,1,0,0:0:0
388,76,183744,1,8,0:0:0
428,164,183928,1,0,0:0:0
428,164,184020,1,0,0:0:0
428,164,184112,1,0,0:0:0
452,280,184296,1,8,0:0:0
340,280,184480,1,0,0:0:0
340,180,184665,6,0,B|288:172|244:212|228:264|256:304,1,160,4|0,0:0|0:0,0:0:0
228,136,185217,2,0,B|252:104|304:100,2,80,8|0|0,0:0|0:0|0:0,0:0:0
164,64,185769,1,0,0:0:0
164,64,185861,1,0,0:0:0
164,64,185953,1,8,0:0:0
164,64,186873,38,0,B|120:136|8:128,1,160,4|0,0:0|0:0,0:0:0
120,240,187425,2,0,B|68:240|36:208,1,80,8|0,0:0|0:0,0:0:0
180,168,187793,1,0,0:0:0
264,212,187977,1,0,0:0:0
328,284,188161,2,0,B|392:296|456:248,1,120,8|0,0:0|0:0,0:0:0
456,116,188714,2,0,B|428:104|392:112,2,40,0|0|8,0:0|0:0|0:0,0:0:0
312,112,189082,5,0,0:0:0
312,112,189266,2,0,B|288:172|208:180|168:144|164:120,1,160,0|8,0:0|0:0,0:0:0
216,280,189818,2,0,B|144:292|92:232|96:168,1,160
100,100,190370,1,8,0:0:0
172,40,190554,1,0,0:0:0
172,40,190922,5,0,0:0:0
208,128,191106,2,0,B|248:144|296:124,1,80,8|0,0:0|0:0,0:0:0
328,100,191382,1,0,0:0:0
368,76,191474,2,0,B|432:80|472:136|456:208,2,160,4|4|4,0:0|0:0|0:0,0:0:0
348,268,192579,37,8,0:0:0
348,268,192763,2,0,B|276:288|216:236|220:172,1,160,4|0,0:0|0:0,0:0:0
236,52,193315,1,8,0:0:0
236,52,193499,2,0,B|312:68|328:136|316:184,1,160,4|0,0:0|0:0,0:0:0
244,292,194051,1,8,0:0:0
244,292,194235,2,0,B|172:312|116:264|112:212,1,160,4|0,0:0|0:0,0:0:0
124,136,194787,1,8,0:0:0
252,68,194971,5,0,0:0:0
300,72,195063,1,0,0:0:0
340,100,195155,2,0,B|392:148|392:216,1,120,4|0,0:0|0:0,0:0:0
392,252,195523,2,0,B|348:236|296:248,1,80,8|0,0:0|0:0,0:0:0
252,168,195892,1,0,0:0:0
168,120,196076,1,0,0:0:0
72,136,196260,1,8,0:0:0
20,216,196444,1,0,0:0:0
36,312,196628,5,0,0:0:0
176,344,196812,1,4,0:0:0
124,244,196996,1,8,0:0:0
176,344,197180,1,0,0:0:0
256,224,197364,2,0,B|256:168,2,40
367,330,197732,2,0,B|332:348,3,40,8|0|0|0,0:0|0:0|0:0|0:0,0:0:0
388,288,198100,38,0,B|368:244|388:200,1,80,4|0,0:0|0:0,0:0:0
480,192,198468,1,8,0:0:0
352,128,198652,2,0,B|264:136|236:232,1,160
176,356,199204,2,0,B|148:320|144:272,1,80,8|0,0:0|0:0,0:0:0
156,140,199573,6,0,B|172:96|216:72,1,80
224,220,199941,2,0,B|156:240|88:192,1,120,8|0,0:0|0:0,0:0:0
104,60,200493,2,0,B|120:40|148:32,2,40,0|0|8,0:0|0:0|0:0,0:0:0
156,140,200861,5,0,0:0:0
156,140,201045,2,0,B|204:212|316:176,1,160,0|8,0:0|0:0,0:0:0
340,92,201597,1,0,0:0:0
340,92,201965,2,0,B|384:104|408:144,2,80,0|8|0,0:0|0:0|0:0,0:0:0
248,68,202517,37,0,0:0:0
152,80,202701,1,0,0:0:0
96,160,202885,1,8,0:0:0
104,256,203069,1,0,0:0:0
180,312,203253,1,4,0:0:0
180,312,203622,1,4,0:0:0
248,68,203990,6,0,B|296:36|376:68|368:148,1,160,4|8,0:0|0:0,0:0:0
276,160,204542,2,0,B|220:184|156:140|152:80,1,160,4|0,0:0|0:0,0:0:0
248,68,205094,1,8,0:0:0
192,144,205278,6,0,B|88:284,1,160,4|0,0:0|0:0,0:0:0
104,128,205830,2,0,B|156:60,1,80,8|4,0:0|0:0,0:0:0
236,220,206198,2,0,B|288:152,2,80,0|0|8,0:0|0:0|0:0,0:0:0
200,308,206750,37,0,0:0:0
200,308,206842,1,0,0:0:0
200,308,206934,2,0,B|240:360|324:348|352:284,1,160,4|8,0:0|0:0,0:0:0
392,224,207487,2,0,B|420:172,1,40
360,108,207763,2,0,B|341:143,1,40
256,192,208039,1,8,0:0:0
256,192,208407,6,0,B|224:132|156:128,1,120,0|0,0:0|0:0,0:0:0
112,120,208775,2,0,B|68:164|72:236,1,120,8|0,0:0|0:0,0:0:0
96,268,209143,2,0,B|148:264|176:220,1,80
196,324,209511,1,8,0:0:0
256,192,209695,1,0,0:0:0
316,324,209879,21,4,0:0:0
316,324,210247,1,0,0:0:0
316,324,210615,1,0,0:0:0
316,324,210984,1,0,0:0:0
228,284,211168,1,0,0:0:0
256,192,211352,22,0,B|260:148|296:120,1,80
372,72,211720,2,0,B|420:64|464:96,1,80,8|0,0:0|0:0,0:0:0
392,216,212088,1,8,0:0:0
392,216,212180,1,0,0:0:0
392,216,212272,1,0,0:0:0
308,288,212456,1,8,0:0:0
256,192,212640,2,0,B|256:140,2,40,0|0|4,0:0|0:0|0:0,0:0:0
