osu file format v10

[General]
AudioFilename: Re-Education.mp3
AudioLeadIn: 1500
PreviewTime: 72671
Countdown: 0
SampleSet: Soft
StackLeniency: 0.7
Mode: 0
LetterboxInBreaks: 0

[Editor]
DistanceSpacing: 1.3
BeatDivisor: 4
GridSize: 4

[Metadata]
Title:Re-Education
TitleUnicode:Re-Education
Artist:Neru
ArtistUnicode:Neru
Creator:tutuhaha
Version:Easy
Source:Vocaloid
Tags:Kagamine Rin Len saikyouiku Oshiire-P
BeatmapID:180665
BeatmapSetID:58773

[Difficulty]
HPDrainRate:3
CircleSize:3
OverallDifficulty:2
ApproachRate:3
SliderMultiplier:0.8
SliderTickRate:1

[Events]
//Background and Video events
Video,0,"Re-Education.flv"
0,0,"BG.jpg"
//Break Periods
2,12778,31752
2,99450,108685
//Storyboard Layer 0 (Background)
//Storyboard Layer 1 (Fail)
//Storyboard Layer 2 (Pass)
//Storyboard Layer 3 (Foreground)
//Storyboard Sound Samples
//Background Colour Transformations
3,100,163,162,255

[TimingPoints]
800,368.098159509202,4,2,1,80,1,0
5585,-100,4,2,1,40,0,0
6689,-100,4,2,1,80,0,0
6781,-100,4,2,1,60,0,0
10738,-100,4,1,1,60,0,0
12579,-100,4,1,1,70,0,0
33192,-100,4,1,1,10,0,0
36137,-100,4,2,1,60,0,0
40922,-100,4,2,1,40,0,0
42026,-100,4,2,1,80,0,0
42119,-100,4,2,1,60,0,0
46076,-100,4,1,1,50,0,0
59695,-100,4,2,1,60,0,0
64112,-100,4,1,1,50,0,0
72947,-100,4,1,1,60,0,1
99450,-100,4,1,1,50,0,0
123008,-100,4,2,1,60,0,0
127425,-100,4,1,1,50,0,0
136260,-100,4,1,1,60,0,1
162763,-100,4,1,1,60,0,0
186873,-100,4,1,1,60,0,1
212824,-100,4,2,1,80,0,0

[Colours]
Combo1 : 128,0,0
Combo2 : 128,128,128
Combo3 : 192,192,192
Combo4 : 0,64,128
Combo5 : 255,128,0

[HitObjects]
92,120,800,2,0,B|144:56|240:60,1,160,4|0,0:0|0:0,0:0:0
312,128,1904,1,0,0:0:0
336,228,2272,2,0,B|248:248|172:188,1,160
176,92,3376,1,0,0:0:0
264,36,3744,6,0,B|352:44|400:128,1,160
376,220,4849,1,0,0:0:0
280,256,5217,2,0,B|240:236|224:196,1,80,0|2,0:0|0:0,0:0:0
120,200,5953,2,0,B|112:156|136:116,1,80,2|2,0:0|0:0,0:0:0
196,40,6689,54,0,B|284:60|312:156,1,160,4|0,0:0|0:0,0:0:0
260,236,7793,1,0,0:0:0
172,288,8161,2,0,B|124:224|160:128,1,160
244,76,9266,1,0,0:0:0
336,120,9634,22,0,B|376:144|384:188,1,80
348,280,10370,2,0,B|280:268|248:204,2,120,0|4|8,0:0|0:0|0:0,0:0:0
448,248,11842,2,0,B|432:208|440:164,2,80,0|8|4,0:0|0:0|0:0,0:0:0
256,192,33192,12,0,35401,0:0:0
56,176,36137,38,0,B|76:88|176:68,2,160,4|0|0,0:0|0:0|0:0,0:0:0
132,248,37977,2,0,B|172:276|212:268,2,80
204,172,39082,6,0,B|296:168|344:76,1,160
440,84,40186,1,0,0:0:0
448,188,40554,2,0,B|424:280,1,80,0|2,0:0|0:0,0:0:0
328,296,41290,2,0,B|348:218,1,80,0|2,0:0|0:0,0:0:0
304,124,42026,54,0,B|268:56|164:44,2,160,4|0|0,0:0|0:0|0:0,0:0:0
240,208,43867,1,0,0:0:0
184,296,44235,2,0,B|112:260|108:156,1,160
148,68,45339,21,0,0:0:0
244,28,45707,2,0,B|308:48|336:112,2,120,0|0|8,0:0|0:0|0:0,0:0:0
236,132,47180,1,0,0:0:0
236,132,47548,1,8,0:0:0
168,212,47916,6,0,B|204:292|296:304,2,160,4|0|0,0:0|0:0|0:0,0:0:0
80,156,49757,1,8,0:0:0
148,76,50125,2,0,B|224:32|304:48,1,160
404,72,51229,5,8,0:0:0
432,172,51597,2,0,B|388:176|344:156,1,80,0|8,0:0|0:0,0:0:0
252,140,52333,1,0,0:0:0
168,200,52701,1,8,0:0:0
84,264,53069,2,0,B|96:312|144:336,1,80,0|8,0:0|0:0,0:0:0
232,348,53806,38,0,B|320:340|360:256,1,160,4|0,0:0|0:0,0:0:0
364,156,54910,1,8,0:0:0
276,208,55278,2,0,B|224:156|116:168,1,160
132,64,56382,6,0,B|92:52|68:12,2,80,8|0|8,0:0|0:0|0:0,0:0:0
236,60,57487,2,0,B|296:36|360:72,2,120,0|4|8,0:0|0:0|0:0,0:0:0
176,144,58959,2,0,B|132:168,2,40,0|0|8,0:0|0:0|0:0,0:0:0
244,220,59695,22,0,B|264:264|320:268,1,80,4|0,0:0|0:0,0:0:0
396,212,60431,2,0,B|408:144|468:104,2,120
364,312,61904,2,0,B|344:352|296:360,1,80,0|8,0:0|0:0,0:0:0
208,316,62640,22,0,B|144:296|128:216,2,120,0|8|8,0:0|0:0|0:0,0:0:0
232,216,64112,1,0,0:0:0
232,216,64480,1,8,0:0:0
300,140,64849,1,0,0:0:0
300,140,65217,1,8,0:0:0
380,72,65585,6,0,B|468:96|484:192,1,160,4|0,0:0|0:0,0:0:0
392,232,66689,2,0,B|308:264|296:360,1,160,4|0,0:0|0:0,0:0:0
200,320,67793,2,0,B|164:280,1,40
68,176,68530,6,0,B|76:108|140:76,2,120,4|4|12,0:0|0:0|0:0,0:0:0
168,204,70002,2,0,B|256:212|316:140,1,160,0|8,0:0|0:0,0:0:0
364,56,71106,38,0,B|456:80|464:184,1,160,8|8,0:0|0:0,0:0:0
380,232,72211,2,0,B|380:316,1,80,0|8,0:0|0:0,0:0:0
292,256,72947,6,0,B|268:196|192:184,2,120,4|0|12,0:0|0:0|0:0,0:0:0
192,288,74419,2,0,B|124:292|76:232,2,120,0|0|8,0:0|0:0|0:0,0:0:0
288,332,75892,6,0,B|308:272|388:252,2,120,0|0|8,0:0|0:0|0:0,0:0:0
388,360,77364,1,0,0:0:0
452,280,77732,1,8,0:0:0
468,176,78100,1,4,0:0:0
444,76,78468,1,4,0:0:0
360,136,78836,38,0,B|336:72|272:56,2,120,4|4|8,0:0|0:0|0:0,0:0:0
264,176,80309,2,0,B|224:220|152:216,2,120,0|4|8,0:0|0:0|0:0,0:0:0
176,120,81781,6,0,B|152:80|108:76,1,80,4|8,0:0|0:0,0:0:0
48,156,82517,1,0,0:0:0
44,260,82885,1,8,0:0:0
100,348,83253,2,0,B|192:364|256:296,1,160,4|8,0:0|0:0,0:0:0
244,200,84358,6,0,B|208:172,2,40,8|0|4,0:0|0:0|0:0,0:0:0
336,248,85094,1,8,0:0:0
408,176,85462,2,0,B|416:136|392:96,1,80,0|8,0:0|0:0,0:0:0
292,120,86198,2,0,B|264:64|184:60,2,120,0|0|8,0:0|0:0|0:0,0:0:0
200,172,87671,38,0,B|168:248|56:248,1,160
44,148,88775,1,8,0:0:0
120,76,89143,2,0,B|148:48|196:44,1,80,0|8,0:0|0:0,0:0:0
296,52,89879,1,4,0:0:0
388,104,90247,1,4,0:0:0
424,200,90615,6,0,B|408:260|352:292,2,120,4|4|8,0:0|0:0|0:0,0:0:0
320,192,92088,2,0,B|264:156|196:176,2,120,0|4|8,0:0|0:0|0:0,0:0:0
248,264,93560,5,4,0:0:0
144,280,93928,1,8,0:0:0
52,232,94296,1,0,0:0:0
36,128,94665,1,8,0:0:0
88,36,95033,2,0,B|136:44|160:80,1,80,0|8,0:0|0:0,0:0:0
204,164,95769,2,0,B|232:200|276:200,1,80,0|8,0:0|0:0,0:0:0
352,268,96505,6,0,B|440:248|472:168,1,160,4|0,0:0|0:0,0:0:0
432,72,97609,1,8,0:0:0
328,84,97977,2,0,B|240:84,1,80,0|8,0:0|0:0,0:0:0
168,152,98714,1,0,0:0:0
168,152,99082,1,8,0:0:0
256,188,110125,22,0,B|244:144|196:128,2,80,8|0|8,0:0|0:0|0:0,0:0:0
268,292,111229,2,0,B|360:300|412:220,1,160,4|0,0:0|0:0,0:0:0
368,132,112333,1,8,0:0:0
300,52,112701,2,0,B|264:28|216:36,1,80,0|8,0:0|0:0,0:0:0
124,68,113438,2,0,B|120:112|88:144,1,80,0|8,0:0|0:0,0:0:0
80,244,114174,6,0,B|156:204|248:224,1,160
320,284,115278,1,8,0:0:0
420,256,115646,2,0,B|456:236|472:192,1,80,0|8,0:0|0:0,0:0:0
456,92,116382,1,0,0:0:0
356,68,116750,1,8,0:0:0
256,96,117119,6,0,B|220:112|208:160,1,80,4|8,0:0|0:0,0:0:0
224,260,117855,2,0,B|152:308|64:284,2,160
324,232,119695,1,8,0:0:0
376,140,120063,38,0,B|388:96|436:76,1,80,0|8,0:0|0:0,0:0:0
472,176,120799,2,0,B|456:248|392:280,2,120,0|4|8,0:0|0:0|0:0,0:0:0
372,140,122272,2,0,B|328:152|284:128,1,80,0|8,0:0|0:0,0:0:0
220,60,123008,38,0,B|152:56|104:108,2,120,4|8|8,0:0|0:0|0:0,0:0:0
196,160,124480,2,0,B|172:220|112:240,2,120,0|8|8,0:0|0:0|0:0,0:0:0
284,104,125953,6,0,B|352:96|396:144,2,120,0|8|8,0:0|0:0|0:0,0:0:0
304,204,127425,1,0,0:0:0
236,284,127793,1,8,0:0:0
136,312,128161,1,0,0:0:0
36,288,128530,1,8,0:0:0
116,224,128898,6,0,B|156:192|152:148,1,80,4|8,0:0|0:0,0:0:0
256,160,129634,2,0,B|300:88|404:88,1,160
448,176,130738,1,8,0:0:0
408,272,131106,2,0,B|380:320,1,40
236,332,131842,6,0,B|212:268|148:252,2,120,4|4|0,0:0|0:0|0:0,0:0:0
132,344,133315,2,0,B|56:312|44:216,1,160,4|0,0:0|0:0,0:0:0
120,148,134419,1,8,0:0:0
144,48,134787,6,0,B|108:32|52:40,2,80,4|8|0,0:0|0:0|0:0,0:0:0
120,148,135892,1,8,0:0:0
220,128,136260,38,0,B|244:188|320:200,2,120,4|0|12,0:0|0:0|0:0,0:0:0
320,96,137732,2,0,B|388:92|436:152,2,120,0|0|8,0:0|0:0|0:0,0:0:0
224,52,139204,6,0,B|204:112|124:132,2,120,0|0|8,0:0|0:0|0:0,0:0:0
124,24,140677,1,0,0:0:0
60,104,141045,1,8,0:0:0
44,208,141413,1,4,0:0:0
68,308,141781,1,4,0:0:0
152,248,142149,6,0,B|176:312|240:328,2,120,4|4|8,0:0|0:0|0:0,0:0:0
248,208,143622,2,0,B|288:164|360:168,2,120,0|4|8,0:0|0:0|0:0,0:0:0
336,264,145094,38,0,B|360:304|404:308,1,80,4|8,0:0|0:0,0:0:0
464,228,145830,1,0,0:0:0
468,124,146198,1,8,0:0:0
412,36,146566,2,0,B|320:20|256:88,1,160,4|8,0:0|0:0,0:0:0
268,184,147671,6,0,B|304:212,2,40,8|0|4,0:0|0:0|0:0,0:0:0
176,136,148407,1,8,0:0:0
104,208,148775,2,0,B|96:248|120:288,1,80,0|8,0:0|0:0,0:0:0
220,264,149511,2,0,B|248:320|328:324,2,120,0|0|8,0:0|0:0|0:0,0:0:0
312,212,150984,6,0,B|344:136|456:136,1,160
468,236,152088,1,8,0:0:0
392,308,152456,2,0,B|364:336|316:340,1,80,0|8,0:0|0:0,0:0:0
216,332,153192,1,4,0:0:0
124,280,153560,1,4,0:0:0
88,184,153928,38,0,B|104:124|160:92,2,120,4|4|8,0:0|0:0|0:0,0:0:0
192,192,155401,2,0,B|248:228|316:208,2,120,0|4|8,0:0|0:0|0:0,0:0:0
264,120,156873,5,4,0:0:0
368,104,157241,1,8,0:0:0
460,152,157609,1,0,0:0:0
476,256,157977,1,8,0:0:0
424,348,158346,2,0,B|376:340|352:304,1,80,0|8,0:0|0:0,0:0:0
308,220,159082,2,0,B|280:184|236:184,1,80,0|8,0:0|0:0,0:0:0
160,116,159818,22,0,B|72:136|40:216,1,160,4|0,0:0|0:0,0:0:0
80,312,160922,1,8,0:0:0
184,300,161290,2,0,B|272:300,1,80,0|8,0:0|0:0,0:0:0
344,232,162026,1,0,0:0:0
344,232,162395,1,8,0:0:0
312,132,162763,21,4,0:0:0
240,56,163131,1,8,0:0:0
140,28,163499,2,0,B|84:56|60:124,2,120,2|4|8,0:0|0:0|0:0,0:0:0
164,128,164971,2,0,B|164:216,1,80,0|8,0:0|0:0,0:0:0
208,304,165707,5,4,0:0:0
312,324,166076,1,8,0:0:0
412,296,166444,2,0,B|468:272|484:196,2,120,2|4|8,0:0|0:0|0:0,0:0:0
376,200,167916,2,0,B|280:200,1,80,0|8,0:0|0:0,0:0:0
208,256,168652,5,4,0:0:0
116,208,169020,1,8,0:0:0
92,108,169388,2,0,B|116:44|184:24,2,120,2|4|8,0:0|0:0|0:0,0:0:0
196,128,170861,2,0,B|284:128,1,80,0|8,0:0|0:0,0:0:0
312,224,171597,38,0,B|216:224,1,80,4|8,0:0|0:0,0:0:0
192,320,172333,2,0,B|128:332|64:288,2,120,0|4|8,0:0|0:0|0:0,0:0:0
296,304,173806,1,0,0:0:0
380,244,174174,1,8,0:0:0
404,144,174542,6,0,B|400:96|352:76,1,80,4|8,0:0|0:0,0:0:0
264,44,175278,2,0,B|228:84|152:88,2,120,2|4|8,0:0|0:0|0:0,0:0:0
276,148,176750,1,0,0:0:0
276,148,177119,1,8,0:0:0
232,244,177487,6,0,B|188:244|160:272,1,80,4|8,0:0|0:0,0:0:0
240,340,178223,2,0,B|304:364|372:336,2,120,2|4|8,0:0|0:0|0:0,0:0:0
136,356,179695,1,0,0:0:0
136,356,180063,1,8,0:0:0
92,260,180431,38,0,B|60:208|72:136,2,120,4|4|4,0:0|0:0|0:0,0:0:0
176,196,181904,2,0,B|200:112|304:92,1,160,0|0,0:0|0:0,0:0:0
392,112,183008,1,8,0:0:0
416,212,183376,6,0,B|408:260|376:280,1,80,4|8,0:0|0:0,0:0:0
292,340,184112,2,0,B|284:272|216:240,2,120,0|4|8,0:0|0:0|0:0,0:0:0
188,340,185585,1,0,0:0:0
188,340,186873,6,0,B|116:320|96:256,1,120,4|8,0:0|0:0,0:0:0
100,160,187793,2,0,B|172:164|220:108,2,120,0|0|8,0:0|0:0|0:0,0:0:0
124,60,189266,38,0,B|172:24|248:36,2,120,0|0|8,0:0|0:0|0:0,0:0:0
72,148,190738,1,0,0:0:0
92,248,191106,1,8,0:0:0
172,312,191474,1,4,0:0:0
276,324,191842,1,4,0:0:0
376,296,192211,6,0,B|412:252|416:176,2,120,4|4|0,0:0|0:0|0:0,0:0:0
312,212,193683,2,0,B|280:168|288:92,2,120,0|4|8,0:0|0:0|0:0,0:0:0
232,280,195155,6,0,B|144:280,1,80,4|8,0:0|0:0,0:0:0
116,180,195892,2,0,B|32:180,1,80,0|8,0:0|0:0,0:0:0
88,88,196628,2,0,B|152:40|252:64,1,160
312,136,197732,38,0,B|352:112,2,40,8|0|4,0:0|0:0|0:0,0:0:0
284,236,198468,2,0,B|248:308|148:316|148:312,1,160,8|8,0:0|0:0,0:0:0
64,256,199573,2,0,B|40:204|56:132,2,120,0|0|8,0:0|0:0|0:0,0:0:0
164,224,201045,6,0,B|176:152|232:124,2,120,0|0|8,0:0|0:0|0:0,0:0:0
248,288,202517,1,0,0:0:0
352,292,202885,1,8,0:0:0
436,232,203253,1,4,0:0:0
452,128,203622,1,4,0:0:0
348,124,203990,6,0,B|344:64|272:32,2,120,4|4|8,0:0|0:0|0:0,0:0:0
244,136,205462,2,0,B|184:144|132:88,2,120,0|4|8,0:0|0:0|0:0,0:0:0
176,216,206934,37,4,0:0:0
264,272,207303,1,8,0:0:0
368,292,207671,1,0,0:0:0
472,276,208039,1,8,0:0:0
428,184,208407,2,0,B|400:152|392:104,1,80,0|8,0:0|0:0,0:0:0
300,64,209143,2,0,B|260:52|220:60,1,80,0|8,0:0|0:0,0:0:0
120,80,209879,38,0,B|80:160|120:248,2,160,4|0|0,0:0|0:0|0:0,0:0:0
204,140,211720,2,0,B|232:176|236:224,1,80,8|0,0:0|0:0,0:0:0
256,316,212456,2,0,B|296:304|336:316,1,80,8|4,0:0|0:0,0:0:0
