osu file format v12

[General]
AudioFilename: Lost one no Goukoku.mp3
AudioLeadIn: 0
PreviewTime: 167123
Countdown: 0
SampleSet: Soft
StackLeniency: 0.7
Mode: 0
LetterboxInBreaks: 0

[Editor]
Bookmarks: 16382,26753,40086,51938,63790,75642,87493,99345,111197,123049,134901,146753,158605,170456,182308,195642,207493
DistanceSpacing: 1.2
BeatDivisor: 4
GridSize: 8

[Metadata]
Title:Lost One no Goukoku
TitleUnicode:ロストワンの号哭
Artist:Neru
ArtistUnicode:Neru
Creator:goodbye
Version:eveless
Source:
Tags:vocaloid kagamine rin oshiirep eveless Kotone Azure Disoy karenying
BeatmapID:230641
BeatmapSetID:83547

[Difficulty]
HPDrainRate:8
CircleSize:4
OverallDifficulty:7
ApproachRate:9
SliderMultiplier:1.7
SliderTickRate:1

[Events]
//Background and Video events
0,0,"34023503.jpg",0,0
Video,0,"lost one no goukoku.flv"
//Break Periods
2,16582,26153
2,99730,110597
//Storyboard Layer 0 (Background)
//Storyboard Layer 1 (Fail)
//Storyboard Layer 2 (Pass)
//Storyboard Layer 3 (Foreground)
//Storyboard Sound Samples
//Background Colour Transformations
3,100,163,162,255

[TimingPoints]
1568,370.37037037037,4,1,1,60,1,0
3790,-133.333333333333,4,2,1,100,0,0
4160,-133.333333333333,4,3,1,100,0,0
4530,-100,4,2,1,100,0,0
26753,-80,4,1,1,60,0,0
28234,-80,4,2,1,100,0,0
40086,-100,4,2,1,100,0,0
46012,-100,4,2,1,30,0,0
46382,-100,4,2,1,20,0,0
46753,-100,4,2,1,15,0,0
47123,-100,4,2,1,10,0,0
47493,-100,4,2,1,5,0,0
48790,-100,4,2,1,100,0,0
51197,-80,4,2,1,60,0,0
51567,-133.333333333333,4,2,1,60,0,0
51938,-100,4,2,1,60,0,0
57864,-80,4,2,1,60,0,0
63790,-100,4,2,1,65,0,0
74438,-100,4,1,1,55,0,0
75642,-80,4,2,1,75,0,1
86012,-66.6666666666667,4,2,1,75,0,1
87493,-80,4,2,1,80,0,1
98975,-133.333333333333,4,2,1,70,0,1
99345,-100,4,2,1,60,0,0
111197,-133.333333333333,4,2,1,60,0,0
120086,-200,4,2,1,60,0,0
121382,-133.333333333333,4,2,1,60,0,0
122493,-100,4,2,1,60,0,0
131938,-100,4,1,1,60,0,0
132493,-100,4,2,1,60,0,0
133419,-100,4,1,1,60,0,0
134901,-80,4,2,1,80,0,1
145271,-66.6666666666667,4,2,1,80,0,1
146753,-80,4,2,1,80,0,1
158234,-80,4,2,1,80,0,0
158605,-100,4,1,1,80,0,0
164716,-100,4,2,1,80,0,0
170456,-80,4,2,1,80,0,1
181938,-100,4,2,1,80,0,0
183419,-133.333333333333,4,2,1,80,0,0
183790,-100,4,2,1,80,0,0
207493,-80,4,1,1,80,0,0
209716,-100,4,2,1,80,0,0
210456,-80,4,1,1,80,0,0
212679,-100,4,2,1,80,0,0

[Colours]
Combo1 : 207,10,10
Combo2 : 137,194,183
Combo3 : 140,140,140
Combo4 : 196,165,123
Combo5 : 154,71,82
Combo6 : 41,48,88

[HitObjects]
152,232,1568,1,0,0:0:0:0:
253,176,1753,1,0,0:0:0:0:
180,77,1938,1,8,0:0:0:0:
161,68,2030,1,8,0:0:0:0:
136,57,2123,2,0,L|81:29,1,42.5,0|0,0:0|0:0,0:0:0:0:
29,14,2308,6,0,L|26:116,1,85
17,234,2679,1,8,0:0:0:0:
30,254,2771,1,8,0:0:0:0:
45,278,2864,2,0,L|74:321,1,42.5,0|8,0:0|0:0,0:0:0:0:
160,320,3049,6,0,P|208:306|260:323,1,85
359,358,3419,1,8,0:0:0:0:
372,321,3512,1,8,0:0:0:0:
386,286,3605,2,0,L|402:234,1,42.5,0|8,0:0|0:0,0:0:0:0:
372,142,3790,6,0,P|328:192|249:200,1,127.500004863739,0|0,1:0|0:0,0:0:0:0:
270,204,4530,5,4,0:0:0:0:
271,88,4716,1,0,0:0:0:0:
170,143,4901,1,8,0:0:0:0:
155,139,4993,1,0,0:0:0:0:
138,135,5086,2,0,L|49:160,1,85
9,283,5456,2,0,L|115:252,1,85,0|8,0:0|0:0,0:0:0:0:
122,262,5734,1,0,0:0:0:0:
150,267,5827,1,0,0:0:0:0:
249,342,6012,21,0,0:0:0:0:
369,305,6197,1,0,0:0:0:0:
390,168,6382,1,8,0:0:0:0:
390,168,6475,1,0,0:0:0:0:
390,168,6567,1,0,0:0:0:0:
273,91,6753,2,0,L|160:80,1,85
55,33,7123,1,8,0:0:0:0:
55,66,7216,1,0,0:0:0:0:
55,97,7308,1,0,0:0:0:0:
0,200,7493,6,0,P|46:181|93:191,1,85
210,238,7864,1,8,0:0:0:0:
210,238,7956,1,0,0:0:0:0:
210,238,8049,2,0,L|328:232,1,85
387,317,8419,2,0,P|433:330|493:310,1,85,0|8,0:0|0:0,0:0:0:0:
496,298,8697,1,0,0:0:0:0:
484,266,8790,2,0,L|493:171,1,85
432,88,9160,5,2,0:0:0:0:
158,41,9530,1,2,0:0:0:0:
112,313,9901,1,2,0:0:0:0:
384,358,10271,1,0,0:0:0:0:
274,197,10456,6,0,P|255:254|280:302,1,85,4|0,0:0|0:0,0:0:0:0:
425,273,10827,1,8,0:0:0:0:
415,250,10919,1,0,0:0:0:0:
404,227,11012,1,0,0:0:0:0:
272,72,11197,6,0,P|217:90|197:130,1,85
127,227,11567,1,8,0:0:0:0:
86,235,11661,1,0,0:0:0:0:
46,241,11753,1,0,0:0:0:0:
167,324,11938,21,0,0:0:0:0:
240,256,12123,1,0,0:0:0:0:
328,320,12308,1,8,0:0:0:0:
320,336,12401,1,0,0:0:0:0:
311,351,12493,1,0,0:0:0:0:
255,159,12679,2,0,P|220:111|240:61,1,85,0|0,0:0|0:0,0:0:0:0:
410,31,13049,1,8,0:0:0:0:
388,62,13142,1,0,0:0:0:0:
365,92,13234,1,0,0:0:0:0:
259,27,13419,6,0,P|237:77|260:132,1,85
334,197,13790,1,8,0:0:0:0:
334,197,13882,1,0,0:0:0:0:
334,197,13975,2,0,L|432:184,1,85
240,261,14345,2,0,L|137:272,1,85,0|8,0:0|0:0,0:0:0:0:
155,270,14623,1,0,0:0:0:0:
155,270,14716,1,0,0:0:0:0:
16,160,14901,5,0,0:0:0:0:
16,160,15086,2,0,L|128:144,1,85,0|8,0:0|0:0,0:0:0:0:
137,137,15364,1,0,0:0:0:0:
175,125,15456,2,0,L|271:110,1,85,0|0,0:0|1:0,0:0:0:0:
333,95,15827,5,0,1:0:0:0:
408,80,16012,5,0,1:0:0:0:
483,68,16197,21,0,1:0:0:0:
432,240,16382,69,4,0:0:0:0:
112,64,26753,6,0,L|96:192,1,106.25
56,272,27030,1,0,0:0:0:0:
56,272,27123,2,0,L|192:224,1,106.25
491,131,27679,1,0,0:0:0:0:
484,174,27771,1,0,0:0:0:0:
476,217,27864,1,0,0:0:0:0:
467,258,27956,1,0,0:0:0:0:
453,298,28049,2,0,L|388:317,1,53.125
326,351,28234,6,0,P|268:326|145:349,1,159.375,4|2,0:0|0:0,0:0:0:0:
104,368,28605,1,0,0:0:0:0:
8,192,28790,2,0,P|96:208|168:144,1,159.375,2|0,0:0|0:0,0:0:0:0:
176,96,29160,2,0,L|296:64,1,106.25,2|0,0:0|0:0,0:0:0:0:
432,96,29530,1,0,0:0:0:0:
392,240,29716,5,2,0:0:0:0:
496,192,29901,1,0,0:0:0:0:
496,192,29993,2,0,P|504:280|462:331,1,159.375,2|2,0:0|0:0,0:0:0:0:
292,203,30642,1,0,0:0:0:0:
264,206,30734,1,2,0:0:0:0:
238,209,30827,1,0,0:0:0:0:
163,126,31012,2,0,L|126:171,1,53.125,2|0,0:0|0:0,0:0:0:0:
29,143,31197,6,0,P|32:203|89:249,1,106.25,2|0,0:0|0:0,0:0:0:0:
21,365,31475,2,0,P|64:336|133:337,1,106.25,2|0,0:0|0:0,0:0:0:0:
197,364,31753,1,2,0:0:0:0:
448,248,32123,1,2,0:0:0:0:
393,165,32308,1,0,0:0:0:0:
473,97,32493,1,2,0:0:0:0:
458,82,32586,1,0,0:0:0:0:
440,67,32679,6,0,L|314:60,1,106.25,0|2,0:0|0:0,0:0:0:0:
198,17,32956,2,0,P|189:75|243:135,1,106.25,0|2,0:0|0:0,0:0:0:0:
330,317,33234,2,0,P|355:249|283:167,1,159.375,0|0,0:0|0:0,0:0:0:0:
289,187,33605,1,2,0:0:0:0:
257,201,33697,1,0,0:0:0:0:
216,216,33790,2,0,L|74:204,1,106.25,0|2,0:0|0:0,0:0:0:0:
75,185,34067,1,0,0:0:0:0:
41,160,34160,22,0,P|2:256|18:280,1,106.25,4|0,0:0|0:0,0:0:0:0:
136,288,34438,2,0,L|265:297,1,106.25,2|0,0:0|0:0,0:0:0:0:
303,350,34716,69,2,0:0:0:0:
436,59,35086,5,2,0:0:0:0:
400,67,35179,1,0,0:0:0:0:
368,80,35271,2,0,P|300:65|228:91,1,106.25,0|2,0:0|0:0,0:0:0:0:
89,68,35642,6,0,P|105:132|161:148,1,106.25,2|0,0:0|0:0,0:0:0:0:
174,223,35919,2,0,P|230:199|286:210,1,106.25,2|0,0:0|0:0,0:0:0:0:
343,254,36197,2,0,P|424:280|512:218,1,159.375,2|0,0:0|0:0,0:0:0:0:
512,182,36567,1,2,0:0:0:0:
488,168,36660,1,0,0:0:0:0:
460,153,36753,1,0,0:0:0:0:
333,333,36938,1,0,0:0:0:0:
304,342,37030,1,2,0:0:0:0:
276,350,37123,6,0,L|149:328,1,106.25,0|0,0:0|0:0,0:0:0:0:
75,333,37401,2,0,L|138:240,1,106.25,2|2,0:0|0:0,0:0:0:0:
205,111,37679,2,0,L|278:276,1,159.375,2|0,0:0|0:0,0:0:0:0:
269,256,38049,1,0,0:0:0:0:
358,174,38234,1,2,0:0:0:0:
304,56,38419,1,2,0:0:0:0:
304,56,38512,1,2,0:0:0:0:
304,56,38605,6,0,L|424:48,1,106.25,4|8,0:0|0:0,0:0:0:0:
325,134,38882,6,0,L|252:137,1,53.125,8|0,0:0|0:0,0:0:0:0:
233,212,39067,22,0,L|323:211,1,53.125,8|8,0:0|0:0,0:0:0:0:
244,288,39253,6,0,L|155:289,1,53.125,8|8,0:0|0:0,0:0:0:0:
63,355,39530,1,0,0:0:0:0:
58,215,39716,1,8,0:0:0:0:
74,182,39808,1,8,0:0:0:0:
89,149,39901,2,0,L|73:85,1,53.125,8|8,0:0|0:0,0:0:0:0:
24,38,40086,6,0,P|100:26|120:38,1,85,4|0,0:0|0:0,0:0:0:0:
176,88,40456,1,8,0:0:0:0:
192,80,40549,1,0,0:0:0:0:
208,72,40642,1,0,0:0:0:0:
352,24,40827,2,0,P|368:80|336:120,1,85,0|0,0:0|0:0,0:0:0:0:
264,184,41197,1,8,0:0:0:0:
280,216,41290,1,0,0:0:0:0:
296,248,41382,1,0,0:0:0:0:
472,296,41567,6,0,P|424:336|376:328,1,85
232,344,41938,2,0,L|296:328,2,42.5,8|0|8,0:0|0:0|0:0,0:0:0:0:
128,288,42308,2,0,L|32:312,1,85
0,200,42679,1,8,0:0:0:0:
8,168,42771,1,0,0:0:0:0:
16,136,42864,1,0,0:0:0:0:
124,23,43049,6,0,P|140:71|108:111,1,85
264,94,43419,1,8,0:0:0:0:
264,94,43512,1,0,0:0:0:0:
264,94,43605,2,0,L|387:72,1,85
507,153,43975,2,0,L|388:181,1,85,0|8,0:0|0:0,0:0:0:0:
416,196,44253,1,0,0:0:0:0:
405,219,44345,2,0,L|289:238,1,85
224,312,44716,21,2,0:0:0:0:
224,312,44808,2,0,P|184:264|208:192,1,127.5,0|2,0:0|0:0,0:0:0:0:
289,47,45271,5,0,1:0:0:0:
424,88,45456,1,0,0:0:0:0:
400,104,45549,1,2,0:0:0:0:
230,138,45734,1,0,0:0:0:0:
208,112,45827,1,2,0:0:0:0:
256,192,46012,12,2,48419,0:0:0:0:
256,192,48790,37,2,0:0:0:0:
184,104,48975,22,0,P|248:80|296:96,1,85
240,200,49345,1,8,0:0:0:0:
224,208,49438,1,0,0:0:0:0:
208,216,49530,1,0,0:0:0:0:
64,136,49716,2,0,P|56:80|104:40,1,85
128,224,50086,1,8,0:0:0:0:
112,256,50179,1,0,0:0:0:0:
96,288,50271,1,0,0:0:0:0:
16,326,50456,22,0,P|64:366|152:344,1,127.5,8|0,0:0|0:0,0:0:0:0:
160,344,50827,1,8,0:0:0:0:
184,104,51105,1,0,1:0:0:0:
184,104,51197,38,0,B|224:96|224:96|248:104|248:104|290:95,1,106.25,2|0,0:0|0:0,0:0:0:0:
431,42,51567,2,0,L|309:29,1,95.6250036478044,2|0,1:0|0:0,0:0:0:0:
340,149,51938,6,0,L|356:245,1,85,4|0,0:0|0:0,0:0:0:0:
432,232,52216,1,2,0:0:0:0:
432,232,52308,2,0,L|408:328,1,85,0|2,0:0|0:0,0:0:0:0:
80,288,52864,1,0,0:0:0:0:
72,272,52956,1,2,0:0:0:0:
64,256,53049,1,0,0:0:0:0:
96,160,53234,1,2,0:0:0:0:
136,56,53419,5,0,0:0:0:0:
136,56,53512,2,0,P|208:48|240:72,1,85,0|2,0:0|0:0,0:0:0:0:
296,48,53790,2,0,L|392:32,1,85,0|2,0:0|0:0,0:0:0:0:
400,40,54067,1,0,0:0:0:0:
424,48,54160,1,2,0:0:0:0:
432,152,54345,2,0,P|432:208|480:248,1,85,0|2,0:0|0:0,0:0:0:0:
408,336,54716,1,0,0:0:0:0:
408,336,54808,1,2,0:0:0:0:
408,336,54901,6,0,L|296:344,1,85
272,272,55179,2,0,L|208:344,1,85,2|0,0:0|0:0,0:0:0:0:
128,352,55456,2,0,P|88:336|72:232,1,127.5,0|2,0:0|0:0,0:0:0:0:
104,184,55827,1,0,0:0:0:0:
16,64,56012,1,2,0:0:0:0:
120,56,56197,1,2,0:0:0:0:
120,56,56290,1,0,0:0:0:0:
120,56,56382,6,0,P|192:64|216:88,1,85
280,32,56660,2,0,P|288:80|264:128,1,85,2|0,0:0|0:0,0:0:0:0:
368,128,56938,2,0,P|336:192|264:208,1,127.5,2|0,0:0|0:0,0:0:0:0:
286,210,57308,2,0,L|304:296,1,85,2|2,0:0|0:0,0:0:0:0:
232,384,57679,1,0,0:0:0:0:
222,366,57771,1,2,0:0:0:0:
208,344,57864,38,0,L|64:320,1,106.25,4|2,0:0|0:0,0:0:0:0:
16,360,58142,2,0,L|40:240,1,106.25,0|2,0:0|0:0,0:0:0:0:
72,120,58419,2,0,L|192:264,1,159.375,2|0,0:0|0:0,0:0:0:0:
252,258,58790,1,2,0:0:0:0:
235,153,58975,1,2,0:0:0:0:
224,48,59160,1,0,0:0:0:0:
224,48,59253,1,2,0:0:0:0:
224,48,59345,6,0,P|296:32|368:64,1,106.25
368,48,59623,2,0,L|464:40,1,53.125,2|0,0:0|0:0,0:0:0:0:
504,168,59901,1,2,0:0:0:0:
360,184,60086,1,0,0:0:0:0:
368,176,60179,1,2,0:0:0:0:
376,168,60271,2,0,L|400:296,1,106.25,0|2,0:0|0:0,0:0:0:0:
296,368,60642,1,2,0:0:0:0:
264,344,60734,1,0,0:0:0:0:
224,320,60827,6,0,P|136:320|104:280,1,106.25
91,241,61105,2,0,P|135:164|185:157,1,106.25,2|0,0:0|0:0,0:0:0:0:
226,162,61382,2,0,P|270:238|251:285,1,106.25,2|0,0:0|0:0,0:0:0:0:
182,242,61753,1,2,0:0:0:0:
267,252,61938,1,2,0:0:0:0:
354,262,62123,1,0,0:0:0:0:
443,272,62308,6,0,L|448:192,1,53.125,0|2,0:0|0:0,0:0:0:0:
364,33,62586,2,0,L|357:108,1,53.125,2|0,0:0|0:0,0:0:0:0:
227,162,62864,1,2,0:0:0:0:
227,162,62956,1,0,0:0:0:0:
227,162,63049,1,8,0:0:0:0:
128,64,63234,1,8,0:0:0:0:
272,80,63419,1,8,0:0:0:0:
280,96,63512,1,8,0:0:0:0:
368,112,63697,1,0,0:0:0:0:
368,112,63790,6,0,L|480:96,1,85,4|0,0:0|0:0,0:0:0:0:
476,87,64067,1,2,0:0:0:0:
476,87,64345,21,2,0:0:0:0:
411,194,64530,2,0,L|326:206,1,85,2|0,0:0|0:0,0:0:0:0:
304,232,64808,1,2,0:0:0:0:
304,232,65086,5,2,0:0:0:0:
280,256,65179,1,0,0:0:0:0:
248,280,65271,2,0,L|154:297,1,85,0|2,0:0|0:0,0:0:0:0:
112,352,65549,2,0,P|64:320|64:248,1,127.5,0|2,0:0|0:0,0:0:0:0:
128,80,66012,5,0,0:0:0:0:
232,104,66197,1,2,0:0:0:0:
232,104,66290,2,0,L|320:88,1,85
342,62,66567,1,2,0:0:0:0:
464,96,66753,6,0,L|400:168,1,85,0|2,0:0|0:0,0:0:0:0:
384,152,67030,2,0,P|376:232|432:280,1,127.5,0|2,0:0|0:0,0:0:0:0:
496,320,67493,1,0,0:0:0:0:
360,360,67679,1,2,0:0:0:0:
344,352,67771,1,0,0:0:0:0:
176,344,68049,1,2,0:0:0:0:
288,280,68234,6,0,P|264:248|208:232,1,85,0|2,0:0|0:0,0:0:0:0:
197,254,68512,2,0,P|191:168|230:138,1,127.5,0|2,0:0|0:0,0:0:0:0:
239,124,68882,1,0,0:0:0:0:
267,113,68975,2,0,L|269:13,1,85,0|2,0:0|0:0,0:0:0:0:
256,8,69253,1,0,0:0:0:0:
120,76,69530,1,2,0:0:0:0:
93,59,69623,1,0,0:0:0:0:
63,42,69716,22,0,L|70:145,1,85,4|0,0:0|0:0,0:0:0:0:
45,161,69993,1,2,0:0:0:0:
107,316,70271,1,2,0:0:0:0:
199,256,70456,2,0,L|304:248,1,85
318,237,70734,1,2,0:0:0:0:
431,339,71012,1,2,0:0:0:0:
493,268,71197,6,0,L|493:165,1,85
507,142,71475,1,2,0:0:0:0:
413,27,71753,1,0,0:0:0:0:
390,37,71845,1,2,0:0:0:0:
367,47,71938,1,0,0:0:0:0:
254,26,72123,1,2,0:0:0:0:
254,26,72216,2,0,P|256:88|297:117,1,85,0|2,0:0|0:0,0:0:0:0:
312,132,72493,5,8,0:0:0:0:
155,109,72679,2,0,L|39:114,1,85,0|0,1:0|0:0,0:0:0:0:
53,100,72956,1,0,0:0:0:0:
32,88,73049,1,8,1:0:0:0:
24,256,73234,1,2,0:0:0:0:
155,319,73419,1,8,0:0:0:0:
155,319,73512,1,8,0:0:0:0:
155,319,73605,1,0,0:0:0:0:
155,319,73790,1,8,1:0:0:0:
264,223,73975,1,0,0:0:0:0:
406,289,74160,5,4,1:0:0:0:
482,136,74345,1,0,0:0:0:0:
454,120,74438,1,0,1:0:0:0:
420,120,74530,1,8,1:0:0:0:
383,106,74623,1,0,0:0:0:0:
402,72,74716,1,0,0:0:0:0:
436,56,74808,1,0,0:0:0:0:
397,37,74901,5,0,0:0:0:0:
355,27,74993,1,0,0:0:0:0:
315,42,75086,1,0,0:0:0:0:
284,72,75179,1,0,0:0:0:0:
273,112,75271,21,0,0:0:0:0:
232,99,75364,1,0,0:0:0:0:
202,69,75456,1,0,0:0:0:0:
182,35,75549,1,0,0:0:0:0:
137,24,75642,22,0,L|1:32,1,106.25,4|0,1:0|1:0,0:0:0:0:
0,136,75919,2,0,L|128:128,1,106.25,2|0,0:0|1:0,0:0:0:0:
191,196,76197,2,0,P|239:268|226:361,1,159.375,10|0,2:0|0:0,0:0:0:0:
236,338,76567,1,10,2:0:0:0:
355,287,76753,1,8,0:0:0:0:
456,368,76938,1,2,0:0:0:0:
472,208,77123,37,0,1:0:0:0:
472,208,77216,1,0,0:0:0:0:
472,208,77308,1,2,0:0:0:0:
472,208,77401,1,0,0:0:0:0:
384,128,77586,5,2,0:0:0:0:
384,128,77679,2,0,L|296:112,1,53.125,0|2,0:0|0:0,0:0:0:0:
248,40,77864,2,0,L|240:96,1,53.125,0|2,1:0|0:0,0:0:0:0:
160,200,78049,2,0,L|280:184,1,106.25,2|8,0:0|0:0,0:0:0:0:
80,96,78419,1,0,0:0:0:0:
72,120,78512,1,2,0:0:0:0:
64,144,78605,6,0,P|48:224|88:272,1,106.25,8|10,0:0|0:0,0:0:0:0:
264,152,78882,2,0,P|202:98|141:108,1,106.25,0|0,0:0|0:0,0:0:0:0:
160,304,79160,2,0,P|237:277|258:219,1,106.25,10|8,0:0|0:0,0:0:0:0:
160,200,79530,53,2,0:0:0:0:
56,243,79716,1,8,0:0:0:0:
249,260,79901,1,2,0:0:0:0:
368,256,80086,6,0,P|408:192|384:128,1,106.25,8|2,0:0|0:0,0:0:0:0:
384,128,80364,1,8,0:0:0:0:
280,40,80549,1,2,0:0:0:0:
280,40,80642,1,8,0:0:0:0:
154,71,80827,2,0,L|82:55,1,53.125,8|2,0:0|0:0,0:0:0:0:
18,39,81012,2,0,P|26:103|74:135,1,106.25,2|8,0:0|0:0,0:0:0:0:
256,160,81382,1,2,0:0:0:0:
248,176,81475,1,0,0:0:0:0:
240,192,81567,6,0,P|232:272|176:288,1,106.25,4|2,1:0|0:0,0:0:0:0:
216,360,81845,2,0,L|96:344,1,106.25,8|2,0:0|0:0,0:0:0:0:
32,368,82123,54,0,P|24:296|128:240,1,159.375,8|0,0:0|0:0,0:0:0:0:
240,192,82493,22,0,P|232:272|176:288,1,106.25,2|8,0:0|0:0,0:0:0:0:
83,240,82864,1,2,0:0:0:0:
128,128,83049,1,8,0:0:0:0:
128,128,83142,2,0,L|56:104,1,53.125,8|2,0:0|0:0,0:0:0:0:
0,72,83327,2,0,P|56:32|128:40,1,106.25,8|0,0:0|0:0,0:0:0:0:
184,56,83605,2,0,P|248:64|296:40,1,106.25,2|8,0:0|0:0,0:0:0:0:
424,40,83975,1,2,0:0:0:0:
424,40,84067,2,0,L|416:96,1,53.125,0|8,0:0|0:0,0:0:0:0:
456,200,84345,1,2,0:0:0:0:
487,319,84530,6,0,P|439:327|373:306,1,106.25,8|2,0:0|0:0,0:0:0:0:
96,256,84808,2,0,P|144:264|210:243,1,106.25,8|2,0:0|0:0,0:0:0:0:
296,145,85086,2,0,P|313:96|283:31,1,106.25,8|8,0:0|0:0,0:0:0:0:
96,256,85456,1,2,0:0:0:0:
384,312,85642,1,10,0:0:0:0:
198,249,85827,1,2,0:0:0:0:
232,256,85919,1,0,0:0:0:0:
264,264,86012,6,0,P|240:328|152:344,1,127.500004863739,4|0,1:0|0:0,0:0:0:0:
104,344,86290,1,2,0:0:0:0:
256,32,86567,1,2,0:0:0:0:
408,344,86753,1,8,0:0:0:0:
396,327,86845,1,0,0:0:0:0:
384,312,86938,1,2,0:0:0:0:
440,208,87123,1,8,0:0:0:0:
440,208,87216,1,8,0:0:0:0:
440,208,87308,1,0,1:0:0:0:
440,208,87401,1,8,0:0:0:0:
440,208,87493,22,0,P|432:136|480:96,1,106.25,4|2,1:0|0:0,0:0:0:0:
512,56,87771,1,0,1:0:0:0:
330,115,87956,1,2,0:0:0:0:
330,115,88049,2,0,P|259:144|174:108,1,159.375,8|0,0:0|0:0,0:0:0:0:
137,55,88419,1,2,0:0:0:0:
37,135,88605,2,0,L|48:200,1,53.125,8|2,0:0|0:0,0:0:0:0:
35,268,88790,2,0,L|49:339,1,53.125,2|8,0:0|0:0,0:0:0:0:
148,324,88975,70,0,P|203:298|289:321,1,106.25,8|2,0:0|0:0,0:0:0:0:
387,346,89253,2,0,P|338:316|326:254,1,106.25,8|2,0:0|0:0,0:0:0:0:
360,194,89530,1,10,0:0:0:0:
474,364,89716,1,10,0:0:0:0:
448,271,89901,1,0,0:0:0:0:
456,261,89993,1,2,0:0:0:0:
466,249,90086,1,8,0:0:0:0:
470,142,90271,1,2,0:0:0:0:
428,37,90456,6,0,P|356:21|300:37,1,106.25,8|2,0:0|0:0,0:0:0:0:
84,37,90734,2,0,P|156:21|212:37,1,106.25,8|2,0:0|0:0,0:0:0:0:
259,125,91012,2,0,B|308:200|251:301,1,159.375,10|0,0:0|0:0,0:0:0:0:
200,336,91382,1,2,0:0:0:0:
352,312,91567,1,8,0:0:0:0:
175,196,91753,1,2,0:0:0:0:
376,312,91938,69,0,1:0:0:0:
376,312,92030,1,2,0:0:0:0:
376,312,92123,1,2,0:0:0:0:
376,312,92216,1,8,0:0:0:0:
384,192,92401,1,2,0:0:0:0:
384,192,92493,2,0,P|368:128|408:80,1,106.25,8|8,0:0|0:0,0:0:0:0:
440,24,92771,2,0,L|296:8,1,106.25,2|0,0:0|0:0,0:0:0:0:
264,64,93049,2,0,L|144:48,1,106.25,8|2,0:0|0:0,0:0:0:0:
56,8,93419,37,4,1:0:0:0:
56,8,93512,1,2,0:0:0:0:
56,8,93605,1,2,0:0:0:0:
56,8,93697,1,8,0:0:0:0:
8,112,93882,1,2,0:0:0:0:
8,112,93975,2,0,P|24:176|88:200,1,106.25,8|8,0:0|0:0,0:0:0:0:
256,320,94345,2,0,P|256:248|200:200,1,106.25,2|8,0:0|0:0,0:0:0:0:
136,256,94623,2,0,L|128:368,1,106.25,0|8,0:0|0:0,0:0:0:0:
192,72,94901,6,0,L|80:64,1,106.25,8|2,0:0|0:0,0:0:0:0:
440,144,95179,2,0,L|296:136,1,106.25,8|2,0:0|0:0,0:0:0:0:
333,138,95456,1,2,0:0:0:0:
512,80,95642,1,8,0:0:0:0:
472,240,95827,1,2,0:0:0:0:
472,240,95919,1,0,0:0:0:0:
472,240,96012,1,8,0:0:0:0:
334,138,96197,1,2,0:0:0:0:
440,144,96382,6,0,P|416:192|336:208,1,106.25,8|2,0:0|0:0,0:0:0:0:
142,212,96660,2,0,P|96:192|72:144,1,106.25,8|2,0:0|0:0,0:0:0:0:
272,24,96938,2,0,L|256:160,1,106.25,8|8,0:0|0:0,0:0:0:0:
272,232,97308,1,2,0:0:0:0:
264,240,97401,1,2,0:0:0:0:
256,248,97493,1,8,0:0:0:0:
264,352,97679,1,2,0:0:0:0:
72,304,97864,5,8,0:0:0:0:
72,304,97956,2,0,P|128:312|192:288,1,106.25,8|2,0:0|0:0,0:0:0:0:
0,256,98234,1,8,0:0:0:0:
187,285,98419,1,2,0:0:0:0:
200,272,98512,1,8,1:0:0:0:
208,251,98605,6,0,L|198:182,1,53.125,8|8,0:0|0:0,0:0:0:0:
266,41,98882,21,2,0:0:0:0:
266,41,98975,2,0,L|279:118,1,63.7500024318696,8|2,1:0|0:0,0:0:0:0:
360,328,99345,5,0,1:0:0:0:
379,303,99438,1,0,1:0:0:0:
400,279,99530,1,0,1:0:0:0:
72,80,111197,38,0,L|88:184,1,95.6250036478044,4|0,1:0|1:0,0:0:0:0:
64,312,111753,1,0,1:0:0:0:
64,312,111938,1,2,0:0:0:0:
144,320,112123,1,0,0:0:0:0:
224,328,112308,1,10,1:0:0:0:
304,336,112493,1,2,0:0:0:0:
408,288,112679,70,0,P|384:240|408:176,1,95.6250036478044,0|0,1:0|1:0,0:0:0:0:
480,56,113234,1,2,0:0:0:0:
480,56,113605,1,0,1:0:0:0:
400,40,113790,1,10,1:0:0:0:
320,24,113975,1,2,0:0:0:0:
143,85,114160,6,0,P|191:77|247:85,1,95.6250036478044,0|0,1:0|1:0,0:0:0:0:
56,112,114716,1,0,1:0:0:0:
84,196,114901,1,0,0:0:0:0:
170,174,115086,1,0,1:0:0:0:
208,256,115271,2,0,P|208:296|176:336,1,63.7500024318696,10|2,1:0|0:0,0:0:0:0:
328,336,115642,70,0,L|440:320,1,95.6250036478044,0|0,1:0|1:0,0:0:0:0:
512,200,116197,1,0,1:0:0:0:
512,200,116567,1,0,1:0:0:0:
491,182,116660,1,0,0:0:0:0:
469,165,116753,1,10,1:0:0:0:
448,64,116938,1,2,0:0:0:0:
320,40,117123,6,0,P|312:104|336:144,1,95.6250036478044,4|0,1:0|1:0,0:0:0:0:
192,40,117679,70,0,P|200:104|176:144,1,95.6250036478044,0|0,1:0|0:0,0:0:0:0:
187,130,118049,1,0,1:0:0:0:
256,224,118234,1,10,1:0:0:0:
176,328,118605,6,0,P|136:296|136:232,1,95.6250036478044,0|0,1:0|1:0,0:0:0:0:
383,254,119160,70,0,P|376:296|336:328,1,95.6250036478044,0|0,1:0|0:0,0:0:0:0:
335,328,119530,1,0,1:0:0:0:
256,224,119716,1,10,1:0:0:0:
112,68,120086,6,0,B|169:123|169:123|205:69|268:67|268:67|292:99|363:81,1,297.5,2|2,0:0|0:0,0:0:0:0:
362,81,121475,1,0,0:0:0:0:
362,81,121567,1,0,0:0:0:0:
493,230,121845,1,2,0:0:0:0:
328,329,122123,2,0,P|278:314|207:329,1,95.6250036478044,2|0,0:0|0:0,0:0:0:0:
128,320,122493,70,0,P|148:257|189:230,1,85,4|8,0:0|0:0,0:0:0:0:
199,219,122771,1,8,0:0:0:0:
244,207,122864,1,8,0:0:0:0:
288,220,122956,1,8,0:0:0:0:
343,250,123049,22,0,L|318:149,1,85,4|0,0:0|0:0,0:0:0:0:
328,120,123327,1,2,0:0:0:0:
328,120,123605,5,2,0:0:0:0:
240,80,123790,2,0,L|128:72,1,85
112,48,124067,1,2,0:0:0:0:
112,48,124345,5,2,0:0:0:0:
64,144,124530,2,0,L|40:240,1,85,2|0,0:0|0:0,0:0:0:0:
0,256,124808,1,2,0:0:0:0:
192,352,125086,5,0,0:0:0:0:
216,328,125179,1,2,0:0:0:0:
243,308,125271,1,0,0:0:0:0:
363,286,125456,2,0,L|369:233,1,42.5,0|2,0:0|0:0,0:0:0:0:
240,176,125734,1,0,0:0:0:0:
240,176,125827,2,0,P|208:128|232:80,1,85,2|0,0:0|0:0,0:0:0:0:
376,104,126197,5,2,0:0:0:0:
368,112,126290,1,0,0:0:0:0:
488,16,126567,2,0,P|504:88|480:120,1,85,2|0,0:0|0:0,0:0:0:0:
480,112,126845,2,0,L|472:216,1,85,0|2,0:0|0:0,0:0:0:0:
496,336,127308,1,2,0:0:0:0:
496,336,127401,1,0,0:0:0:0:
496,336,127493,22,0,P|432:320|392:344,1,85
384,352,127771,1,2,0:0:0:0:
224,320,128049,2,0,L|160:336,1,42.5,2|0,0:0|0:0,0:0:0:0:
128,280,128234,2,0,L|8:312,1,85
0,304,128512,1,2,0:0:0:0:
80,168,128790,1,2,0:0:0:0:
64,144,128882,1,0,0:0:0:0:
48,120,128975,6,0,P|96:72|144:72,1,85,4|0,0:0|0:0,0:0:0:0:
152,88,129253,2,0,P|216:112|283:74,1,127.5,0|2,0:0|0:0,0:0:0:0:
328,8,129716,1,0,0:0:0:0:
480,184,129901,1,2,0:0:0:0:
480,184,129993,2,0,L|496:256,1,42.5,0|0,0:0|0:0,0:0:0:0:
352,328,130271,1,2,0:0:0:0:
337,340,130364,1,0,0:0:0:0:
320,352,130456,6,0,L|208:344,1,85,0|2,0:0|0:0,0:0:0:0:
200,360,130734,1,0,0:0:0:0:
8,336,131012,2,0,L|53:303,1,42.5,2|0,0:0|0:0,0:0:0:0:
60,274,131197,2,0,P|44:216|61:175,1,85,0|2,0:0|0:0,0:0:0:0:
80,160,131475,2,0,P|94:93|46:29,1,127.5,0|2,0:0|0:0,0:0:0:0:
158,225,131938,5,0,0:0:0:0:
256,272,132123,1,0,0:0:0:0:
352,224,132308,1,0,0:0:0:0:
256,56,132493,2,0,L|272:112,1,42.5,8|0,0:0|0:0,0:0:0:0:
456,192,132771,2,0,L|472:128,1,42.5,0|8,0:0|0:0,0:0:0:0:
499,29,133049,1,8,0:0:0:0:
499,29,133234,1,2,0:0:0:0:
499,29,133327,1,0,0:0:0:0:
499,29,133419,6,0,P|416:40|400:64,1,85,4|0,1:0|0:0,0:0:0:0:
395,61,133697,1,0,0:0:0:0:
383,93,133790,1,0,0:0:0:0:
383,126,133882,1,0,0:0:0:0:
352,136,133975,21,0,0:0:0:0:
318,136,134067,1,0,0:0:0:0:
287,121,134160,1,0,0:0:0:0:
262,96,134253,1,0,0:0:0:0:
223,96,134345,5,0,0:0:0:0:
214,133,134438,1,0,0:0:0:0:
221,170,134530,1,0,0:0:0:0:
239,203,134623,1,0,0:0:0:0:
266,230,134716,1,0,0:0:0:0:
298,249,134808,1,0,0:0:0:0:
336,264,134901,38,0,P|328:326|264:367,1,106.25,4|0,1:0|1:0,0:0:0:0:
198,303,135179,2,0,P|148:341|74:324,1,106.25,2|0,0:0|1:0,0:0:0:0:
92,231,135456,2,0,P|30:223|-8:152,1,106.25,2|0,1:0|0:0,0:0:0:0:
56,72,135827,1,2,0:0:0:0:
80,64,135919,1,0,0:0:0:0:
104,56,136012,2,0,L|256:80,1,106.25,8|2,0:0|0:0,0:0:0:0:
352,24,136382,6,0,P|376:88|328:152,1,106.25,2|8,1:0|0:0,0:0:0:0:
264,160,136660,2,0,P|272:224|328:248,1,106.25,2|0,0:0|0:0,0:0:0:0:
240,336,136938,2,0,L|104:336,1,106.25,0|2,1:0|1:0,0:0:0:0:
14,232,137308,1,2,0:0:0:0:
14,232,137401,1,0,1:0:0:0:
14,232,137493,2,0,P|75:234|126:184,1,106.25,0|2,1:0|0:0,0:0:0:0:
133,155,137771,1,0,0:0:0:0:
113,100,137864,70,0,P|77:75|16:77,1,106.25,0|2,1:0|0:0,0:0:0:0:
50,155,138142,1,0,1:0:0:0:
50,155,138234,2,0,L|82:294,1,106.25,0|2,0:0|1:0,0:0:0:0:
240,336,138605,1,0,1:0:0:0:
256,308,138697,1,2,0:0:0:0:
395,257,138882,1,2,0:0:0:0:
362,219,138975,1,0,1:0:0:0:
268,116,139160,1,2,0:0:0:0:
407,43,139345,5,0,1:0:0:0:
406,53,139438,1,0,0:0:0:0:
406,63,139530,1,2,0:0:0:0:
406,71,139623,1,0,1:0:0:0:
480,168,139808,1,0,0:0:0:0:
480,168,139901,1,2,0:0:0:0:
344,184,140086,2,0,L|224:176,1,106.25,0|2,1:0|0:0,0:0:0:0:
159,256,140364,2,0,L|288:266,1,106.25,0|0,1:0|0:0,0:0:0:0:
282,291,140642,1,2,0:0:0:0:
300,318,140734,1,0,0:0:0:0:
312,344,140827,22,0,P|352:308|348:230,1,106.25,4|8,1:0|0:0,0:0:0:0:
358,140,141105,54,0,P|318:76|350:12,1,106.25,0|2,0:0|0:0,0:0:0:0:
440,24,141382,22,0,P|427:98|323:138,1,159.375,0|2,1:0|0:0,0:0:0:0:
280,192,141753,1,0,1:0:0:0:
200,128,141938,2,0,L|128:120,1,53.125,0|2,1:0|0:0,0:0:0:0:
80,176,142123,2,0,L|-8:168,1,53.125,2|0,0:0|1:0,0:0:0:0:
8,272,142308,6,0,P|64:256|136:280,1,106.25,0|2,1:0|0:0,0:0:0:0:
110,264,142586,1,0,1:0:0:0:
223,353,142771,1,0,0:0:0:0:
223,353,142864,2,0,L|304:328,1,53.125,2|0,0:0|1:0,0:0:0:0:
369,344,143049,2,0,P|337:283|361:218,1,106.25,0|2,1:0|0:0,0:0:0:0:
280,192,143327,1,0,0:0:0:0:
280,192,143419,2,0,L|296:56,1,106.25,0|2,1:0|0:0,0:0:0:0:
264,48,143697,1,0,1:0:0:0:
216,64,143790,6,0,L|96:48,1,106.25,0|2,1:0|0:0,0:0:0:0:
384,168,144067,2,0,L|496:136,1,106.25,2|0,1:0|0:0,0:0:0:0:
216,247,144345,2,0,P|213:298|224:359,1,106.25,2|2,1:0|0:0,0:0:0:0:
112,280,144716,1,0,1:0:0:0:
112,280,144808,1,2,0:0:0:0:
112,280,144901,1,0,1:0:0:0:
72,192,145086,2,0,L|96:128,1,53.125,2|0,0:0|1:0,1:0:0:0:
24,72,145271,6,0,P|96:48|163:91,1,127.500004863739,0|2,1:0|0:0,0:0:0:0:
444,232,145549,2,0,P|372:256|310:213,1,127.500004863739,8|0,0:0|0:0,0:0:0:0:
328,235,145827,1,10,0:0:0:0:
496,32,146012,1,0,1:0:0:0:
360,116,146197,1,2,1:0:0:0:
224,200,146382,1,0,1:0:0:0:
224,200,146475,1,0,1:0:0:0:
224,200,146567,1,0,1:0:0:0:
224,200,146660,1,0,1:0:0:0:
224,200,146753,6,0,P|220:272|276:304,1,106.25,4|2,1:0|0:0,0:0:0:0:
304,176,147030,2,0,P|272:128|200:120,1,106.25,0|2,1:0|0:0,0:0:0:0:
160,24,147308,2,0,P|120:104|184:176,1,159.375,0|2,1:0|0:0,0:0:0:0:
150,159,147679,1,0,1:0:0:0:
40,216,147864,2,0,L|-24:192,2,53.125,2|0|2,1:0|0:0|0:0,0:0:0:0:
77,253,148142,1,0,1:0:0:0:
115,288,148234,70,0,P|153:329|225:321,1,106.25,2|8,0:0|0:0,0:0:0:0:
311,332,148512,2,0,P|359:329|397:288,1,106.25,0|2,0:0|0:0,0:0:0:0:
397,287,148790,1,0,1:0:0:0:
254,250,148975,1,0,0:0:0:0:
292,138,149160,1,2,1:0:0:0:
292,138,149253,1,0,0:0:0:0:
292,138,149345,1,0,0:0:0:0:
168,96,149530,1,2,1:0:0:0:
133,211,149716,6,0,L|5:187,1,106.25,0|2,0:0|1:0,0:0:0:0:
254,250,149993,2,0,P|224:304|152:304,1,106.25,0|0,0:0|1:0,0:0:0:0:
208,176,150271,2,0,P|200:88|288:48,1,159.375,2|0,1:0|0:0,0:0:0:0:
250,48,150642,1,2,1:0:0:0:
384,96,150827,1,0,1:0:0:0:
336,224,151012,1,2,0:0:0:0:
291,138,151197,69,0,1:0:0:0:
291,138,151290,1,0,0:0:0:0:
291,138,151382,1,2,0:0:0:0:
291,138,151475,1,0,1:0:0:0:
416,176,151660,1,0,0:0:0:0:
416,176,151753,2,0,P|424:240|392:296,1,106.25,2|0,1:0|0:0,0:0:0:0:
208,328,152123,1,2,0:0:0:0:
208,328,152216,2,0,L|96:344,1,106.25,0|0,1:0|0:0,0:0:0:0:
56,280,152493,2,0,L|64:216,1,53.125,2|0,1:0|0:0,0:0:0:0:
48,144,152679,38,0,L|64:32,1,106.25,0|0,0:0|1:0,0:0:0:0:
144,32,152956,2,0,P|208:57|272:25,1,106.25,2|0,0:0|0:0,0:0:0:0:
242,48,153234,1,0,1:0:0:0:
496,192,153605,1,2,1:0:0:0:
496,192,153697,1,0,0:0:0:0:
496,192,153790,1,0,0:0:0:0:
424,256,153975,2,0,L|408:344,1,53.125,2|0,1:0|0:0,0:0:0:0:
472,368,154160,6,0,P|392:344|328:360,1,106.25,0|2,1:0|0:0,0:0:0:0:
168,336,154438,2,0,P|248:312|312:328,1,106.25,0|2,1:0|0:0,0:0:0:0:
336,256,154716,2,0,P|312:176|344:120,1,106.25,0|2,1:0|0:0,0:0:0:0:
376,48,155086,1,0,0:0:0:0:
376,48,155179,1,2,0:0:0:0:
376,48,155271,2,0,L|264:32,1,106.25,0|2,1:0|0:0,0:0:0:0:
216,40,155549,1,0,1:0:0:0:
160,48,155642,22,0,L|39:30,1,106.25,0|0,1:0|1:0,0:0:0:0:
188,185,156012,2,0,L|316:153,1,106.25,0|0,1:0|1:0,0:0:0:0:
326,169,156290,1,0,1:0:0:0:
362,176,156382,1,0,1:0:0:0:
398,185,156475,1,0,1:0:0:0:
433,195,156567,1,0,1:0:0:0:
488,288,156753,1,2,0:0:0:0:
388,332,156938,1,0,1:0:0:0:
388,332,157030,1,2,0:0:0:0:
388,332,157123,38,0,P|312:312|264:328,1,106.25,4|0,1:0|0:0,0:0:0:0:
108,376,157401,2,0,P|100:312|124:272,1,106.25,2|2,0:0|0:0,0:0:0:0:
245,164,157679,2,0,P|256:104|229:52,1,106.25,2|4,0:0|1:0,0:0:0:0:
64,32,158049,1,0,0:0:0:0:
64,32,158142,1,0,0:0:0:0:
64,32,158234,1,4,1:0:0:0:
48,128,158419,1,0,1:0:0:0:
64,136,158512,1,0,0:0:0:0:
81,145,158605,6,0,L|184:123,1,85,4|8,1:0|0:0,0:0:0:0:
184,104,158882,1,0,0:0:0:0:
464,32,159530,1,4,0:0:0:0:
440,120,159716,2,0,L|448:224,1,85,8|0,0:0|0:0,0:0:0:0:
296,360,160642,1,0,0:0:0:0:
304,344,160734,1,0,0:0:0:0:
315,326,160827,2,0,L|306:220,1,85,8|0,0:0|0:0,0:0:0:0:
216,200,161197,1,0,0:0:0:0:
272,120,161382,1,8,0:0:0:0:
203,45,161567,6,0,L|110:36,1,85,4|0,0:0|0:0,0:0:0:0:
84,51,161845,1,2,0:0:0:0:
8,336,162493,1,0,0:0:0:0:
8,336,162586,1,0,0:0:0:0:
8,336,162679,2,0,L|128:328,1,85,8|8,0:0|0:0,0:0:0:0:
386,361,163605,1,0,0:0:0:0:
456,296,163790,1,8,0:0:0:0:
416,128,164067,1,8,0:0:0:0:
248,160,164345,1,8,0:0:0:0:
248,176,164438,1,0,0:0:0:0:
248,192,164530,5,4,0:0:0:0:
136,224,164716,1,2,0:0:0:0:
120,200,164808,1,0,0:0:0:0:
115,175,164901,1,2,0:0:0:0:
121,148,164993,1,0,0:0:0:0:
137,128,165086,1,2,0:0:0:0:
163,120,165179,2,0,L|150:34,1,85,0|0,0:0|0:0,0:0:0:0:
179,15,165456,21,2,0:0:0:0:
211,28,165549,1,0,0:0:0:0:
244,43,165642,1,2,0:0:0:0:
275,59,165734,1,0,0:0:0:0:
304,75,165827,1,2,0:0:0:0:
339,92,165919,1,0,0:0:0:0:
378,112,166012,6,0,L|448:99,1,42.5,0|2,0:0|0:0,0:0:0:0:
423,181,166197,2,0,L|495:165,1,42.5,2|0,0:0|0:0,0:0:0:0:
397,260,166382,2,0,L|328:235,1,42.5,0|2,1:0|0:0,0:0:0:0:
335,323,166567,2,0,L|282:296,1,42.5,2|0,0:0|0:0,0:0:0:0:
244,361,166753,6,0,L|179:328,1,42.5,0|2,1:0|0:0,0:0:0:0:
110,342,166938,2,0,L|149:292,1,42.5,0|2,0:0|0:0,0:0:0:0:
205,260,167123,2,0,L|191:200,1,42.5,0|2,1:0|0:0,0:0:0:0:
116,203,167308,2,0,L|103:141,1,42.5,0|2,0:0|0:0,0:0:0:0:
28,153,167493,6,0,L|8:51,1,85,0|2,1:0|0:0,0:0:0:0:
84,35,167771,2,0,P|133:53|207:33,1,127.5,0|2,0:0|0:0,0:0:0:0:
433,96,168234,2,0,P|374:88|317:108,1,85,0|2,1:0|0:0,0:0:0:0:
287,141,168512,2,0,L|212:120,1,42.5,0|0,0:0|1:0,0:0:0:0:
115,202,168790,1,2,0:0:0:0:
115,202,168882,1,0,0:0:0:0:
115,202,168975,6,0,L|74:318,1,85,4|2,1:0|0:0,0:0:0:0:
38,362,169253,2,0,L|143:352,1,85,0|2,1:0|0:0,0:0:0:0:
193,302,169530,2,0,L|301:337,1,85,0|2,1:0|1:0,0:0:0:0:
429,299,169901,1,0,1:0:0:0:
429,299,169993,1,0,0:0:0:0:
429,299,170086,1,2,1:0:0:0:
338,237,170271,1,2,1:0:0:0:
408,152,170456,22,0,P|416:80|464:48,1,106.25,4|0,1:0|1:0,0:0:0:0:
512,40,170734,2,0,L|400:16,1,106.25,2|0,0:0|0:0,0:0:0:0:
304,72,171012,2,0,L|184:48,1,106.25,2|0,1:0|0:0,0:0:0:0:
32,96,171382,1,2,1:0:0:0:
40,112,171475,1,0,0:0:0:0:
48,128,171567,1,0,1:0:0:0:
48,224,171753,1,2,1:0:0:0:
48,336,171938,6,0,P|104:320|136:272,1,106.25,0|2,0:0|1:0,0:0:0:0:
208,328,172216,2,0,L|320:336,1,106.25
392,304,172493,1,2,1:0:0:0:
476,200,172679,1,0,1:0:0:0:
336,24,173049,1,2,1:0:0:0:
336,24,173142,1,0,0:0:0:0:
336,24,173235,1,2,0:0:0:0:
336,24,173327,1,2,0:0:0:0:
336,24,173419,2,0,P|336:88|376:128,1,106.25,4|2,1:0|0:0,0:0:0:0:
288,176,173697,6,0,L|149:157,1,106.25,0|0,1:0|0:0,0:0:0:0:
120,104,173975,1,2,1:0:0:0:
48,224,174160,1,0,0:0:0:0:
40,208,174253,1,0,1:0:0:0:
32,192,174345,1,2,1:0:0:0:
57,315,174530,2,0,P|88:314|135:260,1,106.25,0|2,1:0|0:0,0:0:0:0:
160,256,174808,1,0,0:0:0:0:
192,252,174901,6,0,L|304:268,1,106.25,0|2,1:0|0:0,0:0:0:0:
392,352,175179,2,0,P|384:296|416:240,1,106.25,0|0,1:0|0:0,0:0:0:0:
472,200,175456,1,2,1:0:0:0:
432,56,175642,2,0,L|294:42,1,106.25,0|2,1:0|0:0,0:0:0:0:
254,65,175919,1,0,0:0:0:0:
254,65,176012,2,0,L|131:54,1,106.25,0|2,1:0|0:0,0:0:0:0:
32,16,176382,5,4,1:0:0:0:
32,16,176475,1,0,0:0:0:0:
32,16,176567,1,2,0:0:0:0:
32,16,176660,1,0,1:0:0:0:
48,128,176845,1,0,0:0:0:0:
48,128,176938,2,0,P|48:192|96:232,1,106.25,2|0,1:0|0:0,0:0:0:0:
64,304,177216,2,0,L|184:320,1,106.25,2|0,1:0|0:0,0:0:0:0:
240,360,177493,1,0,1:0:0:0:
336,288,177679,1,2,0:0:0:0:
336,288,177771,1,0,1:0:0:0:
336,288,177864,22,0,P|328:224|384:176,1,106.25,0|2,0:0|0:0,0:0:0:0:
363,100,178142,2,0,P|422:125|435:197,1,106.25,0|0,1:0|0:0,0:0:0:0:
422,247,178419,1,2,1:0:0:0:
280,144,178605,2,0,L|112:160,1,159.375,0|2,1:0|0:0,0:0:0:0:
72,224,178975,1,0,1:0:0:0:
104,80,179160,1,2,1:0:0:0:
152,176,179345,6,0,P|168:240|136:288,1,106.25,4|0,1:0|0:0,0:0:0:0:
72,320,179623,1,2,0:0:0:0:
72,224,179808,1,0,0:0:0:0:
64,200,179901,1,2,1:0:0:0:
208,72,180086,1,0,1:0:0:0:
280,144,180271,1,2,0:0:0:0:
384,112,180456,1,0,1:0:0:0:
488,72,180642,1,2,1:0:0:0:
464,200,180827,5,0,1:0:0:0:
464,200,180919,1,0,0:0:0:0:
464,200,181012,1,2,0:0:0:0:
464,200,181105,1,0,0:0:0:0:
417,259,181197,2,0,L|416:326,1,53.125,0|0,1:0|0:0,0:0:0:0:
345,290,181382,2,0,L|344:360,1,53.125,2|0,1:0|1:0,0:0:0:0:
273,372,181567,1,0,1:0:0:0:
273,372,181660,2,0,L|160:368,1,106.25,0|2,1:0|0:0,0:0:0:0:
72,288,181938,2,0,L|219:294,1,127.5,0|2,1:0|0:0,0:0:0:0:
215,282,182308,37,0,1:0:0:0:
208,270,182401,1,0,1:0:0:0:
202,258,182493,1,0,1:0:0:0:
194,247,182586,1,0,1:0:0:0:
261,52,182864,1,0,1:0:0:0:
261,52,182956,1,0,1:0:0:0:
261,52,183049,1,0,1:0:0:0:
261,52,183142,1,0,1:0:0:0:
393,199,183419,2,0,L|504:200,1,95.6250036478044,2|0,0:0|0:0,0:0:0:0:
496,176,183790,6,0,L|408:232,1,85,4|0,0:0|0:0,0:0:0:0:
431,329,184160,1,8,0:0:0:0:
390,341,184253,1,0,0:0:0:0:
349,351,184345,1,0,0:0:0:0:
192,328,184530,6,0,P|224:288|280:280,1,85
272,160,184901,1,8,0:0:0:0:
264,128,184993,1,0,0:0:0:0:
256,96,185086,1,0,0:0:0:0:
128,32,185271,6,0,P|120:88|152:120,1,85
80,216,185642,1,8,0:0:0:0:
112,208,185734,2,0,L|192:216,1,42.5,0|8,0:0|0:0,0:0:0:0:
272,272,186012,6,0,L|368:280,1,85
464,232,186382,1,8,0:0:0:0:
432,208,186475,2,0,L|424:136,1,42.5
496,64,186753,6,0,P|448:24|392:40,1,85
320,96,187123,1,8,0:0:0:0:
320,96,187216,1,0,0:0:0:0:
320,96,187308,1,0,0:0:0:0:
240,40,187493,2,0,L|144:40,1,85
58,5,187864,1,8,0:0:0:0:
58,5,187956,1,0,0:0:0:0:
58,5,188049,1,0,0:0:0:0:
72,104,188234,6,0,P|72:176|104:208,1,85,0|2,0:0|0:0,0:0:0:0:
256,320,188790,1,2,0:0:0:0:
404,155,189160,1,2,0:0:0:0:
168,320,189530,1,0,0:0:0:0:
256,320,189716,6,0,L|352:312,1,85,4|0,0:0|0:0,0:0:0:0:
448,272,190086,1,8,0:0:0:0:
462,295,190179,1,0,0:0:0:0:
477,317,190271,1,0,0:0:0:0:
304,192,190456,6,0,P|296:136|316:101,1,85
400,56,190827,1,8,0:0:0:0:
416,64,190919,1,0,0:0:0:0:
432,72,191012,1,0,0:0:0:0:
264,40,191197,5,0,0:0:0:0:
160,56,191382,2,0,L|64:40,1,85,0|8,0:0|0:0,0:0:0:0:
76,42,191660,1,0,0:0:0:0:
76,42,191753,1,0,0:0:0:0:
24,168,191938,1,0,0:0:0:0:
144,224,192123,2,0,P|216:216|256:240,1,85,0|8,0:0|0:0,0:0:0:0:
261,247,192401,1,0,0:0:0:0:
289,285,192493,2,0,L|361:277,1,42.5
384,328,192679,6,0,L|392:232,1,85
480,136,193049,1,8,0:0:0:0:
480,136,193142,1,0,0:0:0:0:
480,136,193234,2,0,L|472:64,1,42.5,0|8,0:0|0:0,0:0:0:0:
406,53,193419,2,0,P|367:83|303:68,1,85,8|0,0:0|0:0,0:0:0:0:
200,40,193790,1,8,0:0:0:0:
200,40,193882,2,0,L|143:48,1,42.5
16,152,194160,5,2,0:0:0:0:
94,242,194345,1,2,0:0:0:0:
192,176,194530,2,0,L|288:176,1,85,0|2,0:0|0:0,0:0:0:0:
324,237,194901,21,0,1:0:0:0:
318,310,195086,5,0,1:0:0:0:
448,240,195271,5,0,1:0:0:0:
456,169,195456,5,0,1:0:0:0:
462,97,195642,6,0,P|418:60|368:64,1,85,4|0,0:0|0:0,0:0:0:0:
248,0,196012,1,8,0:0:0:0:
248,0,196105,1,0,0:0:0:0:
248,0,196197,2,0,P|240:64|264:96,1,85
126,197,196567,2,0,P|182:205|230:181,1,85,0|8,0:0|0:0,0:0:0:0:
343,173,196938,1,0,0:0:0:0:
249,81,197123,22,0,L|137:65,1,85
40,160,197493,1,8,0:0:0:0:
40,160,197586,1,0,0:0:0:0:
40,160,197679,2,0,P|30:211|62:259,1,85,8|0,0:0|0:0,0:0:0:0:
199,338,198049,2,0,P|204:286|175:250,1,85,0|8,0:0|0:0,0:0:0:0:
103,321,198419,1,0,0:0:0:0:
124,195,198605,6,0,P|163:168|232:183,1,85
314,239,198975,1,8,0:0:0:0:
314,239,199067,1,0,0:0:0:0:
314,239,199160,2,0,L|408:216,1,85,8|0,0:0|0:0,0:0:0:0:
488,136,199530,1,0,0:0:0:0:
467,285,199716,2,0,L|367:311,1,85,8|0,0:0|0:0,0:0:0:0:
293,351,200086,5,0,0:0:0:0:
192,328,200271,2,0,P|121:302|20:334,1,170,2|2,0:0|0:0,0:0:0:0:
0,152,201012,2,0,L|112:144,1,85,2|8,0:0|0:0,0:0:0:0:
168,88,201382,1,2,0:0:0:0:
272,40,201567,6,0,P|280:96|240:136,1,85,4|0,0:0|0:0,0:0:0:0:
353,178,201938,1,8,0:0:0:0:
353,178,202030,1,0,0:0:0:0:
353,178,202123,2,0,L|473:162,1,85
266,118,202493,2,0,P|234:182|298:262,1,170,2|2,0:0|0:0,0:0:0:0:
283,257,203049,6,0,L|288:344,1,85,0|2,0:0|0:0,0:0:0:0:
128,352,203419,1,8,0:0:0:0:
128,352,203512,1,0,0:0:0:0:
128,352,203605,2,0,L|32:336,1,85
83,182,203975,2,0,P|51:126|107:30,1,170,2|2,0:0|0:0,0:0:0:0:
174,118,204530,21,0,0:0:0:0:
184,224,204716,1,0,0:0:0:0:
280,160,204901,1,8,0:0:0:0:
280,160,204993,1,0,0:0:0:0:
280,160,205086,1,0,0:0:0:0:
280,160,205179,2,0,L|328:192,1,42.5,8|0,0:0|0:0,0:0:0:0:
448,288,205456,2,0,P|432:240|456:192,1,85,2|0,0:0|0:0,0:0:0:0:
448,192,205734,1,0,0:0:0:0:
461,181,205827,1,2,0:0:0:0:
472,72,206012,5,4,1:0:0:0:
360,48,206197,1,8,1:0:0:0:
360,48,206290,1,8,1:0:0:0:
360,48,206382,1,0,1:0:0:0:
360,48,206475,1,8,1:0:0:0:
360,48,206567,1,8,1:0:0:0:
360,48,206660,1,0,1:0:0:0:
360,48,206753,6,0,L|256:64,1,85,0|8,1:0|1:0,0:0:0:0:
240,48,207030,1,0,0:0:0:0:
204,33,207123,1,0,1:0:0:0:
168,16,207216,1,0,1:0:0:0:
130,26,207308,1,0,1:0:0:0:
98,35,207401,1,0,1:0:0:0:
66,43,207493,6,0,L|88:168,1,106.25
24,272,207864,1,0,0:0:0:0:
24,272,207956,1,0,0:0:0:0:
24,272,208049,1,0,0:0:0:0:
24,272,208142,1,0,0:0:0:0:
24,272,208234,2,0,L|160:240,1,106.25
280,304,208605,5,0,0:0:0:0:
280,304,208697,1,0,0:0:0:0:
280,304,208790,1,0,0:0:0:0:
280,304,208882,1,0,0:0:0:0:
280,304,208975,1,0,0:0:0:0:
376,312,209160,1,0,0:0:0:0:
472,224,209345,5,0,0:0:0:0:
472,224,209438,1,0,0:0:0:0:
472,224,209530,1,0,0:0:0:0:
472,224,209623,1,0,0:0:0:0:
472,224,209716,2,0,P|448:160|480:80,1,127.5,0|0,1:0|0:0,0:0:0:0:
504,40,210086,1,0,1:0:0:0:
320,80,210456,38,0,L|200:64,1,106.25
88,16,210827,1,0,0:0:0:0:
88,16,210919,1,0,0:0:0:0:
88,16,211012,1,0,0:0:0:0:
88,16,211105,1,0,0:0:0:0:
88,16,211197,1,0,0:0:0:0:
88,16,211382,1,0,0:0:0:0:
48,152,211567,5,0,0:0:0:0:
48,152,211660,1,0,0:0:0:0:
48,152,211753,1,0,0:0:0:0:
48,152,211845,1,0,0:0:0:0:
48,152,211938,2,0,L|64:264,1,106.25
224,320,212308,5,0,0:0:0:0:
224,320,212401,1,0,0:0:0:0:
224,320,212493,1,0,0:0:0:0:
224,320,212586,1,0,0:0:0:0:
224,320,212679,1,0,0:0:0:0:
